osu file format v14

[General]
AudioFilename: audio.mp3
AudioLeadIn: 0
PreviewTime: 2930
Countdown: 0
SampleSet: Soft
StackLeniency: 0.4
Mode: 0
LetterboxInBreaks: 0
WidescreenStoryboard: 0

[Editor]
DistanceSpacing: 1.1
BeatDivisor: 4
GridSize: 4
TimelineZoom: 2.1

[Metadata]
Title:Kawaiku Naritai (Short Ver.)
TitleUnicode:可愛くなりたい (Short Ver.)
Artist:HoneyWorks feat.sana
ArtistUnicode:HoneyWorks feat.鎖那
Creator:yaleufeu
Version:Light Insane
Source:
Tags:cute utaite sharuresu shyotamaze
BeatmapID:1156380
BeatmapSetID:544647

[Difficulty]
HPDrainRate:5.5
CircleSize:4
OverallDifficulty:7
ApproachRate:8
SliderMultiplier:2.5
SliderTickRate:1

[Events]
//Background and Video events
0,0,"Kawaiku Naritai.png",0,0
Video,2498,"video.avi"
//Break Periods
//Storyboard Layer 0 (Background)
//Storyboard Layer 1 (Fail)
//Storyboard Layer 2 (Pass)
//Storyboard Layer 3 (Foreground)
//Storyboard Sound Samples

[TimingPoints]
3112,545.454545454546,4,2,1,60,1,0
33112,-100,4,2,1,5,0,0

[Colours]
Combo1 : 255,0,128
Combo2 : 255,128,0
Combo3 : 0,102,255
Combo4 : 128,128,255

[HitObjects]
50,182,3112,6,0,P|44:247|82:313,1,125,4|0,0:0|0:0,0:0:0:0:
183,221,3657,2,0,P|189:156|151:90,1,125,8|0,0:0|0:0,0:0:0:0:
47,33,4202,1,0,0:0:0:0:
40,124,4384,1,0,0:0:0:0:
39,169,4475,1,0,0:0:0:0:
164,103,4748,2,0,P|225:90|287:101,1,125,8|0,0:0|0:0,0:0:0:0:
404,171,5293,6,0,B|310:204|237:168|237:168|198:192|188:249,1,250,2|8,0:0|0:0,0:0:0:0:
254,353,6112,1,0,0:0:0:0:
344,360,6293,1,0,0:0:0:0:
388,364,6384,1,0,0:0:0:0:
335,237,6657,1,0,0:0:0:0:
254,353,6930,2,0,L|112:341,1,125,8|0,0:0|0:0,0:0:0:0:
47,229,7475,6,0,L|189:217,1,125,4|0,0:0|0:0,0:0:0:0:
290,158,8021,2,0,L|414:168,1,125,8|0,0:0|0:0,0:0:0:0:
456,300,8566,1,0,0:0:0:0:
428,212,8748,1,0,0:0:0:0:
414,168,8839,1,0,0:0:0:0:
372,36,9112,2,0,L|247:25,1,125,8|0,0:0|0:0,0:0:0:0:
144,116,9657,6,0,L|19:127,2,125,2|0|8,0:0|0:0|0:0,0:0:0:0:
247,25,10475,1,0,0:0:0:0:
384,40,10748,2,0,P|396:104|376:180,1,125,8|8,0:0|0:0,0:0:0:0:
344,244,11202,1,8,0:0:0:0:
308,216,11293,1,8,0:0:0:0:
224,184,11475,1,8,0:0:0:0:
192,216,11566,1,8,0:0:0:0:
172,304,11748,5,8,0:0:0:0:
140,336,11839,2,0,P|79:348|18:335,1,125,4|0,0:0|0:0,0:0:0:0:
40,200,12384,2,0,P|104:188|176:208,1,125,8|0,0:0|0:0,0:0:0:0:
268,287,12930,1,0,0:0:0:0:
183,323,13112,1,0,0:0:0:0:
140,336,13202,1,0,0:0:0:0:
100,204,13475,2,0,L|108:52,1,125,8|0,0:0|0:0,0:0:0:0:
236,32,14021,6,0,B|268:96|356:112|416:72|416:72|440:80|464:104,1,250,2|8,0:0|0:0,0:0:0:0:
496,224,14839,1,0,0:0:0:0:
364,192,15112,1,0,0:0:0:0:
424,124,15293,1,0,0:0:0:0:
452,93,15384,1,0,0:0:0:0:
496,224,15657,2,0,P|455:299|419:323,1,125,8|0,0:0|0:0,0:0:0:0:
292,284,16202,6,0,P|232:268|160:292,2,125,4|0|8,0:0|0:0|0:0,0:0:0:0:
423,320,17021,1,0,0:0:0:0:
476,244,17202,1,0,0:0:0:0:
492,200,17293,2,0,L|484:68,1,125
356,24,17839,2,0,L|348:148,1,125,8|0,0:0|0:0,0:0:0:0:
260,256,18384,6,0,L|268:380,2,125,4|0|8,0:0|0:0|0:0,0:0:0:0:
252,120,19202,1,8,0:0:0:0:
136,48,19475,1,8,0:0:0:0:
72,116,19657,1,8,0:0:0:0:
44,152,19748,1,8,0:0:0:0:
16,288,20021,5,8,0:0:0:0:
40,328,20112,1,8,0:0:0:0:
80,348,20202,1,8,0:0:0:0:
124,356,20293,1,8,0:0:0:0:
260,368,20566,6,0,L|424:352,1,125,4|0,0:0|0:0,0:0:0:0:
484,260,21112,1,8,0:0:0:0:
386,162,21384,1,0,0:0:0:0:
320,228,21566,1,0,0:0:0:0:
288,260,21657,2,0,L|163:247,1,125,2|0,0:0|0:0,0:0:0:0:
48,176,22202,2,0,L|172:163,1,125,8|0,0:0|0:0,0:0:0:0:
76,64,22748,6,0,L|324:89,1,250,4|8,0:0|0:0,0:0:0:0:
460,108,23566,1,0,0:0:0:0:
376,216,23839,1,2,0:0:0:0:
340,128,24021,1,0,0:0:0:0:
324,89,24112,1,0,0:0:0:0:
452,44,24384,1,8,0:0:0:0:
508,168,24657,1,0,0:0:0:0:
464,248,24839,5,0,0:0:0:0:
436,284,24930,2,0,P|380:308|312:280,1,125,4|0,0:0|0:0,0:0:0:0:
208,208,25475,1,8,0:0:0:0:
148,332,25748,1,0,0:0:0:0:
84,264,25930,1,0,0:0:0:0:
60,224,26021,2,0,L|80:96,1,125
200,36,26566,2,0,L|180:159,1,125,8|0,0:0|0:0,0:0:0:0:
236,284,27112,6,0,P|304:284|356:248,2,125,4|0|8,0:0|0:0|0:0,0:0:0:0:
104,240,27930,1,8,0:0:0:0:
124,104,28202,1,0,0:0:0:0:
200,152,28384,1,8,0:0:0:0:
236,176,28475,1,8,0:0:0:0:
292,52,28748,5,8,0:0:0:0:
336,44,28839,1,8,0:0:0:0:
380,52,28929,1,8,0:0:0:0:
420,72,29020,1,8,0:0:0:0:
460,192,29293,5,4,0:0:0:0:
256,192,29430,12,0,33112,0:0:0:0:
