osu file format v14

[General]
AudioFilename: audio.mp3
AudioLeadIn: 0
PreviewTime: 2930
Countdown: 0
SampleSet: Soft
StackLeniency: 0.4
Mode: 0
LetterboxInBreaks: 0
WidescreenStoryboard: 0

[Editor]
DistanceSpacing: 1.3
BeatDivisor: 4
GridSize: 4
TimelineZoom: 2.1

[Metadata]
Title:Kawaiku Naritai (Short Ver.)
TitleUnicode:可愛くなりたい (Short Ver.)
Artist:HoneyWorks feat.sana
ArtistUnicode:HoneyWorks feat.鎖那
Creator:yaleufeu
Version:Advanced
Source:
Tags:cute utaite sharuresu shyotamaze
BeatmapID:1154151
BeatmapSetID:544647

[Difficulty]
HPDrainRate:4.5
CircleSize:4
OverallDifficulty:5
ApproachRate:6.5
SliderMultiplier:1.5
SliderTickRate:1

[Events]
//Background and Video events
0,0,"Kawaiku Naritai.png",0,0
Video,2498,"video.avi"
//Break Periods
//Storyboard Layer 0 (Background)
//Storyboard Layer 1 (Fail)
//Storyboard Layer 2 (Pass)
//Storyboard Layer 3 (Foreground)
//Storyboard Sound Samples

[TimingPoints]
3112,545.454545454546,4,2,1,60,1,0
33112,-100,4,2,1,5,0,0

[Colours]
Combo1 : 255,0,128
Combo2 : 255,128,0
Combo3 : 0,102,255
Combo4 : 128,128,255

[HitObjects]
127,145,3112,6,0,P|161:112|171:78,1,75,4|0,0:0|0:0,0:0:0:0:
75,61,3657,1,8,0:0:0:0:
29,147,3930,2,0,P|42:194|66:223,1,75
152,237,4475,1,0,0:0:0:0:
221,167,4748,2,0,P|269:163|315:173,1,75,8|0,0:0|0:0,0:0:0:0:
365,234,5293,6,0,L|391:70,1,150,2|8,0:0|0:0,0:0:0:0:
308,29,6112,1,0,0:0:0:0:
220,72,6384,2,0,P|183:91|136:88,1,75
56,64,6930,1,8,0:0:0:0:
79,158,7202,1,0,0:0:0:0:
157,215,7475,6,0,P|196:234|245:233,1,75,4|0,0:0|0:0,0:0:0:0:
308,182,8021,1,8,0:0:0:0:
398,217,8293,1,0,0:0:0:0:
445,302,8566,2,0,P|412:338|383:350,1,75
290,359,9112,2,0,L|215:359,1,75,8|0,0:0|0:0,0:0:0:0:
154,284,9657,6,0,P|180:270|238:265,2,75,2|0|8,0:0|0:0|0:0,0:0:0:0:
64,320,10475,1,0,0:0:0:0:
68,224,10748,2,0,L|152:196,1,75,8|8,0:0|0:0,0:0:0:0:
232,172,11293,1,8,0:0:0:0:
300,244,11566,1,8,0:0:0:0:
396,236,11839,6,0,L|408:128,1,75,4|0,0:0|0:0,0:0:0:0:
412,64,12384,1,8,0:0:0:0:
320,96,12657,2,0,P|272:100|220:80,1,75
164,40,13202,1,0,0:0:0:0:
96,108,13475,2,0,L|103:182,1,75,8|0,0:0|0:0,0:0:0:0:
40,256,14021,6,0,P|80:276|184:236,1,150,2|8,0:0|0:0,0:0:0:0:
240,172,14839,1,0,0:0:0:0:
336,188,15112,2,0,P|356:228|356:284,1,75
340,352,15657,1,8,0:0:0:0:
244,376,15930,1,0,0:0:0:0:
153,339,16202,6,0,P|109:343|49:331,2,75,4|0|8,0:0|0:0|0:0,0:0:0:0:
216,263,17021,1,0,0:0:0:0:
300,216,17293,2,0,P|344:212|404:224,1,75
456,272,17839,1,8,0:0:0:0:
392,348,18112,1,0,0:0:0:0:
296,332,18384,6,0,L|212:352,2,75,4|0|8,0:0|0:0|0:0,0:0:0:0:
356,256,19202,1,8,0:0:0:0:
388,164,19475,2,0,P|368:128|340:104,1,75,8|8,0:0|0:0,0:0:0:0:
248,76,20021,2,0,L|164:84,1,75,8|8,0:0|0:0,0:0:0:0:
76,104,20566,6,0,P|48:176|64:280,1,150,4|8,0:0|0:0,0:0:0:0:
128,308,21384,1,0,0:0:0:0:
200,240,21657,2,0,P|248:220|292:228,1,75,2|0,0:0|0:0,0:0:0:0:
368,232,22202,1,8,0:0:0:0:
436,304,22475,1,0,0:0:0:0:
496,228,22748,6,0,L|484:64,1,150,4|8,0:0|0:0,0:0:0:0:
408,20,23566,1,0,0:0:0:0:
316,48,23839,2,0,L|224:32,1,75,2|0,0:0|0:0,0:0:0:0:
164,92,24384,2,0,L|60:108,1,75,8|0,0:0|0:0,0:0:0:0:
40,188,24930,6,0,L|192:252,1,150,4|8,0:0|0:0,0:0:0:0:
268,288,25748,1,0,0:0:0:0:
352,236,26021,2,0,P|384:208|400:144,1,75
412,85,26566,1,8,0:0:0:0:
332,29,26839,1,0,0:0:0:0:
236,41,27112,6,0,P|200:56|172:88,2,75,4|0|8,0:0|0:0|0:0,0:0:0:0:
332,29,27930,2,0,P|366:42|393:69,1,75,8|0,0:0|0:0,0:0:0:0:
430,159,28475,1,8,0:0:0:0:
374,239,28748,1,8,0:0:0:0:
283,202,29021,1,8,0:0:0:0:
194,242,29293,5,4,0:0:0:0:
256,192,29430,12,0,33112,0:0:0:0:
