osu file format v14

[General]
AudioFilename: audio.mp3
AudioLeadIn: 0
PreviewTime: 69483
Countdown: 0
SampleSet: Soft
StackLeniency: 0.7
Mode: 0
LetterboxInBreaks: 0
EpilepsyWarning: 1
WidescreenStoryboard: 1

[Editor]
Bookmarks: 69483,80777,92071,94895,106189,109012,175365,181012,192306,216306,238895,250189,282659,285483,296777,302424
DistanceSpacing: 1
BeatDivisor: 4
GridSize: 4
TimelineZoom: 1.2

[Metadata]
Title:Daikirai na Hazu Datta
TitleUnicode:Daikirai na Hazu Datta
Artist:HoneyWorks feat.GUMI
ArtistUnicode:HoneyWorks feat.GUMI
Creator:tutuhara
Version:Tales of Love
Source:
Tags:HoneyWorks GUMI Tales of Love vocaloid iinkai
BeatmapID:1428154
BeatmapSetID:675033

[Difficulty]
HPDrainRate:6
CircleSize:3.7
OverallDifficulty:8.5
ApproachRate:9.3
SliderMultiplier:2.1
SliderTickRate:2

[Events]
//Background and Video events
0,0,"maxresdefault (1).jpg",0,0
//Break Periods
2,181212,191400
2,239095,249282
//Storyboard Layer 0 (Background)
//Storyboard Layer 1 (Fail)
//Storyboard Layer 2 (Pass)
//Storyboard Layer 3 (Foreground)
//Storyboard Sound Samples

[TimingPoints]
307,352.941176470588,4,2,1,60,1,0
5954,-133.333333333333,4,2,1,60,0,0
12218,-133.333333333333,4,2,2,60,0,0
13101,-133.333333333333,4,2,1,60,0,0
16189,-200,4,2,1,60,0,0
17071,-133.333333333333,4,2,1,60,0,0
17248,-100,4,2,1,60,0,0
21659,-100,4,2,1,5,0,0
21836,-100,4,2,1,60,0,0
22718,-100,4,2,1,5,0,0
22895,-100,4,2,1,60,0,0
28542,-133.333333333333,4,2,1,60,0,0
34189,-200,4,2,1,60,0,0
39836,-100,4,2,1,60,0,0
51130,-133.333333333333,4,2,1,60,0,0
66659,-111.111111111111,4,2,1,60,0,0
68071,-100,4,2,2,60,0,1
80777,-83.3333333333333,4,2,2,60,0,1
82189,-83.3333333333333,4,2,2,60,0,1
92071,-200,4,2,1,60,0,0
94895,-100,4,2,1,60,0,0
109012,-133.333333333333,4,2,1,60,0,0
114659,-200,4,2,1,60,0,0
120306,-100,4,2,1,60,0,0
131601,-133.333333333333,4,2,1,60,0,0
147130,-111.111111111111,4,2,1,60,0,0
149601,-66.6666666666667,4,2,1,60,0,0
149954,-90.9090909090909,4,2,2,60,0,1
161248,-76.9230769230769,4,2,2,60,0,1
172542,-200,4,2,1,60,0,0
173512,-200,4,2,2,60,0,0
173689,-200,4,2,1,60,0,0
192306,-100,4,2,1,60,0,0
202542,-100,4,2,1,30,0,0
203601,-100,4,2,1,45,0,0
204306,-100,4,2,1,55,0,0
205012,-133.333333333333,4,2,1,60,0,0
211277,-133.333333333333,4,2,2,60,0,0
211454,-133.333333333333,4,2,1,60,0,0
211983,-133.333333333333,4,2,2,60,0,0
212159,-133.333333333333,4,2,1,60,0,0
214806,-133.333333333333,4,2,2,60,0,0
214983,-133.333333333333,4,2,1,60,0,0
216306,-71.4285714285714,4,2,1,60,0,1
238895,-100,4,2,1,60,0,0
249840,-133.333333333333,4,2,1,60,0,0
257248,-200,4,2,1,60,0,0
260071,-90.9090909090909,4,2,2,60,0,1
282659,-133.333333333333,4,2,1,60,0,0
285483,-100,4,2,1,60,0,0
296865,-200,4,2,1,5,0,0

[HitObjects]
256,192,307,12,0,5601,0:0:0:0:
20,324,5954,6,0,L|-8:212,1,78.7500030040742,2|0,0:0|0:0,0:0:0:0:
48,172,6306,1,0,0:0:0:0:
88,48,6483,2,0,L|124:136,1,78.7500030040742,2|0,0:0|0:0,0:0:0:0:
216,232,6836,2,0,L|204:136,1,78.7500030040742,2|0,0:0|0:0,0:0:0:0:
272,92,7189,1,0,0:0:0:0:
309,239,7365,6,0,L|280:312,1,78.7500030040742,2|0,0:0|0:0,0:0:0:0:
212,352,7718,1,2,0:0:0:0:
136,336,7895,1,0,0:0:0:0:
60,312,8071,2,0,P|48:248|-24:160,1,157.500006008148,2|0,0:0|0:0,0:0:0:0:
28,104,8601,1,0,0:0:0:0:
88,156,8777,6,0,P|136:188|180:176,1,78.7500030040742,2|0,0:0|0:0,0:0:0:0:
148,108,9130,1,0,0:0:0:0:
104,44,9306,2,0,L|16:16,1,78.7500030040742,2|0,0:0|0:0,0:0:0:0:
248,120,9659,2,0,P|284:152|340:156,1,78.7500030040742,2|0,0:0|0:0,0:0:0:0:
200,52,10012,1,0,0:0:0:0:
148,108,10189,6,0,P|104:184|160:256,1,157.500006008148,2|0,0:0|0:0,0:0:0:0:
252,244,10718,1,2,0:0:0:0:
196,300,10895,2,0,L|104:352,2,78.7500030040742
400,304,11424,1,0,3:0:0:0:
400,304,11512,1,0,3:0:0:0:
400,304,11601,6,0,L|332:128,1,157.500006008148,8|0,3:2|3:0,0:0:0:0:
284,72,12130,2,0,P|208:100|124:48,1,157.500006008148
72,32,12659,1,8,0:0:0:0:
32,100,12836,6,0,L|0:268,1,157.500006008148
76,284,13365,1,8,0:0:0:0:
128,344,13542,1,2,0:0:0:0:
148,268,13718,2,0,L|132:168,1,78.7500030040742,8|0,0:0|0:0,0:0:0:0:
176,120,14071,1,8,0:0:0:0:
240,76,14248,1,0,0:0:0:0:
172,36,14424,6,0,P|88:24|-8:36,1,157.500006008148,10|0,0:0|0:0,0:0:0:0:
40,108,14954,1,0,0:0:0:0:
60,184,15130,2,0,P|48:244|-12:316,1,157.500006008148,2|0,3:0|3:0,0:0:0:0:
104,320,15659,6,0,P|144:268|240:240,1,157.500006008148
376,172,16189,2,2,L|468:256,2,105,2|2|0,0:0|0:0|0:0,0:0:0:0:
232,88,17071,2,0,L|192:64,1,39.3750015020371,4|0,0:0|0:0,0:0:0:0:
152,92,17248,6,0,B|96:128|96:128|84:44|-40:64,1,210,12|0,0:0|0:0,0:0:0:0:
12,148,17777,1,2,0:0:0:0:
40,260,17954,2,0,B|108:148|256:212,1,210,0|0,3:0|0:0,0:0:0:0:
308,260,18483,1,0,0:0:0:0:
396,320,18659,6,0,L|304:384,2,105,2|0|2,0:0|0:0|0:0,0:0:0:0:
396,216,19189,1,0,3:0:0:0:
108,84,19365,1,0,3:0:0:0:
108,84,19718,2,0,P|72:164|24:192,1,105
16,268,20071,6,0,P|76:256|160:288,1,105,12|0,0:0|0:0,0:0:0:0:
204,324,20424,1,10,0:0:0:0:
288,200,20601,1,0,0:0:0:0:
376,344,20777,1,10,0:0:0:0:
376,344,20954,2,0,L|412:240,1,105,0|8,0:0|0:0,0:0:0:0:
340,68,21306,2,0,P|300:144|296:152,1,52.5
280,156,21483,6,0,P|244:88|164:60,1,157.5,8|0,0:0|0:0,0:0:0:0:
120,72,21836,2,0,P|68:116|-8:116,1,105,8|0,0:0|0:0,0:0:0:0:
44,228,22189,2,0,L|60:336,1,105,8|0,0:0|0:0,0:0:0:0:
128,252,22542,2,0,P|164:200|272:200,1,157.5,8|0,0:0|0:0,0:0:0:0:
272,268,22895,6,0,P|332:204|288:68,1,210,12|8,0:0|0:0,0:0:0:0:
132,80,23424,2,0,L|8:44,1,105,0|8,0:0|0:0,0:0:0:0:
392,248,23777,2,0,P|364:296|296:336,1,105,0|8,0:0|0:0,0:0:0:0:
220,308,24130,1,0,0:0:0:0:
179,190,24306,5,8,0:0:0:0:
89,298,24483,1,0,0:0:0:0:
84,180,24659,2,0,L|60:68,2,105,8|0|8,0:0|0:0|0:0,0:0:0:0:
336,288,25365,1,8,0:0:0:0:
336,288,25542,2,0,L|340:228,1,52.5,0|0,3:0|3:0,0:0:0:0:
352,184,25718,6,0,B|276:168|276:168|304:108|232:40,1,210,12|8,3:2|0:0,0:0:0:0:
140,76,26248,1,0,0:0:0:0:
44,240,26424,1,8,0:0:0:0:
44,240,26601,2,0,P|112:192|164:208,1,105,0|8,0:0|0:0,0:0:0:0:
108,296,26954,1,0,0:0:0:0:
320,296,27130,6,0,L|224:340,1,105,8|0,0:0|0:0,0:0:0:0:
248,236,27483,1,8,0:0:0:0:
336,180,27659,1,0,0:0:0:0:
260,108,27836,1,8,3:0:0:0:
217,137,27924,1,0,3:0:0:0:
166,149,28012,1,8,3:0:0:0:
114,141,28100,1,0,3:0:0:0:
70,114,28188,1,8,3:0:0:0:
248,360,28542,6,0,L|336:320,1,78.7500030040742,8|0,0:0|0:0,0:0:0:0:
332,248,28895,1,8,0:0:0:0:
392,300,29071,1,0,0:0:0:0:
408,164,29248,1,8,0:0:0:0:
332,248,29424,2,0,P|256:288|256:288,1,78.7500030040742,0|8,0:0|0:0,0:0:0:0:
200,236,29777,1,0,0:0:0:0:
140,336,29954,5,8,0:0:0:0:
140,152,30130,1,0,0:0:0:0:
200,236,30306,1,8,0:0:0:0:
140,152,30483,2,0,L|108:48,1,78.7500030040742,0|8,0:0|0:0,0:0:0:0:
116,76,30836,1,0,3:0:0:0:
360,84,31012,1,12,0:0:0:0:
360,84,31365,5,8,0:0:0:0:
404,216,31542,1,0,0:0:0:0:
440,20,31718,1,8,0:0:0:0:
404,216,31895,1,0,0:0:0:0:
348,156,32071,2,0,L|296:84,2,78.7500030040742,8|0|8,0:0|0:0|0:0,0:0:0:0:
472,332,32601,1,0,0:0:0:0:
472,332,32777,6,0,P|412:312|304:360,1,157.500006008148,14|8,0:0|0:0,0:0:0:0:
56,336,33306,1,0,0:0:0:0:
56,336,33483,2,0,L|100:236,1,78.7500030040742,8|0,0:0|0:0,0:0:0:0:
56,168,33836,2,0,L|16:80,1,78.7500030040742,8|0,0:0|0:0,0:0:0:0:
104,40,34189,6,0,P|136:80|200:88,1,105,12|8,0:0|0:0,0:0:0:0:
368,72,34718,1,0,0:0:0:0:
264,32,34895,1,8,0:0:0:0:
292,152,35071,2,0,L|320:216,2,52.5,0|8|0,0:0|0:0|0:0,0:0:0:0:
452,288,35601,6,0,L|364:324,1,78.75,12|0,0:0|0:0,0:0:0:0:
352,312,35954,1,8,0:0:0:0:
232,328,36130,1,0,0:0:0:0:
304,240,36306,2,0,P|320:212|324:172,1,52.5,8|0,0:0|0:0,0:0:0:0:
252,144,36659,2,0,P|256:108|272:92,1,52.5,8|0,0:0|0:0,0:0:0:0:
384,108,37012,6,0,P|424:144|460:100,1,105,12|8,0:0|0:0,0:0:0:0:
360,36,37542,1,0,0:0:0:0:
272,40,37718,2,0,L|172:64,1,78.75,12|0,0:0|0:0,0:0:0:0:
184,88,38071,1,0,0:0:0:0:
96,184,38248,1,0,0:0:0:0:
220,268,38424,6,0,L|244:320,2,52.5,12|0|4,0:0|0:0|0:0,0:0:0:0:
336,340,38954,2,0,P|356:308|384:296,1,52.5,0|12,0:0|0:0,0:0:0:0:
456,292,39218,1,0,3:0:0:0:
453,266,39306,1,8,3:0:0:0:
442,242,39394,1,0,3:0:0:0:
422,225,39482,1,12,3:2:0:0:
397,217,39570,1,0,3:0:0:0:
371,219,39659,1,8,3:0:0:0:
248,204,39836,6,0,P|197:203|156:172,1,105,8|2,0:0|0:0,0:0:0:0:
88,16,40189,1,8,0:0:0:0:
264,108,40365,1,2,3:0:0:0:
272,115,40454,1,0,3:0:0:0:
272,115,40542,2,0,L|367:71,1,105,8|2,0:0|0:0,0:0:0:0:
464,16,40895,1,8,0:0:0:0:
380,244,41071,1,2,3:0:0:0:
352,268,41159,1,0,3:0:0:0:
324,292,41248,6,0,P|244:324|148:304,1,157.5,8|0,0:0|0:0,0:0:0:0:
144,296,41601,1,8,0:0:0:0:
108,192,41777,2,0,P|68:208|31:257,1,105,8|8,0:0|0:0,0:0:0:0:
48,92,42130,1,10,3:0:0:0:
328,248,42306,1,12,3:2:0:0:
328,248,42659,6,0,P|388:248|448:212,2,105,8|0|8,0:0|0:0|0:0,0:0:0:0:
120,224,43189,1,0,0:0:0:0:
272,184,43365,2,0,P|328:152|352:100,1,105,8|10,0:0|0:0,0:0:0:0:
284,24,43718,1,8,0:0:0:0:
148,80,43895,1,2,3:0:0:0:
148,80,43983,1,0,3:0:0:0:
148,80,44071,5,8,3:2:0:0:
288,124,44248,1,0,3:0:0:0:
188,224,44424,1,8,3:2:0:0:
268,104,44601,1,0,3:0:0:0:
188,224,44777,2,0,P|128:264|72:252,1,105,8|8,0:0|0:0,0:0:0:0:
236,296,45130,2,0,P|280:256|344:248,1,105,8|0,0:0|0:0,0:0:0:0:
448,200,45483,6,0,P|424:112|456:40,1,157.5,8|0,0:0|0:0,0:0:0:0:
488,24,45836,1,8,0:0:0:0:
320,72,46012,1,0,3:0:0:0:
308,88,46101,1,0,3:0:0:0:
296,100,46189,2,0,P|248:136|200:144,1,105,8|0,0:0|0:0,0:0:0:0:
64,56,46542,1,8,0:0:0:0:
120,168,46718,1,0,0:0:0:0:
92,280,46895,6,0,P|60:332|16:360,1,105,8|0,0:0|0:0,0:0:0:0:
228,256,47248,2,0,P|284:212|344:200,1,105,8|2,0:0|0:0,0:0:0:0:
384,232,47512,1,0,3:0:0:0:
400,248,47601,1,8,3:2:0:0:
300,356,47777,1,0,0:0:0:0:
496,356,47954,1,8,0:0:0:0:
400,248,48130,1,0,3:0:0:0:
384,232,48218,1,0,3:0:0:0:
372,208,48306,6,0,P|352:152|376:112,1,105,8|0,0:0|0:0,0:0:0:0:
280,52,48659,2,0,L|164:16,1,105,8|2,0:0|0:0,0:0:0:0:
108,56,48924,1,0,3:0:0:0:
96,76,49012,1,8,3:2:0:0:
160,192,49189,2,0,L|212:216,1,52.5,2|0,0:0|0:0,0:0:0:0:
40,168,49365,1,8,0:0:0:0:
252,104,49542,1,0,0:0:0:0:
212,304,49718,6,0,B|252:352|304:364|332:348,2,105,12|0|12,0:0|0:0|0:0,0:0:0:0:
252,104,50248,2,0,P|304:104|372:148,2,105,0|12|0,0:0|0:0|0:0,0:0:0:0:
224,116,50689,1,0,3:0:0:0:
200,140,50777,1,12,3:2:0:0:
188,176,50865,1,0,3:0:0:0:
196,224,50954,1,8,3:0:0:0:
232,252,51042,1,0,3:0:0:0:
280,252,51130,6,0,P|336:200|424:208,1,157.500006008148,12|8,0:0|0:0,0:0:0:0:
400,344,51836,1,8,0:0:0:0:
328,164,52189,2,0,L|361:92,1,78.7500030040742,2|0,0:0|0:0,0:0:0:0:
252,112,52542,6,0,P|224:144|108:140,1,157.500006008148,12|8,0:0|0:0,0:0:0:0:
24,20,53248,1,8,0:0:0:0:
48,224,53601,2,0,L|88:304,1,78.7500030040742,2|0,0:0|0:0,0:0:0:0:
200,304,53954,6,0,P|192:252|160:208,1,78.7500030040742,8|0,0:0|0:0,0:0:0:0:
196,112,54306,2,0,P|232:156|268:164,1,78.7500030040742,10|0,0:0|0:0,0:0:0:0:
336,244,54659,2,0,P|360:200|360:144,1,78.7500030040742,8|0,0:0|0:0,0:0:0:0:
408,84,55012,2,0,P|428:132|460:148,1,78.7500030040742,10|0,0:0|0:0,0:0:0:0:
340,40,55365,6,0,L|248:24,1,78.7500030040742,8|0,0:0|0:0,0:0:0:0:
448,144,55718,2,0,L|456:240,1,78.7500030040742,2|0,0:0|0:0,0:0:0:0:
392,300,56071,2,0,L|340:216,2,78.7500030040742,2|0|2,0:0|0:0|0:0,0:0:0:0:
232,132,56777,6,0,P|176:184|88:176,1,157.500006008148,12|8,0:0|0:0,0:0:0:0:
112,40,57483,1,8,0:0:0:0:
184,220,57836,2,0,L|150:291,1,78.7500030040742,2|0,0:0|0:0,0:0:0:0:
260,272,58189,6,0,P|288:240|404:244,1,157.500006008148,12|8,0:0|0:0,0:0:0:0:
488,364,58895,1,8,0:0:0:0:
464,160,59248,2,0,L|424:80,1,78.7500030040742,2|0,0:0|0:0,0:0:0:0:
324,28,59601,6,0,P|332:80|364:124,1,78.7500030040742,8|0,0:0|0:0,0:0:0:0:
398,279,59953,2,0,P|369:253|336:232,1,78.7500030040742,10|0,0:0|0:0,0:0:0:0:
256,80,60306,2,0,P|232:124|232:180,1,78.7500030040742,8|0,0:0|0:0,0:0:0:0:
192,320,60659,2,0,P|160:296|140:256,1,78.7500030040742,10|0,0:0|0:0,0:0:0:0:
96,68,61012,1,10,0:0:0:0:
8,200,61189,1,2,0:0:0:0:
168,68,61365,1,10,0:0:0:0:
80,208,61542,1,10,3:0:0:0:
97,242,61630,1,0,3:0:0:0:
128,266,61718,1,10,3:2:0:0:
167,272,61806,1,0,3:0:0:0:
204,260,61894,1,10,3:0:0:0:
240,72,62071,1,10,0:0:0:0:
328,152,62248,1,2,0:0:0:0:
328,152,62424,6,0,L|376:312,1,157.500006008148,8|0,0:0|0:0,0:0:0:0:
404,68,63130,1,2,0:0:0:0:
364,228,63483,6,0,P|324:272|224:272,2,157.500006008148,2|2|2,0:0|0:0|0:0,0:0:0:0:
244,108,64542,2,0,P|180:60|92:76,1,157.500006008148,2|0,0:0|0:0,0:0:0:0:
64,224,65248,6,0,B|96:300|96:300|32:364,1,157.500006008148,2|0,0:0|0:0,0:0:0:0:
256,304,65954,1,2,0:0:0:0:
468,356,66306,1,2,0:0:0:0:
436,232,66659,6,0,P|412:172|396:124,1,94.499997116089,12|0,0:0|0:0,0:0:0:0:
372,64,67012,1,0,3:0:0:0:
324,136,67189,1,2,0:0:0:0:
256,184,67365,1,0,3:0:0:0:
172,184,67542,1,0,0:0:0:0:
104,136,67718,1,0,3:0:0:0:
56,64,67895,1,0,0:0:0:0:
336,72,68071,5,12,0:0:0:0:
336,72,68248,2,0,L|380:172,1,105,2|0,0:0|0:0,0:0:0:0:
176,164,68601,1,12,0:0:0:0:
176,164,68777,2,0,L|124:276,1,105
400,320,69130,1,12,0:0:0:0:
472,120,69483,6,0,P|440:180|404:208,1,105,8|0,0:0|0:0,0:0:0:0:
260,252,69836,1,8,0:0:0:0:
166,205,70012,2,0,L|262:253,1,105,2|8,0:0|0:0,0:0:0:0:
428,312,70365,1,0,0:0:0:0:
332,164,70542,1,8,0:0:0:0:
376,252,70718,6,0,P|420:196|408:104,1,157.5
376,80,71071,1,2,0:0:0:0:
276,224,71248,1,10,0:0:0:0:
428,312,71424,1,2,0:0:0:0:
296,340,71601,2,0,L|180:368,1,105,8|0,0:0|0:0,0:0:0:0:
108,188,71954,1,8,0:0:0:0:
108,188,72130,2,0,L|164:144,1,52.5,2|0,0:0|0:0,0:0:0:0:
256,88,72306,5,12,0:0:0:0:
84,84,72483,1,2,0:0:0:0:
208,248,72659,1,8,0:0:0:0:
256,88,72836,2,0,L|336:16,1,105,2|8,0:0|0:0,0:0:0:0:
368,152,73189,2,0,L|364:260,1,105,2|8,0:0|0:0,0:0:0:0:
504,120,73542,6,0,P|496:64|460:28,1,105,0|8,0:0|0:0,0:0:0:0:
296,116,73895,1,2,3:2:0:0:
272,136,73983,1,0,3:0:0:0:
252,152,74071,2,0,P|176:160|140:136,1,105,8|0,0:0|0:0,0:0:0:0:
24,32,74424,1,12,0:0:0:0:
24,32,74777,2,0,L|20:144,1,105,8|0,0:0|0:0,0:0:0:0:
20,312,75130,6,0,P|56:360|128:368,1,105,12|2,0:0|0:0,0:0:0:0:
164,328,75395,1,0,3:0:0:0:
184,304,75483,1,8,3:2:0:0:
176,156,75659,2,0,P|220:108|272:100,1,105,0|8,0:0|0:0,0:0:0:0:
344,156,76012,1,2,0:0:0:0:
344,328,76189,1,8,0:0:0:0:
344,328,76365,6,0,P|408:272|380:188,1,157.5
364,176,76718,1,0,0:0:0:0:
216,288,76895,1,8,0:0:0:0:
224,156,77071,1,0,0:0:0:0:
344,328,77248,1,8,0:0:0:0:
64,280,77601,1,8,0:0:0:0:
16,200,77777,1,0,0:0:0:0:
0,96,77954,6,0,L|16:200,1,105,12|0,0:0|0:0,0:0:0:0:
224,156,78306,1,8,0:0:0:0:
224,156,78483,2,0,L|260:36,1,105,0|8,0:0|0:0,0:0:0:0:
448,88,78836,2,0,L|488:196,1,105,0|8,0:0|0:0,0:0:0:0:
424,304,79189,6,0,P|384:264|260:340,1,210
140,356,79718,2,0,L|76:272,1,105,8|0,0:0|0:0,0:0:0:0:
40,120,80071,1,8,0:0:0:0:
152,272,80248,1,4,0:0:0:0:
140,176,80424,1,12,0:0:0:0:
28,356,80601,1,4,0:0:0:0:
140,176,80777,6,0,P|166:107|227:62,1,125.999996154785,12|2,0:0|0:0,0:0:0:0:
343,117,81130,1,8,0:0:0:0:
424,212,81306,2,0,L|340:114,1,125.999996154785,2|8,0:0|0:0,0:0:0:0:
119,30,81659,1,0,0:0:0:0:
229,168,81836,1,8,0:0:0:0:
119,30,82012,6,0,L|88:225,1,188.999994232178
113,245,82365,1,2,0:0:0:0:
229,168,82542,1,8,0:0:0:0:
32,73,82718,1,0,0:0:0:0:
276,39,82895,2,0,L|402:60,1,125.999996154785,8|0,0:0|0:0,0:0:0:0:
393,212,83248,1,8,0:0:0:0:
393,212,83601,6,0,L|322:247,1,62.9999980773926,12|0,0:0|0:0,0:0:0:0:
215,287,83777,1,0,0:0:0:0:
372,358,83954,1,8,0:0:0:0:
215,287,84130,2,0,P|166:331|95:347,1,125.999996154785,0|8,0:0|0:0,0:0:0:0:
137,185,84483,2,0,L|193:64,1,125.999996154785,0|8,0:0|0:0,0:0:0:0:
0,161,84836,6,0,P|-14:216|19:279,1,125.999996154785,0|8,0:0|0:0,0:0:0:0:
88,264,85100,1,0,3:0:0:0:
120,244,85189,1,0,3:0:0:0:
238,186,85365,2,0,P|304:190|341:248,1,125.999996154785,8|0,0:0|0:0,0:0:0:0:
412,357,85718,1,8,0:0:0:0:
412,357,86071,2,0,L|461:235,1,125.999996154785,8|0,0:0|0:0,0:0:0:0:
492,156,86424,6,0,P|467:103|390:88,1,125.999996154785,12|0,0:0|0:0,0:0:0:0:
315,256,86777,1,8,3:2:0:0:
315,256,86865,1,0,3:0:0:0:
315,256,86954,2,0,P|256:283|193:257,1,125.999996154785,2|8,0:0|0:0,0:0:0:0:
123,168,87306,1,0,0:0:0:0:
150,79,87483,1,8,0:0:0:0:
228,32,87659,6,0,P|155:72|130:198,1,188.999994232178
160,190,88012,1,0,0:0:0:0:
329,131,88189,1,8,0:0:0:0:
264,256,88365,1,0,0:0:0:0:
228,32,88542,1,8,0:0:0:0:
423,145,88895,1,8,0:0:0:0:
436,238,89071,1,0,0:0:0:0:
391,355,89248,6,0,L|440:225,1,125.999996154785,12|0,0:0|0:0,0:0:0:0:
259,184,89600,1,8,0:0:0:0:
259,184,89777,2,0,P|226:248|163:298,1,125.999996154785,0|8,0:0|0:0,0:0:0:0:
50,266,90130,2,0,L|53:133,1,125.999996154785,0|8,0:0|0:0,0:0:0:0:
145,23,90483,6,0,P|166:75|326:30,1,251.999992309571
426,86,91012,2,0,L|459:213,1,125.999996154785,8|0,0:0|0:0,0:0:0:0:
448,252,91277,1,0,3:0:0:0:
432,284,91365,1,8,3:2:0:0:
420,312,91454,1,0,3:0:0:0:
404,344,91542,1,0,3:0:0:0:
344,164,91718,1,8,0:0:0:0:
288,292,91895,1,0,0:0:0:0:
168,183,92071,6,0,P|191:136|199:85,1,105,6|0,0:0|0:0,0:0:0:0:
110,264,92601,1,2,0:0:0:0:
260,292,92954,1,2,0:0:0:0:
345,169,93306,1,2,0:0:0:0:
345,169,93659,2,0,L|409:321,2,157.5,2|2|0,0:0|0:0|0:0,0:0:0:0:
245,65,94895,6,0,P|199:107|130:87,1,105,12|0,0:0|0:0,0:0:0:0:
87,43,95248,1,8,0:0:0:0:
24,113,95424,2,0,L|44:237,1,105,2|8,0:0|0:0,0:0:0:0:
116,302,95777,1,0,0:0:0:0:
164,145,95954,1,8,0:0:0:0:
173,233,96130,1,2,0:0:0:0:
214,70,96306,6,0,P|261:33|325:15,1,105,8|0,0:0|0:0,0:0:0:0:
351,121,96659,2,0,P|402:152|465:151,1,105,8|2,0:0|0:0,0:0:0:0:
495,16,97012,1,8,0:0:0:0:
446,156,97365,2,0,B|432:227|455:274|455:273,1,105,8|2,0:0|0:0,0:0:0:0:
415,352,97718,6,0,L|347:262,1,105,12|0,0:0|0:0,0:0:0:0:
204,189,98071,1,8,0:0:0:0:
317,337,98248,1,2,0:0:0:0:
294,186,98424,2,0,L|220:88,1,105,8|0,0:0|0:0,0:0:0:0:
174,37,98777,1,8,0:0:0:0:
204,189,98954,1,2,0:0:0:0:
120,133,99130,6,0,L|56:32,1,105,8|0,0:0|0:0,0:0:0:0:
81,243,99483,2,0,P|52:301|15:326,1,105,8|2,0:0|0:0,0:0:0:0:
175,34,99836,1,12,0:0:0:0:
228,324,100189,1,8,3:2:0:0:
256,288,100277,1,0,3:0:0:0:
300,268,100365,1,10,3:0:0:0:
348,268,100454,1,0,3:0:0:0:
368,312,100542,6,0,P|416:240|420:184,1,105,12|0,0:0|0:0,0:0:0:0:
352,136,100895,1,8,0:0:0:0:
220,32,101071,2,0,P|244:96|280:116,1,105,2|8,0:0|0:0,0:0:0:0:
352,136,101424,1,0,0:0:0:0:
406,47,101601,1,8,0:0:0:0:
268,160,101777,1,2,0:0:0:0:
444,224,101954,5,8,0:0:0:0:
320,72,102130,1,0,0:0:0:0:
212,52,102306,2,0,P|152:44|112:20,2,105,10|2|10,0:0|0:0|0:0,0:0:0:0:
468,336,103012,1,8,0:0:0:0:
352,348,103189,2,0,L|308:308,1,52.5,2|0,0:0|0:0,0:0:0:0:
276,284,103365,6,0,P|228:328|104:256,1,210,12|8,0:0|0:0,0:0:0:0:
32,148,103895,2,0,L|12:264,1,105,2|8,0:0|0:0,0:0:0:0:
108,200,104248,1,0,0:0:0:0:
156,80,104424,1,8,0:0:0:0:
224,256,104601,1,2,0:0:0:0:
288,128,104777,6,0,L|252:29,1,105,8|0,0:0|0:0,0:0:0:0:
400,268,105130,1,8,0:0:0:0:
440,148,105306,1,2,3:0:0:0:
464,120,105395,1,0,3:0:0:0:
500,100,105483,1,8,3:2:0:0:
356,24,105659,1,0,3:0:0:0:
320,28,105748,1,0,3:0:0:0:
288,48,105836,1,8,3:2:0:0:
260,68,105924,1,0,3:0:0:0:
232,88,106012,1,8,3:0:0:0:
196,92,106101,1,0,3:0:0:0:
160,84,106189,5,4,3:0:0:0:
96,240,106365,1,0,3:0:0:0:
96,240,106542,1,0,3:0:0:0:
304,260,106806,2,0,L|256:332,1,52.5,0|0,3:0|3:0,0:0:0:0:
424,200,107071,1,0,3:0:0:0:
424,200,107248,1,2,3:0:0:0:
208,100,107512,2,0,L|135:130,2,78.75
96,212,107865,2,0,L|23:242,2,78.75
100,308,108218,2,0,L|148:344,1,52.5
168,360,108395,1,0,3:0:0:0:
196,344,108483,1,0,3:0:0:0:
224,328,108571,1,0,3:0:0:0:
252,316,108659,1,8,3:2:0:0:
284,312,108748,1,0,3:0:0:0:
316,316,108836,1,0,3:0:0:0:
348,324,108924,1,0,3:0:0:0:
388,352,109012,6,0,L|396:272,1,78.7500030040742,8|0,3:0|0:0,0:0:0:0:
400,140,109365,1,8,0:0:0:0:
496,72,109541,1,0,0:0:0:0:
512,184,109718,2,0,P|528:232|556:268,2,78.7500030040742,8|0|8,0:0|0:0|0:0,0:0:0:0:
400,140,110248,2,0,L|356:64,1,78.7500030040742,0|12,0:0|0:0,0:0:0:0:
256,152,110600,1,0,0:0:0:0:
140,76,110776,1,8,0:0:0:0:
36,144,110953,2,0,L|56:250,1,78.7500030040742,0|8,0:0|0:0,0:0:0:0:
360,324,111306,1,10,3:0:0:0:
141,288,111483,1,8,0:0:0:0:
141,288,111836,5,10,0:0:0:0:
111,152,112012,1,0,0:0:0:0:
55,343,112188,1,0,0:0:0:0:
111,152,112365,1,0,0:0:0:0:
160,218,112542,2,0,L|208:300,2,78.7500030040742,8|0|8,0:0|0:0|0:0,0:0:0:0:
55,30,113071,1,0,0:0:0:0:
55,30,113248,6,0,P|113:56|225:19,1,157.500006008148,8|8,0:0|0:0,0:0:0:0:
469,69,113776,1,0,0:0:0:0:
469,69,113953,2,0,L|415:164,1,78.7500030040742,8|0,0:0|0:0,0:0:0:0:
452,236,114306,2,0,L|482:328,1,78.7500030040742,8|0,0:0|0:0,0:0:0:0:
408,344,114659,6,0,P|376:304|312:296,1,105,12|8,0:0|0:0,0:0:0:0:
148,308,115188,1,0,0:0:0:0:
325,293,115365,1,8,0:0:0:0:
220,232,115542,2,0,L|192:168,2,52.5,0|8|0,0:0|0:0|0:0,0:0:0:0:
348,46,116071,6,0,L|276:76,1,78.75,12|0,0:0|0:0,0:0:0:0:
128,100,116424,1,8,0:0:0:0:
276,192,116600,1,0,0:0:0:0:
208,144,116777,2,0,P|192:172|188:212,1,52.5,8|0,0:0|0:0,0:0:0:0:
264,264,117129,2,0,P|260:300|244:316,1,52.5,8|0,0:0|0:0,0:0:0:0:
128,276,117483,6,0,P|88:240|52:284,1,105,12|8,0:0|0:0,0:0:0:0:
152,348,118012,1,0,0:0:0:0:
240,344,118189,2,0,L|340:320,1,78.75,12|0,0:0|0:0,0:0:0:0:
327,296,118541,1,8,0:0:0:0:
416,199,118718,1,0,0:0:0:0:
312,100,118895,6,0,L|340:40,2,52.5,12|0|12,0:0|0:0|0:0,0:0:0:0:
148,64,119424,1,8,3:0:0:0:
148,64,119512,1,0,3:0:0:0:
148,64,119601,1,12,3:2:0:0:
200,216,119777,1,8,3:0:0:0:
178,240,119865,1,0,3:0:0:0:
150,263,119954,1,12,3:2:0:0:
115,272,120041,1,0,3:0:0:0:
79,269,120129,1,8,3:0:0:0:
56,160,120306,6,0,P|107:158|148:127,1,105,10|2,0:0|0:0,0:0:0:0:
56,44,120659,1,8,3:2:0:0:
56,44,120748,1,0,3:0:0:0:
56,44,120836,1,10,3:0:0:0:
220,108,121012,2,0,L|352:75,1,105,8|2,0:0|0:0,0:0:0:0:
392,128,121276,1,0,3:0:0:0:
416,148,121365,1,8,3:2:0:0:
296,224,121541,1,0,0:0:0:0:
468,280,121718,6,0,P|448:328|356:348,1,105,8|0,0:0|3:0,0:0:0:0:
296,224,122071,1,8,3:2:0:0:
176,240,122247,2,0,P|136:196|124:144,1,105,0|8,3:0|0:0,0:0:0:0:
360,88,122600,1,2,3:0:0:0:
176,240,122777,1,12,3:2:0:0:
176,240,123130,6,0,P|116:240|56:203,2,105,8|2|8,0:0|0:0|0:0,0:0:0:0:
392,223,123659,1,8,0:0:0:0:
240,184,123835,2,0,P|184:152|160:99,1,105,8|10,0:0|0:0,0:0:0:0:
192,48,124100,1,0,3:0:0:0:
208,32,124189,1,8,3:2:0:0:
308,112,124365,1,8,0:0:0:0:
240,184,124542,5,8,3:2:0:0:
424,112,124718,1,2,3:0:0:0:
292,24,124894,1,8,3:2:0:0:
320,176,125071,1,10,3:0:0:0:
328,204,125159,1,0,3:0:0:0:
340,224,125247,2,0,P|400:264|455:251,1,105,8|2,0:0|0:0,0:0:0:0:
276,296,125600,2,0,P|232:255|168:247,1,105,8|0,0:0|0:0,0:0:0:0:
64,199,125953,6,0,P|88:112|56:39,1,157.5,12|0,0:0|0:0,0:0:0:0:
24,24,126306,1,8,0:0:0:0:
188,75,126482,1,8,3:0:0:0:
208,96,126571,1,0,3:0:0:0:
224,112,126659,2,0,P|273:147|320:156,1,105,8|2,0:0|0:0,0:0:0:0:
448,56,127012,1,8,0:0:0:0:
392,167,127188,1,0,0:0:0:0:
419,280,127365,6,0,P|452:332|495:360,1,105,8|2,0:0|0:0,0:0:0:0:
284,256,127718,2,0,P|228:212|168:199,1,105,8|2,0:0|0:0,0:0:0:0:
112,247,128071,1,8,0:0:0:0:
212,356,128247,1,2,0:0:0:0:
16,356,128424,1,8,0:0:0:0:
112,247,128601,1,8,3:0:0:0:
128,231,128688,1,0,3:0:0:0:
140,207,128777,6,0,P|160:152|136:111,1,105,8|2,0:0|0:0,0:0:0:0:
232,51,129129,2,0,L|348:15,1,105,8|2,0:0|0:0,0:0:0:0:
460,28,129482,1,8,0:0:0:0:
352,191,129659,2,0,L|299:216,1,52.5,2|0,0:0|0:0,0:0:0:0:
472,167,129835,1,8,0:0:0:0:
264,108,130012,1,0,0:0:0:0:
300,304,130189,6,0,B|260:352|208:364|180:348,2,105,8|2|8,0:0|0:0|0:0,0:0:0:0:
259,103,130718,2,0,P|208:104|140:148,2,105,0|8|10,0:0|0:0|0:0,0:0:0:0:
304,124,131159,1,0,3:0:0:0:
316,168,131247,1,8,3:2:0:0:
336,212,131335,1,0,3:0:0:0:
372,244,131424,1,8,3:0:0:0:
416,256,131512,1,0,3:0:0:0:
232,252,131601,6,0,P|176:199|88:208,1,157.500006008148,12|8,0:0|0:0,0:0:0:0:
112,344,132307,1,8,0:0:0:0:
184,164,132660,2,0,L|151:92,1,78.7500030040742,2|0,0:0|0:0,0:0:0:0:
260,112,133012,6,0,P|288:144|404:139,1,157.500006008148,12|8,0:0|0:0,0:0:0:0:
487,20,133718,1,8,0:0:0:0:
464,224,134071,2,0,L|424:304,1,78.7500030040742,10|0,0:0|0:0,0:0:0:0:
308,272,134424,6,0,P|291:307|287:346,1,78.7500030040742,8|0,0:0|0:0,0:0:0:0:
208,244,134777,2,0,P|240:200|264:176,1,78.7500030040742,10|0,0:0|0:0,0:0:0:0:
172,128,135130,2,0,P|205:90|257:71,1,78.7500030040742,8|0,0:0|0:0,0:0:0:0:
332,72,135483,2,0,P|376:64|399:31,1,78.7500030040742,10|0,0:0|0:0,0:0:0:0:
160,36,135836,6,0,L|82:49,1,78.7500030040742,2|0,0:0|0:0,0:0:0:0:
64,144,136189,2,0,L|56:240,1,78.7500030040742,2|0,0:0|0:0,0:0:0:0:
120,300,136542,2,0,L|172:216,2,78.7500030040742,2|0|2,0:0|0:0|0:0,0:0:0:0:
280,132,137248,6,0,P|336:184|424:175,1,157.500006008148,12|0,0:0|0:0,0:0:0:0:
400,40,137954,1,8,0:0:0:0:
328,220,138130,1,2,0:0:0:0:
328,220,138306,2,0,L|362:291,1,78.7500030040742,8|0,0:0|0:0,0:0:0:0:
252,272,138659,6,0,P|224:239|108:244,1,157.500006008148,12|8,0:0|0:0,0:0:0:0:
24,364,139366,1,8,0:0:0:0:
48,159,139719,2,0,L|88:79,1,78.7500030040742,10|0,0:0|0:0,0:0:0:0:
188,27,140071,6,0,P|180:80|152:116,1,78.7500030040742,8|0,0:0|0:0,0:0:0:0:
114,279,140424,2,0,P|143:253|176:232,1,78.7500030040742,10|0,0:0|0:0,0:0:0:0:
256,80,140777,2,0,P|279:123|280:180,1,78.7500030040742,8|0,0:0|0:0,0:0:0:0:
320,320,141130,2,0,P|352:296|372:255,1,78.7500030040742,10|0,0:0|0:0,0:0:0:0:
440,40,141483,1,8,0:0:0:0:
396,204,141659,1,2,0:0:0:0:
440,40,141836,1,8,0:0:0:0:
396,204,142012,1,10,3:0:0:0:
365,228,142100,1,0,3:0:0:0:
328,239,142188,1,10,3:2:0:0:
289,234,142276,1,0,3:0:0:0:
256,214,142364,1,10,3:0:0:0:
324,92,142542,1,8,3:0:0:0:
196,80,142719,1,2,3:0:0:0:
196,80,142895,6,0,L|140:252,1,157.500006008148,12|2,0:0|0:0,0:0:0:0:
60,48,143601,1,2,0:0:0:0:
148,228,143954,6,0,P|188:272|288:272,2,157.500006008148,2|2|2,0:0|0:0|0:0,0:0:0:0:
268,108,145012,2,0,P|332:59|420:76,1,157.500006008148,2|2,0:0|0:0,0:0:0:0:
448,223,145718,6,0,B|416:300|416:300|480:364,1,157.500006008148,2|2,0:0|0:0,0:0:0:0:
256,304,146425,1,2,0:0:0:0:
44,356,146777,1,2,0:0:0:0:
32,80,147130,6,0,P|56:140|72:187,1,94.499997116089,12|0,0:0|0:0,0:0:0:0:
104,244,147483,1,8,0:0:0:0:
128,112,147660,1,10,0:0:0:0:
164,184,147836,1,8,0:0:0:0:
192,40,148013,1,10,0:0:0:0:
208,252,148189,1,8,0:0:0:0:
224,116,148366,1,10,0:0:0:0:
148,328,148542,5,12,0:0:0:0:
392,268,148718,1,10,0:0:0:0:
392,268,149071,1,12,0:0:0:0:
160,28,149248,1,8,0:0:0:0:
256,188,149601,2,0,L|256:280,1,78.7500030040742,4|0,0:0|0:0,0:0:0:0:
28,181,149954,6,0,P|72:140|136:124,1,115.50000352478,12|0,0:0|0:0,0:0:0:0:
273,134,150307,1,8,0:0:0:0:
351,219,150483,2,0,L|266:126,1,115.50000352478,2|8,0:0|0:0,0:0:0:0:
40,104,150836,1,0,0:0:0:0:
168,16,151013,1,8,0:0:0:0:
184,172,151189,6,0,P|186:239|101:298,1,173.250005287171,2|0,0:0|0:0,0:0:0:0:
60,268,151542,1,0,0:0:0:0:
64,60,151719,1,10,0:0:0:0:
112,204,151895,1,2,0:0:0:0:
168,16,152072,2,0,L|286:31,1,115.50000352478,8|0,0:0|0:0,0:0:0:0:
504,224,152425,1,8,0:0:0:0:
504,224,152601,2,0,L|452:280,1,57.7500017623902,2|0,0:0|0:0,0:0:0:0:
368,336,152777,5,12,0:0:0:0:
384,196,152954,1,0,0:0:0:0:
344,360,153130,1,8,0:0:0:0:
296,188,153307,2,0,L|260:56,1,115.50000352478,2|8,0:0|0:0,0:0:0:0:
156,200,153659,2,0,L|112:308,1,115.50000352478,0|8,0:0|0:0,0:0:0:0:
16,164,154012,6,0,P|-2:115|16:56,1,115.50000352478,2|8,0:0|0:0,0:0:0:0:
200,72,154366,1,2,3:0:0:0:
220,100,154454,1,0,3:0:0:0:
228,132,154542,2,0,P|267:171|334:167,1,115.50000352478,8|2,2:0|2:0,2:0:0:0:
492,28,154895,1,8,0:0:0:0:
492,28,155248,2,0,L|472:160,1,115.50000352478,8|2,0:0|0:0,0:0:0:0:
472,352,155601,6,0,P|415:331|391:263,1,115.50000352478,12|2,0:0|0:0,0:0:0:0:
384,208,155866,1,0,0:0:0:0:
404,176,155954,1,8,0:0:0:0:
224,300,156130,2,0,P|165:329|100:312,1,115.50000352478,2|8,0:0|0:0,0:0:0:0:
80,260,156395,1,0,0:0:0:0:
68,224,156483,1,2,0:0:0:0:
32,32,156659,1,8,0:0:0:0:
160,68,156836,6,0,P|248:100|324:36,1,173.250005287171,2|0,0:0|0:0,0:0:0:0:
328,20,157189,1,0,0:0:0:0:
264,272,157366,1,10,0:0:0:0:
360,136,157542,1,2,0:0:0:0:
176,272,157719,1,10,0:0:0:0:
472,232,158072,1,10,0:0:0:0:
489,140,158248,1,2,0:0:0:0:
461,27,158425,6,0,L|489:143,1,115.50000352478,12|0,0:0|0:0,0:0:0:0:
328,256,158777,1,8,0:0:0:0:
328,256,158954,2,0,L|220:160,1,115.50000352478,2|8,0:0|0:0,0:0:0:0:
41,47,159307,6,0,L|40:164,1,115.50000352478,0|8,0:0|0:0,0:0:0:0:
40,268,159660,6,0,P|104:344|196:292,1,173.250005287171,2|0,0:0|0:0,0:0:0:0:
220,280,160012,1,0,0:0:0:0:
424,136,160189,2,0,P|415:66|371:18,1,115.50000352478,8|2,0:0|0:0,0:0:0:0:
172,152,160542,1,8,0:0:0:0:
420,220,160719,1,4,0:0:0:0:
320,148,160895,1,12,0:0:0:0:
476,24,161072,1,6,0:0:0:0:
320,148,161248,6,0,P|254:162|193:117,1,136.499993751526,8|0,0:0|0:0,0:0:0:0:
104,40,161601,1,8,0:0:0:0:
14,142,161777,2,0,L|104:39,1,136.499993751526,2|8,0:0|0:0,0:0:0:0:
392,30,162130,1,0,0:0:0:0:
392,28,162483,6,0,P|396:128|484:240,1,204.749990627289,2|0,0:0|0:0,0:0:0:0:
500,240,162836,1,0,0:0:0:0:
488,100,163013,1,10,0:0:0:0:
464,340,163189,1,2,0:0:0:0:
323,164,163366,2,0,P|273:209|212:238,1,136.499993751526,8|0,0:0|0:0,0:0:0:0:
60,96,163719,1,8,0:0:0:0:
60,96,163895,2,0,L|128:148,1,68.2499968757631,2|0,0:0|0:0,0:0:0:0:
296,286,164071,5,12,0:0:0:0:
108,240,164248,1,2,0:0:0:0:
252,136,164425,1,10,0:0:0:0:
296,286,164601,2,0,P|340:344|440:348,1,136.499993751526,2|8,0:0|0:0,0:0:0:0:
376,176,164954,2,0,L|312:40,1,136.499993751526,0|8,0:0|0:0,0:0:0:0:
192,108,165307,6,0,P|136:144|48:112,1,136.499993751526,2|8,0:0|0:0,0:0:0:0:
40,72,165571,1,0,0:0:0:0:
24,36,165660,1,2,0:0:0:0:
252,144,165836,2,0,P|285:204|368:220,1,136.499993751526,8|2,0:0|0:0,0:0:0:0:
100,356,166189,1,8,0:0:0:0:
100,356,166542,2,0,L|48:224,1,136.499993751526,8|2,0:0|0:0,0:0:0:0:
16,128,166895,6,0,P|23:70|104:27,1,136.499993751526,12|2,0:0|0:0,0:0:0:0:
148,63,167160,1,0,0:0:0:0:
180,95,167248,1,8,0:0:0:0:
212,268,167424,2,0,P|272:296|336:260,1,136.499993751526,2|8,0:0|0:0,0:0:0:0:
504,192,167777,1,0,0:0:0:0:
264,176,167954,1,8,0:0:0:0:
296,20,168130,6,0,P|396:64|392:196,1,204.749990627289,2|0,0:0|0:0,0:0:0:0:
368,192,168483,1,0,0:0:0:0:
183,131,168659,1,10,0:0:0:0:
236,320,168836,1,2,0:0:0:0:
296,72,169013,1,10,0:0:0:0:
89,145,169365,1,8,0:0:0:0:
192,244,169542,1,2,0:0:0:0:
96,368,169719,6,0,P|43:326|24:261,1,136.499993751526,12|0,0:0|0:0,0:0:0:0:
197,22,170071,1,8,0:0:0:0:
197,22,170248,2,0,P|248:66|264:132,1,136.499993751526,2|8,0:0|0:0,0:0:0:0:
364,352,170601,2,0,L|364:208,1,136.499993751526,2|8,0:0|0:0,0:0:0:0:
292,24,170954,6,0,P|248:100|100:24,1,272.999987503052,2|0,0:0|0:0,0:0:0:0:
64,168,171483,2,0,L|24:312,1,136.499993751526,8|2,0:0|0:0,0:0:0:0:
52,340,171748,1,0,3:0:0:0:
88,372,171836,1,8,3:2:0:0:
116,332,171924,1,0,3:0:0:0:
136,288,172012,1,8,3:0:0:0:
148,240,172101,1,0,3:0:0:0:
144,192,172189,1,12,3:2:0:0:
92,20,172366,1,6,0:0:0:0:
296,108,172542,6,0,P|364:136|408:120,1,105,12|0,0:0|0:0,0:0:0:0:
360,32,173071,1,2,0:0:0:0:
388,228,173424,2,0,P|344:268|292:288,2,105
268,144,174306,5,10,0:0:0:0:
216,216,174483,1,2,0:0:0:0:
208,80,174659,1,8,0:0:0:0:
268,144,174836,1,2,0:0:0:0:
268,16,175012,1,8,0:0:0:0:
216,216,175189,1,2,0:0:0:0:
188,320,175365,1,12,0:0:0:0:
256,192,175454,12,0,181012,0:0:0:0:
188,288,191954,6,0,P|228:244|236:208,1,78.75
192,160,192306,1,10,0:0:0:0:
412,100,192659,5,10,0:0:0:0:
464,160,192836,2,0,L|476:216,2,52.5,2|0|2,0:0|0:0|0:0,0:0:0:0:
200,64,193365,5,10,0:0:0:0:
140,112,193542,2,0,L|108:176,2,52.5,2|0|10,0:0|0:0|0:0,0:0:0:0:
96,348,194071,5,10,0:0:0:0:
44,288,194248,2,0,L|30:223,2,52.5,2|0|10,0:0|0:0|0:0,0:0:0:0:
356,344,194777,5,10,0:0:0:0:
316,272,194954,2,0,L|345:213,2,52.5,2|0|10,0:0|0:0|0:0,0:0:0:0:
132,40,195483,5,10,0:0:0:0:
116,120,195660,2,0,L|150:175,2,52.5,2|0|10,0:0|0:0|0:0,0:0:0:0:
472,52,196189,5,10,0:0:0:0:
448,128,196366,2,0,L|396:168,2,52.5,2|0|10,0:0|0:0|0:0,0:0:0:0:
256,336,196895,5,10,0:0:0:0:
256,259,197072,2,0,L|257:193,2,52.5,2|0|10,0:0|0:0|0:0,0:0:0:0:
76,228,197601,1,10,0:0:0:0:
48,96,197777,1,2,0:0:0:0:
176,148,197954,6,0,P|236:156|304:32,1,210,10|8,0:0|0:0,0:0:0:0:
360,124,198659,2,0,L|400:240,1,105,8|0,0:0|0:0,0:0:0:0:
372,348,199012,1,10,0:0:0:0:
268,232,199189,1,2,0:0:0:0:
164,304,199365,6,0,P|80:340|4:244,1,210,10|8,0:0|0:0,0:0:0:0:
52,72,200071,2,0,L|88:192,1,105,8|0,0:0|0:0,0:0:0:0:
196,216,200424,1,10,0:0:0:0:
264,48,200601,1,2,0:0:0:0:
312,164,200777,6,0,P|408:196|472:84,1,210,8|8,0:0|0:0,0:0:0:0:
360,32,201483,2,0,L|272:236,1,210,10|8,0:0|0:0,0:0:0:0:
178,323,202189,6,0,L|50:203,1,157.5,10|0,0:0|0:0,0:0:0:0:
60,136,202542,1,8,0:0:0:0:
200,196,202718,1,10,0:0:0:0:
184,40,202895,1,8,0:0:0:0:
64,216,203071,1,10,0:0:0:0:
200,196,203248,1,8,0:0:0:0:
60,136,203424,1,10,0:0:0:0:
184,40,203601,5,8,0:0:0:0:
256,112,203777,1,10,0:0:0:0:
124,176,203954,1,8,0:0:0:0:
288,36,204130,1,10,0:0:0:0:
328,192,204306,1,8,0:0:0:0:
216,204,204483,1,10,0:0:0:0:
384,92,204659,1,8,0:0:0:0:
316,304,204836,1,10,0:0:0:0:
364,15,205012,6,0,L|392:127,1,78.7500030040742,6|0,0:0|0:0,0:0:0:0:
356,179,205364,1,0,0:0:0:0:
316,304,205541,2,0,L|280:216,1,78.7500030040742,2|0,0:0|0:0,0:0:0:0:
188,120,205894,2,0,L|199:216,1,78.7500030040742,2|0,0:0|0:0,0:0:0:0:
132,260,206247,1,2,0:0:0:0:
95,113,206424,6,0,L|124:40,1,78.7500030040742,2|0,0:0|0:0,0:0:0:0:
200,64,206776,1,2,0:0:0:0:
268,16,206953,1,2,0:0:0:0:
344,40,207130,2,0,P|356:104|428:192,1,157.500006008148,2|0,0:0|0:0,0:0:0:0:
376,247,207659,1,2,0:0:0:0:
316,196,207835,6,0,P|267:163|224:175,1,78.7500030040742,2|0,0:0|0:0,0:0:0:0:
256,244,208188,1,2,0:0:0:0:
300,307,208365,2,0,L|388:335,1,78.7500030040742,2|0,0:0|0:0,0:0:0:0:
156,231,208718,2,0,P|120:199|64:195,1,78.7500030040742,2|0,0:0|0:0,0:0:0:0:
203,299,209070,1,2,0:0:0:0:
256,244,209248,6,0,P|300:168|244:96,1,157.500006008148,2|0,0:0|0:0,0:0:0:0:
152,108,209776,1,2,0:0:0:0:
208,52,209953,2,0,L|299:0,2,78.7500030040742,2|0|2,0:0|0:0|0:0,0:0:0:0:
4,48,210482,1,10,3:0:0:0:
4,48,210570,1,0,3:0:0:0:
4,48,210659,6,0,L|72:223,1,157.500006008148,10|8,0:0|0:0,0:0:0:0:
120,279,211189,2,0,P|195:251|279:303,1,157.500006008148,2|0,0:0|0:0,0:0:0:0:
332,320,211717,1,8,0:0:0:0:
372,252,211895,6,0,L|403:83,1,157.500006008148,2|0,0:0|0:0,0:0:0:0:
328,68,212423,1,10,0:0:0:0:
276,8,212600,1,2,0:0:0:0:
256,84,212777,2,0,L|272:184,1,78.7500030040742,10|0,0:0|0:0,0:0:0:0:
228,231,213129,1,10,0:0:0:0:
164,276,213306,1,2,0:0:0:0:
232,316,213483,6,0,P|316:328|411:315,1,157.500006008148,14|8,0:0|0:0,0:0:0:0:
363,243,214012,1,6,3:0:0:0:
352,207,214100,1,0,3:0:0:0:
344,168,214189,2,0,P|355:107|415:35,1,157.500006008148,8|8,0:0|0:0,0:0:0:0:
300,32,214718,6,0,P|259:84|163:112,1,157.500006008148,6|0,0:0|0:0,0:0:0:0:
84,36,215248,1,8,0:0:0:0:
20,232,215424,1,0,0:0:0:0:
180,40,215601,1,10,0:0:0:0:
268,260,215777,1,2,0:0:0:0:
32,104,215954,1,8,3:2:0:0:
68,136,216042,1,0,3:0:0:0:
112,152,216130,1,2,3:0:0:0:
160,152,216218,1,0,3:0:0:0:
208,128,216306,5,8,3:2:0:0:
364,44,216483,1,0,0:0:0:0:
440,204,216659,2,0,L|324:344,1,146.999995513916,8|0,0:0|0:0,0:0:0:0:
208,128,217012,2,0,L|136:0,1,146.999995513916,8|0,0:0|0:0,0:0:0:0:
80,168,217365,1,8,0:0:0:0:
184,312,217542,1,2,0:0:0:0:
208,224,217718,5,8,0:0:0:0:
296,352,217895,1,2,0:0:0:0:
244,68,218071,1,8,0:0:0:0:
208,224,218248,1,2,0:0:0:0:
336,104,218424,2,0,P|440:64|492:68,1,146.999995513916,8|0,0:0|0:0,0:0:0:0:
352,248,218777,2,0,L|220:316,1,146.999995513916,8|0,0:0|0:0,0:0:0:0:
72,176,219130,6,0,L|114:35,1,146.999995513916,8|0,0:0|0:0,0:0:0:0:
212,184,219483,1,8,0:0:0:0:
296,88,219659,1,2,0:0:0:0:
228,312,219836,1,8,0:0:0:0:
212,184,220012,1,2,0:0:0:0:
320,348,220189,1,8,0:0:0:0:
296,88,220365,1,2,0:0:0:0:
212,184,220542,6,0,P|144:268|72:280,1,146.999995513916,8|0,0:0|0:0,0:0:0:0:
232,72,220895,2,0,L|408:44,1,146.999995513916,8|0,0:0|0:0,0:0:0:0:
376,288,221248,2,0,P|292:312|220:272,1,146.999995513916,8|0,0:0|0:0,0:0:0:0:
28,32,221601,1,8,0:0:0:0:
360,156,221954,5,8,0:0:0:0:
216,232,222130,1,2,0:0:0:0:
312,248,222306,1,8,0:0:0:0:
144,196,222483,1,2,0:0:0:0:
312,248,222659,1,8,0:0:0:0:
140,112,222836,1,2,0:0:0:0:
148,312,223012,1,8,0:0:0:0:
264,180,223189,6,0,P|336:152|368:76,1,146.999995513916,0|8,0:0|0:0,0:0:0:0:
144,32,223542,1,2,0:0:0:0:
208,336,223718,1,8,0:0:0:0:
208,336,224071,1,10,0:0:0:0:
16,192,224424,1,10,0:0:0:0:
232,108,224777,5,8,0:0:0:0:
324,280,224954,1,2,0:0:0:0:
348,112,225130,1,8,0:0:0:0:
204,276,225306,1,2,0:0:0:0:
216,84,225483,1,8,0:0:0:0:
352,320,225659,1,2,0:0:0:0:
372,80,225836,1,8,0:0:0:0:
184,320,226012,1,2,0:0:0:0:
420,180,226189,5,8,3:2:0:0:
432,140,226277,1,0,3:0:0:0:
424,92,226365,1,2,3:0:0:0:
240,124,226542,1,8,3:2:0:0:
196,140,226630,1,0,3:0:0:0:
160,152,226718,1,0,3:0:0:0:
120,152,226806,1,0,3:0:0:0:
84,140,226895,2,0,B|20:104|20:104|32:176|32:176|24:268,1,220.499993270874
0,296,227248,2,0,B|27:364|27:364|64:280|127:234,1,220.499993270874
168,296,227601,6,0,B|269:268|277:364|277:364|413:288,1,293.999991027832,8|8,0:0|0:0,0:0:0:0:
416,120,228130,1,2,0:0:0:0:
340,44,228306,2,0,B|260:156|260:156|212:88|212:88|112:80,1,293.999991027832,8|8,0:0|0:0,0:0:0:0:
8,204,228836,1,2,0:0:0:0:
124,336,229012,6,0,P|208:340|254:256,2,146.999995513916,8|0|8,0:0|0:0|0:0,0:0:0:0:
264,228,229542,1,2,0:0:0:0:
28,24,229718,1,10,0:0:0:0:
28,24,230071,1,10,0:0:0:0:
200,52,230424,6,0,P|256:88|368:88,1,146.999995513916,8|2,0:0|0:0,0:0:0:0:
504,140,230777,1,8,0:0:0:0:
408,288,230954,2,0,P|348:328|256:268,1,146.999995513916,2|8,0:0|0:0,0:0:0:0:
140,88,231307,2,0,L|100:229,1,146.999995513916,2|8,0:0|0:0,0:0:0:0:
280,312,231659,1,8,0:0:0:0:
332,300,231748,1,0,0:0:0:0:
380,284,231836,6,0,B|424:224|424:224|436:152,1,146.999995513916,8|0,0:0|0:0,0:0:0:0:
284,32,232189,2,0,B|208:24|208:24|128:92,1,146.999995513916,8|0,0:0|0:0,0:0:0:0:
32,192,232542,2,0,L|60:340,1,146.999995513916,8|0,0:0|0:0,0:0:0:0:
128,252,232895,2,0,P|164:200|312:232,1,220.499993270874,8|0,0:0|0:0,0:0:0:0:
336,296,233248,5,10,0:0:0:0:
440,148,233424,1,2,0:0:0:0:
504,328,233601,1,10,0:0:0:0:
328,112,233777,2,0,P|255:43|115:119,1,220.499993270874,2|0,0:0|0:0,0:0:0:0:
100,132,234130,1,2,0:0:0:0:
68,312,234306,1,10,0:0:0:0:
228,128,234483,1,2,0:0:0:0:
248,272,234659,6,0,B|303:303|303:303|323:384,1,146.999995513916,8|0,0:0|0:0,0:0:0:0:
84,208,235012,2,0,L|48:64,2,146.999995513916,8|0|8,0:0|0:0|0:0,0:0:0:0:
256,360,235718,1,10,0:0:0:0:
256,360,236071,6,0,B|316:288|316:288|380:336|440:288|440:288|424:192,1,293.999991027832,8|8,0:0|0:0,0:0:0:0:
384,32,236601,1,2,0:0:0:0:
384,32,236954,2,0,B|348:96|348:96|240:112,1,146.999995513916,0|8,0:0|0:0,0:0:0:0:
108,180,237306,1,8,3:0:0:0:
67,214,237394,1,0,3:0:0:0:
27,250,237483,1,8,3:2:0:0:
240,312,237659,1,8,3:0:0:0:
288,336,237748,1,0,3:0:0:0:
336,360,237836,1,8,3:2:0:0:
424,220,238012,1,0,0:0:0:0:
252,184,238189,2,0,P|176:152|136:88,1,146.999995513916,8|0,0:0|0:0,0:0:0:0:
148,56,238454,1,0,3:0:0:0:
192,44,238542,1,8,3:2:0:0:
232,56,238630,1,0,3:0:0:0:
268,80,238718,1,8,3:0:0:0:
304,104,238806,1,0,3:0:0:0:
336,108,238895,5,8,3:2:0:0:
288,64,249836,5,2,0:0:0:0:
288,64,250012,2,0,L|316:168,1,78.7500030040742,2|0,0:0|0:0,0:0:0:0:
192,336,250542,2,0,L|208:176,1,157.500006008148,2|2,0:0|0:0,0:0:0:0:
325,288,251248,6,0,P|285:332|185:332,2,157.500006008148,2|2|2,0:0|0:0|0:0,0:0:0:0:
480,80,252306,2,0,P|416:32|328:48,1,157.500006008148,2|0,0:0|0:0,0:0:0:0:
136,84,253012,6,0,B|120:268,1,157.500006008148,2|0,0:0|0:0,0:0:0:0:
40,352,253718,1,2,0:0:0:0:
36,32,254070,1,2,0:0:0:0:
166,255,254424,6,0,P|182:300|208:356,1,78.7500030040742,12|0,0:0|0:0,0:0:0:0:
364,332,254776,1,10,0:0:0:0:
276,84,254953,1,2,0:0:0:0:
264,280,255129,1,8,0:0:0:0:
308,176,255306,1,2,0:0:0:0:
364,332,255482,1,8,0:0:0:0:
276,84,255659,1,2,0:0:0:0:
340,260,255836,5,12,0:0:0:0:
340,260,256189,1,12,0:0:0:0:
20,352,256365,1,0,0:0:0:0:
20,352,256718,1,0,0:0:0:0:
260,192,256895,2,0,L|304:160,1,39.3750015020371,12|0,0:0|0:0,0:0:0:0:
408,32,257248,6,0,P|452:56|476:120,1,105,2|0,0:0|0:0,0:0:0:0:
396,296,257777,2,0,L|352:192,1,105,2|0,0:0|0:0,0:0:0:0:
212,76,258483,6,0,P|180:144|144:168,1,105,2|0,0:0|0:0,0:0:0:0:
100,64,259012,1,2,0:0:0:0:
60,172,259189,1,2,0:0:0:0:
52,276,259365,2,0,P|80:328|136:336,1,105,4|8,0:0|0:0,0:0:0:0:
164,324,259806,1,0,3:0:0:0:
200,292,259895,1,8,3:0:0:0:
236,260,259983,1,0,3:0:0:0:
280,272,260071,5,10,3:2:0:0:
368,356,260248,1,2,0:0:0:0:
273,134,260424,1,10,0:0:0:0:
231,26,260600,2,0,L|277:146,1,115.50000352478,0|8,0:0|0:0,0:0:0:0:
452,244,260953,1,2,0:0:0:0:
504,104,261130,1,8,0:0:0:0:
392,40,261306,6,0,B|320:-32|196:40,1,173.250005287171
160,104,261659,1,0,0:0:0:0:
260,252,261836,2,0,L|308:384,1,115.50000352478,8|0,0:0|0:0,0:0:0:0:
150,198,262189,2,0,L|36:184,1,115.50000352478,8|0,0:0|0:0,0:0:0:0:
448,128,262542,1,8,0:0:0:0:
448,128,262894,5,8,0:0:0:0:
320,356,263071,1,2,0:0:0:0:
468,260,263247,1,8,0:0:0:0:
364,136,263424,2,0,L|328:4,1,115.50000352478,2|8,0:0|0:0,0:0:0:0:
124,108,263777,2,0,L|80:216,1,115.50000352478,2|8,0:0|0:0,0:0:0:0:
196,340,264130,6,0,P|247:353|304:328,1,115.50000352478,0|8,0:0|0:0,0:0:0:0:
340,264,264394,1,0,0:0:0:0:
352,228,264483,1,2,0:0:0:0:
256,80,264659,2,0,P|220:41|149:42,1,115.50000352478,8|0,0:0|0:0,0:0:0:0:
492,28,265012,1,10,0:0:0:0:
492,28,265365,2,0,L|472:160,1,115.50000352478,8|0,0:0|0:0,0:0:0:0:
472,352,265718,6,0,P|415:331|391:263,1,115.50000352478,12|2,0:0|0:0,0:0:0:0:
384,208,265983,1,0,0:0:0:0:
404,176,266071,1,8,0:0:0:0:
224,300,266247,2,0,P|165:329|100:312,1,115.50000352478,0|8,0:0|0:0,0:0:0:0:
80,260,266512,1,0,0:0:0:0:
68,224,266600,1,2,0:0:0:0:
32,32,266777,1,8,0:0:0:0:
152,88,266953,5,10,3:0:0:0:
192,100,267041,1,0,3:0:0:0:
232,96,267129,1,8,3:2:0:0:
268,84,267217,1,0,3:0:0:0:
304,64,267306,1,10,3:0:0:0:
171,279,267483,5,8,3:2:0:0:
132,264,267571,1,0,3:0:0:0:
104,236,267659,1,10,3:0:0:0:
88,200,267747,1,0,3:0:0:0:
84,160,267836,1,8,3:2:0:0:
240,172,268012,1,10,3:0:0:0:
280,176,268101,1,0,3:0:0:0:
316,172,268189,1,8,3:2:0:0:
364,156,268277,1,0,3:0:0:0:
404,124,268365,1,10,3:0:0:0:
436,80,268454,1,0,3:0:0:0:
448,32,268542,6,0,L|476:148,1,115.50000352478,8|0,0:0|0:0,0:0:0:0:
468,316,268894,1,8,0:0:0:0:
315,171,269071,2,0,L|273:279,1,115.50000352478,2|8,0:0|0:0,0:0:0:0:
199,147,269424,2,0,L|200:32,1,115.50000352478,2|8,0:0|0:0,0:0:0:0:
17,213,269777,6,0,P|99:206|144:276,1,173.250005287171
104,340,270129,1,0,0:0:0:0:
320,252,270306,2,0,L|456:156,1,115.50000352478,10|2,0:0|0:0,0:0:0:0:
176,92,270659,1,10,0:0:0:0:
320,252,270836,1,2,0:0:0:0:
336,64,271012,1,8,0:0:0:0:
60,96,271189,2,0,L|124:144,1,57.7500017623902,2|0,0:0|0:0,0:0:0:0:
320,252,271365,5,12,0:0:0:0:
160,304,271542,1,0,0:0:0:0:
192,152,271719,1,8,0:0:0:0:
244,280,271895,2,0,P|320:324|400:276,1,173.250005287171
460,160,272248,2,0,L|404:32,1,115.50000352478,0|8,0:0|0:0,0:0:0:0:
176,8,272601,6,0,P|120:44|92:104,1,115.50000352478,0|8,0:0|0:0,0:0:0:0:
116,156,272865,1,0,0:0:0:0:
128,192,272954,1,2,0:0:0:0:
204,332,273130,2,0,P|248:352|340:336,1,115.50000352478,8|0,0:0|0:0,0:0:0:0:
496,204,273483,1,10,0:0:0:0:
204,332,273836,2,0,L|152:220,1,115.50000352478,8|0,0:0|0:0,0:0:0:0:
300,160,274189,6,0,L|388:59,1,115.50000352478,12|2,0:0|0:0,0:0:0:0:
448,56,274454,1,0,0:0:0:0:
484,44,274542,1,8,0:0:0:0:
417,249,274718,2,0,L|316:304,1,115.50000352478,0|8,0:0|0:0,0:0:0:0:
248,268,274983,1,0,0:0:0:0:
216,248,275071,1,2,0:0:0:0:
200,80,275248,1,8,0:0:0:0:
104,108,275424,6,0,L|48:272,1,173.250005287171
68,316,275777,1,2,0:0:0:0:
20,112,275954,1,8,0:0:0:0:
124,272,276130,1,2,0:0:0:0:
200,80,276307,1,8,0:0:0:0:
364,308,276660,1,10,0:0:0:0:
364,308,276836,1,2,0:0:0:0:
440,256,277012,6,0,L|480:128,1,115.50000352478,8|0,0:0|0:0,0:0:0:0:
292,32,277365,1,8,0:0:0:0:
292,32,277542,2,0,L|248:144,1,115.50000352478,2|8,0:0|0:0,0:0:0:0:
364,352,277895,2,0,L|364:212,1,115.50000352478,2|8,0:0|0:0,0:0:0:0:
292,32,278248,6,0,P|248:108|104:40,1,231.000007049561
152,272,278777,2,0,L|264:344,2,115.50000352478,8|8|8,0:0|0:0|0:0,0:0:0:0:
336,216,279307,1,2,0:0:0:0:
96,236,279483,1,8,0:0:0:0:
312,144,279660,1,2,0:0:0:0:
172,112,279836,6,0,L|208:232,1,115.50000352478,8|0,0:0|0:0,0:0:0:0:
132,312,280189,1,8,0:0:0:0:
340,296,280365,2,0,L|408:188,1,115.50000352478,2|8,0:0|0:0,0:0:0:0:
356,80,280718,1,2,0:0:0:0:
356,80,280895,1,8,0:0:0:0:
200,64,281071,6,0,P|148:144|8:144,1,231.000007049561
92,76,281601,1,10,0:0:0:0:
148,164,281777,1,2,0:0:0:0:
212,244,281954,2,0,L|316:352,1,115.50000352478,8|0,0:0|0:0,0:0:0:0:
340,348,282218,1,0,3:0:0:0:
388,328,282306,1,8,3:2:0:0:
408,280,282395,1,0,3:0:0:0:
396,232,282483,1,10,3:0:0:0:
400,180,282571,1,0,3:0:0:0:
396,80,282659,6,0,P|332:140|188:96,2,236.250009012223,2|2|2,0:0|0:0|0:0,0:0:0:0:
256,192,283895,12,0,285130,0:0:0:0:
252,84,285483,6,0,P|298:126|367:106,1,105,12|0,0:0|0:0,0:0:0:0:
424,40,285836,1,8,0:0:0:0:
480,124,286012,2,0,L|459:247,1,105,2|8,0:0|0:0,0:0:0:0:
381,320,286365,1,2,0:0:0:0:
244,364,286542,1,8,0:0:0:0:
288,196,286718,6,0,P|256:152|176:141,1,105,2|8,0:0|0:0,0:0:0:0:
104,280,287071,2,0,P|68:320|-10:310,2,105,2|8|2,0:0|0:0|0:0,0:0:0:0:
2,35,287600,1,10,0:0:0:0:
344,72,287953,2,0,P|360:124|404:100,1,105,8|0,0:0|0:0,0:0:0:0:
436,100,288306,6,0,L|503:9,1,105,12|0,0:0|0:0,0:0:0:0:
440,212,288659,1,8,0:0:0:0:
496,360,288836,1,2,0:0:0:0:
344,304,289012,2,0,P|308:252|260:216,1,105,8|2,0:0|0:0,0:0:0:0:
292,56,289365,1,8,0:0:0:0:
276,225,289542,1,2,0:0:0:0:
164,164,289718,6,0,L|92:56,1,105,8|2,0:0|0:0,0:0:0:0:
415,262,290071,2,0,P|444:319|481:345,1,105,8|0,0:0|0:0,0:0:0:0:
292,56,290424,1,10,0:0:0:0:
256,356,290777,1,8,0:0:0:0:
145,154,290953,1,10,0:0:0:0:
77,242,291130,6,0,P|95:291|129:331,1,105,12|0,0:0|0:0,0:0:0:0:
145,154,291483,1,8,0:0:0:0:
276,51,291659,2,0,P|252:115|216:135,1,105,2|8,0:0|0:0,0:0:0:0:
145,154,292012,1,2,0:0:0:0:
91,66,292189,1,8,0:0:0:0:
229,179,292365,1,2,0:0:0:0:
53,243,292542,5,8,0:0:0:0:
177,91,292718,1,2,0:0:0:0:
284,71,292895,2,0,P|344:63|384:39,2,105,8|2|8,0:0|0:0|0:0,0:0:0:0:
29,355,293600,1,8,0:0:0:0:
145,367,293777,2,0,L|188:326,1,52.5,8|0,0:0|0:0,0:0:0:0:
221,302,293953,6,0,P|268:346|392:274,1,210,12|8,0:0|0:0,0:0:0:0:
465,166,294483,2,0,L|485:282,1,105,2|8,0:0|0:0,0:0:0:0:
388,218,294836,1,2,0:0:0:0:
341,99,295012,1,8,0:0:0:0:
240,232,295189,6,0,L|205:332,1,105,6|10,0:0|0:0,0:0:0:0:
209,147,295542,6,0,L|244:47,1,105,6|10,0:0|0:0,0:0:0:0:
400,128,295894,5,8,0:0:0:0:
384,348,296071,1,8,0:0:0:0:
311,145,296249,1,10,3:0:0:0:
306,93,296336,1,0,3:0:0:0:
330,48,296425,1,10,3:2:0:0:
377,24,296513,1,0,3:0:0:0:
428,30,296601,1,10,3:0:0:0:
467,64,296690,1,0,3:0:0:0:
480,114,296778,1,6,3:2:0:0:
473,154,296865,2,0,B|419:334|388:385|611:382|632:286|506:134|133:219|301:365|9:246|133:202|296:76|346:102|351:298|115:361|93:366|93:366|9:246|5:102|69:26|99:5|106:89|106:89|91:146|136:107|173:22|253:82|188:180|-23:283,1,1653.75,0|0,3:0|0:0,0:0:0:0:
