osu file format v14

[General]
AudioFilename: audio.mp3
AudioLeadIn: 0
PreviewTime: 61739
Countdown: 0
SampleSet: Soft
StackLeniency: 0.7
Mode: 0
LetterboxInBreaks: 0
WidescreenStoryboard: 0

[Editor]
Bookmarks: 338,10887,12206,22755,25392,35942,46491,57041,62316,72865,83414,83744,93964,104513,107316
DistanceSpacing: 1.2
BeatDivisor: 2
GridSize: 4
TimelineZoom: 1.6

[Metadata]
Title:Koi o Uchinuke
TitleUnicode:恋ヲウチヌケ
Artist:HoneyWorks feat. sana
ArtistUnicode:HoneyWorks feat. sana
Creator:Serizawa Haruki
Version:Railgun's Easy
Source:
Tags:ハニーワークス ハニワ 鎖那 さな 好きになるその瞬間を。 Suki ni Naru Sono Shunkan o. Japanese Pop J-pop Jpop Jack J_a_c_k Project Railgun Project_Railgun Glaceon Grindle Kowari SkyFlame
BeatmapID:2199884
BeatmapSetID:999601

[Difficulty]
HPDrainRate:2.4
CircleSize:2.8
OverallDifficulty:2.4
ApproachRate:3.2
SliderMultiplier:0.8
SliderTickRate:1

[Events]
//Background and Video events
0,0,"bg.jpg",0,0
//Break Periods
2,22955,23977
//Storyboard Layer 0 (Background)
//Storyboard Layer 1 (Fail)
//Storyboard Layer 2 (Pass)
//Storyboard Layer 3 (Foreground)
//Storyboard Layer 4 (Overlay)
//Storyboard Sound Samples

[TimingPoints]
338,329.67032967033,4,2,1,50,1,0
338,-105.263157894737,4,2,1,50,0,0
9568,-105.263157894737,4,2,1,60,0,0
10887,-105.263157894737,4,2,1,30,0,0
12206,-100,4,2,1,70,0,1
12247,-100,4,2,1,70,0,0
25392,-100,4,2,1,50,0,0
35942,-100,4,2,1,60,0,0
46491,-100,4,2,1,50,0,0
57041,-100,4,2,1,30,0,0
60997,-100,4,2,1,80,0,0
62316,-95.2380952380952,4,2,1,80,0,1
72824,-95.2380952380952,4,2,1,80,0,0
72865,-95.2380952380952,4,2,1,80,0,1
83414,-95.2380952380952,4,2,1,30,0,0
83744,-95.2380952380952,4,2,1,80,0,1
93923,-95.2380952380952,4,2,1,80,0,0
93964,-100,4,2,1,70,0,1
94005,-100,4,2,1,70,0,0

[Colours]
Combo1 : 212,212,212
Combo2 : 5,173,228
Combo3 : 255,204,0
Combo4 : 252,3,47

[HitObjects]
108,192,338,6,0,P|123:265|167:327,1,151.999995941162,14|10,0:1|0:0,0:0:0:0:
256,356,1327,1,8,0:0:0:0:
344,327,1656,2,0,P|388:265|404:192,1,151.999995941162,14|10,0:1|0:0,0:0:0:0:
328,24,2975,2,0,P|255:44|184:24,1,151.999995941162,14|10,0:1|0:0,0:0:0:0:
48,144,4294,2,0,P|46:181|56:218,1,75.9999979705811,14|2,0:1|0:0,0:0:0:0:
112,292,4953,2,0,P|149:294|186:284,1,75.9999979705811,10|10,0:0|0:0,0:0:0:0:
256,224,5612,6,0,L|245:72,1,151.999995941162,14|10,0:1|0:0,0:0:0:0:
316,12,6601,1,8,0:0:0:0:
400,48,6931,2,0,P|431:116|430:192,1,151.999995941162,14|10,0:1|0:0,0:0:0:0:
328,344,8250,2,0,P|255:324|183:345,1,151.999995941162,14|10,0:1|0:0,0:0:0:0:
12,288,9568,2,0,L|19:212,1,75.9999979705811,10|10,0:1|0:0,0:0:0:0:
96,160,10228,2,0,L|88:84,1,75.9999979705811,10|10,0:0|0:0,0:0:0:0:
168,24,10887,1,2,0:0:0:0:
168,24,12206,6,0,P|220:64|328:64,1,160,10|10,0:3|0:0,0:0:0:0:
392,16,13195,1,10,0:0:0:0:
460,84,13524,2,0,B|469:243,1,160,10|10,1:2|0:0,0:0:0:0:
308,360,14843,2,0,B|272:340|272:340|128:352,1,160,10|10,1:2|0:0,0:0:0:0:
64,312,15832,1,8,0:0:0:0:
4,236,16162,2,0,L|14:156,1,80,10|10,1:2|1:2,0:0:0:0:
68,76,16821,2,0,L|147:86,1,80,10|10,0:1|1:2,0:0:0:0:
184,176,17480,6,0,P|256:204|329:175,1,160,14|10,1:2|0:0,0:0:0:0:
400,108,18469,1,10,0:0:0:0:
472,172,18799,2,0,P|480:208|472:252,2,80,10|10|10,1:2|0:0|0:0,0:0:0:0:
332,40,20118,2,0,B|256:60|256:60|177:40,1,160,10|10,1:2|0:0,0:0:0:0:
92,84,21107,1,8,0:0:0:0:
19,148,21436,2,0,P|17:187|26:226,1,80,10|10,1:2|1:2,0:0:0:0:
84,304,22096,2,0,L|163:300,1,80,10|10,1:2|0:1,0:0:0:0:
256,356,22755,5,14,0:1:0:0:
476,128,25392,6,0,P|420:71|347:39,1,160,14|8,0:1|0:1,0:0:0:0:
256,72,26381,1,10,0:1:0:0:
165,39,26711,2,0,P|92:70|36:127,1,160,10|8,0:1|0:1,0:0:0:0:
12,220,27700,1,10,0:1:0:0:
52,308,28030,2,0,P|123:342|201:331,2,160,10|10|10,0:1|0:1|0:1,0:0:0:0:
152,144,30008,1,8,0:1:0:0:
308,31,30667,6,0,P|387:25|461:52,1,160,10|10,0:1|0:1,0:0:0:0:
512,136,31656,1,10,0:1:0:0:
436,196,31986,2,0,P|356:202|282:175,1,160,10|10,0:1|0:1,0:0:0:0:
208,116,32975,1,10,0:1:0:0:
132,56,33305,2,0,L|48:64,2,80,14|10|2,0:1|0:1|0:0,0:0:0:0:
212,4,34294,1,10,0:0:0:0:
292,56,34623,2,0,L|449:86,1,160,10|10,0:1|0:1,0:0:0:0:
479,276,35942,6,0,P|422:332|348:359,1,160,14|8,0:1|0:1,0:0:0:0:
256,332,36931,1,10,0:0:0:0:
166,363,37261,2,0,P|92:336|36:280,1,160,10|8,0:1|0:1,0:0:0:0:
12,188,38250,1,10,0:0:0:0:
40,96,38579,2,0,L|117:77,1,80,10|10,0:1|0:0,0:0:0:0:
196,20,39239,2,0,L|273:38,1,80,10|10,0:1|0:0,0:0:0:0:
348,100,39898,2,0,L|368:288,1,160,10|10,0:1|0:1,0:0:0:0:
204,364,41217,6,0,P|136:325|59:340,1,160,10|10,0:1|0:1,0:0:0:0:
0,264,42206,1,10,0:0:0:0:
44,180,42535,2,0,L|32:84,2,80,10|10|10,0:1|0:0|0:1,0:0:0:0:
116,244,43524,1,10,0:0:0:0:
184,176,43854,2,0,P|202:140|208:101,1,80,14|10,0:1|0:0,0:0:0:0:
303,101,44513,2,0,P|309:140|328:176,1,80,10|10,0:1|0:0,0:0:0:0:
400,240,45173,2,0,P|391:317|333:369,1,160,10|10,0:0|0:1,0:0:0:0:
152,304,46491,6,0,P|144:266|148:226,2,80,14|10|10,0:1|0:1|0:1,0:0:0:0:
80,368,47480,1,10,0:1:0:0:
16,296,47810,1,14,0:1:0:0:
124,140,48469,2,0,P|163:134|200:148,1,80,10|10,0:1|0:1,0:0:0:0:
280,204,49129,2,0,P|357:208|424:156,1,160,14|10,0:1|0:1,0:0:0:0:
452,68,50118,1,10,0:1:0:0:
372,16,50447,1,14,0:1:0:0:
256,104,50942,1,8,3:2:0:0:
140,16,51436,1,8,3:1:0:0:
60,68,51766,6,0,P|47:105|52:145,2,80,14|10|10,0:1|0:1|0:1,0:0:0:0:
140,16,52755,1,10,0:1:0:0:
204,88,53085,1,14,0:1:0:0:
380,8,53744,2,0,L|458:22,1,80,10|10,0:1|0:1,0:0:0:0:
508,104,54403,1,14,0:1:0:0:
428,156,54733,1,10,0:1:0:0:
492,228,55063,2,0,P|489:267|473:304,1,80,2|10,0:0|0:0,0:0:0:0:
380,324,55722,2,0,P|316:284|230:302,1,160,14|10,0:1|0:1,0:0:0:0:
148,340,56711,1,10,0:1:0:0:
108,248,57041,6,0,P|116:169|156:100,1,160,14|2,0:1|0:0,0:0:0:0:
357,100,58359,2,0,P|396:168|404:247,1,160,2|2,0:0|0:0,0:0:0:0:
256,372,59678,1,2,0:0:0:0:
32,100,60997,5,10,0:3:0:0:
32,100,62316,6,0,P|28:200|60:284,1,167.999994873047,10|10,0:3|0:0,0:0:0:0:
116,336,63305,1,10,0:0:0:0:
212,368,63634,2,0,P|288:372|380:340,1,167.999994873047,10|10,1:2|0:0,0:0:0:0:
508,192,64953,2,0,L|502:108,2,83.9999974365235,10|10|10,1:2|0:0|0:0,0:0:0:0:
375,343,66272,2,0,P|299:310|216:309,1,167.999994873047,10|8,1:2|0:1,0:0:0:0:
132,364,67261,1,10,1:2:0:0:
52,304,67590,6,0,P|22:225|19:142,2,167.999994873047,14|8|10,1:2|0:0|1:2,0:0:0:0:
132,364,69239,1,8,0:0:0:0:
214,309,69568,2,0,L|229:226,1,83.9999974365235,10|10,0:0|0:0,0:0:0:0:
308,164,70228,2,0,L|390:179,2,83.9999974365235,10|10|10,1:2|0:0|0:0,0:0:0:0:
128,252,71546,2,0,P|108:192|116:108,2,125.999996154785,10|10|8,1:2|0:0|0:0,0:0:0:0:
228,226,72865,6,0,P|299:184|382:183,1,167.999994873047,14|10,1:2|0:1,0:0:0:0:
474,230,73854,1,10,0:1:0:0:
428,322,74184,2,0,P|356:364|273:365,1,167.999994873047,10|10,0:1|0:1,0:0:0:0:
112,240,75502,2,0,L|100:156,1,83.9999974365235,10|10,0:1|0:1,0:0:0:0:
192,112,76162,2,0,L|203:28,1,83.9999974365235,10|10,0:1|0:1,0:0:0:0:
300,8,76821,2,0,P|384:48|464:48,1,167.999994873047,10|8,1:2|0:1,0:0:0:0:
476,248,78140,6,0,P|428:315|352:359,1,167.999994873047,14|8,1:2|0:1,0:0:0:0:
256,336,79129,1,10,0:1:0:0:
244,236,79458,2,0,P|291:168|367:124,1,167.999994873047,10|8,0:1|0:1,0:0:0:0:
192,24,80777,2,0,L|108:33,1,83.9999974365235,10|10,0:1|0:3,0:0:0:0:
56,120,81436,2,0,L|65:203,1,83.9999974365235,10|10,0:1|0:3,0:0:0:0:
4,284,82096,1,10,0:1:0:0:
80,352,82425,1,10,0:0:0:0:
164,296,82755,2,0,P|200:292|264:308,1,83.9999974365235,10|10,0:0|0:0,0:0:0:0:
332,356,83414,1,2,0:0:0:0:
406,284,83744,6,0,P|438:207|446:124,1,167.999994873047,14|10,1:2|0:0,0:0:0:0:
388,38,84733,2,0,P|349:21|308:12,1,83.9999974365235,10|8,1:2|0:0,0:0:0:0:
204,12,85392,2,0,P|163:21|125:38,1,83.9999974365235,10|10,0:0|0:0,0:0:0:0:
60,120,86052,2,0,L|76:232,2,83.9999974365235,10|10|10,1:2|0:0|0:0,0:0:0:0:
232,16,87370,2,0,P|309:48|392:52,1,167.999994873047,10|10,1:2|1:2,0:0:0:0:
472,116,88359,1,10,1:2:0:0:
400,188,88689,6,0,P|373:267|355:349,2,167.999994873047,14|8|10,1:2|0:0|1:2,0:0:0:0:
328,116,90338,1,8,0:0:0:0:
256,48,90667,2,0,L|173:63,1,83.9999974365235,10|10,0:0|0:0,0:0:0:0:
92,124,91327,2,0,L|9:108,2,83.9999974365235,10|10|10,1:2|0:0|0:0,0:0:0:0:
220,280,92645,2,0,P|288:332|384:340,1,167.999994873047,10|8,1:2|0:1,0:0:0:0:
464,308,93634,1,10,0:1:0:0:
508,224,93964,6,0,P|520:140|500:52,1,160,14|10,1:2|0:0,0:0:0:0:
428,8,94953,1,10,0:0:0:0:
344,56,95283,2,0,P|264:64|172:8,1,160,10|10,1:2|0:0,0:0:0:0:
20,108,96601,2,0,P|8:186|16:266,1,160,10|10,1:2|0:0,0:0:0:0:
44,360,97590,1,8,0:0:0:0:
130,316,97920,2,0,L|208:296,1,80,10|10,1:2|1:2,0:0:0:0:
305,296,98579,2,0,L|382:316,1,80,10|10,1:2|1:2,0:0:0:0:
468,360,99239,6,0,L|488:196,1,160,14|10,1:2|0:0,0:0:0:0:
512,108,100228,1,10,0:0:0:0:
440,44,100557,2,0,L|344:28,2,80,10|10|10,1:2|0:0|0:0,0:0:0:0:
328,204,101876,2,0,P|255:233|182:205,1,160,10|10,1:2|0:0,0:0:0:0:
116,136,102865,1,8,0:0:0:0:
136,40,103195,2,0,P|170:19|209:11,1,80,10|10,1:2|3:2,0:0:0:0:
304,8,103854,2,0,P|343:15|377:36,1,80,10|10,3:1|3:1,0:0:0:0:
448,112,104513,5,14,1:2:0:0:
256,192,104678,12,10,107316,0:3:0:0:
