osu file format v14

[General]
AudioFilename: audio.mp3
AudioLeadIn: 0
PreviewTime: 61739
Countdown: 0
SampleSet: Soft
StackLeniency: 0.4
Mode: 0
LetterboxInBreaks: 0
WidescreenStoryboard: 1

[Editor]
Bookmarks: 338,12206,25392,35942,46491,57041,62316,72865,83414,93964,107316
DistanceSpacing: 2
BeatDivisor: 2
GridSize: 4
TimelineZoom: 1.6

[Metadata]
Title:Koi o Uchinuke
TitleUnicode:恋ヲウチヌケ
Artist:HoneyWorks feat. sana
ArtistUnicode:HoneyWorks feat. sana
Creator:Serizawa Haruki
Version:Normal
Source:
Tags:ハニーワークス ハニワ 鎖那 さな 好きになるその瞬間を。 Suki ni Naru Sono Shunkan o. Japanese Pop J-pop Jpop Jack J_a_c_k Project Railgun Project_Railgun Glaceon Grindle Kowari SkyFlame
BeatmapID:2112778
BeatmapSetID:999601

[Difficulty]
HPDrainRate:3
CircleSize:3
OverallDifficulty:4
ApproachRate:5
SliderMultiplier:1
SliderTickRate:1

[Events]
//Background and Video events
0,0,"bg.jpg",0,0
//Break Periods
2,57241,59797
//Storyboard Layer 0 (Background)
//Storyboard Layer 1 (Fail)
//Storyboard Layer 2 (Pass)
//Storyboard Layer 3 (Foreground)
//Storyboard Layer 4 (Overlay)
//Storyboard Sound Samples

[TimingPoints]
338,329.67032967033,4,2,1,50,1,0
9568,-100,4,2,1,60,0,0
10887,-100,4,2,1,30,0,0
12206,-100,4,2,1,70,0,0
25392,-100,4,2,1,50,0,0
35942,-100,4,2,1,60,0,0
46491,-100,4,2,1,50,0,0
57041,-100,4,2,1,30,0,0
60997,-100,4,2,1,80,0,0
62316,-100,4,2,1,80,0,1
83414,-100,4,2,1,30,0,1
83744,-100,4,2,1,80,0,1
93964,-100,4,2,1,70,0,0

[Colours]
Combo1 : 212,212,212
Combo2 : 5,173,228
Combo3 : 255,204,0
Combo4 : 252,3,47

[HitObjects]
220,250,338,6,0,P|149:270|78:250,1,150,14|10,0:1|0:1,0:0:0:0:
35,224,997,1,10,0:0:0:0:
17,126,1327,2,0,L|8:76,1,50,8|8,0:0|0:0,0:0:0:0:
1,28,1656,2,0,B|47:45|47:45|146:27,1,150,14|10,0:1|0:1,0:0:0:0:
196,19,2316,1,10,0:0:0:0:
260,96,2645,1,8,0:0:0:0:
196,173,2975,6,0,P|176:244|196:315,1,150,14|10,0:1|0:1,0:0:0:0:
227,355,3634,1,10,0:0:0:0:
325,372,3964,2,0,L|333:322,1,50,8|8,0:0|0:0,0:0:0:0:
370,288,4294,2,0,L|352:189,1,100,14|2,0:1|0:0,0:0:0:0:
429,124,4953,2,0,L|411:25,1,100,10|10,0:0|0:0,0:0:0:0:
315,0,5612,6,0,P|243:18|192:71,1,150,14|10,0:1|0:1,0:0:0:0:
168,116,6272,1,10,0:0:0:0:
202,210,6601,2,0,L|251:218,1,50,8|8,0:0|0:0,0:0:0:0:
294,192,6931,2,0,B|392:174|392:174|439:191,1,150,14|10,0:1|0:1,0:0:0:0:
486,209,7590,1,10,0:0:0:0:
503,307,7920,1,10,0:0:0:0:
418,360,8250,6,0,P|347:380|276:360,1,150,14|10,0:1|0:1,0:0:0:0:
235,330,8909,2,0,L|136:347,1,100,10|8,0:0|0:1,0:0:0:0:
70,273,9568,2,0,P|58:225|70:177,1,100,10|10,0:1|0:0,0:0:0:0:
104,141,10063,1,8,0:0:0:0:
104,141,10228,2,0,L|153:132,1,50,10|8,0:0|0:0,0:0:0:0:
196,159,10557,2,0,L|245:167,2,50,10|8|2,0:0|0:0|0:0,0:0:0:0:
196,159,12206,6,0,L|294:176,1,100,10|10,0:3|0:0,0:0:0:0:
348,188,12700,1,10,0:1:0:0:
348,188,12865,2,0,L|356:237,2,50,10|10|10,0:0|0:1|0:0,0:0:0:0:
441,150,13524,2,0,P|475:114|489:66,1,100,10|10,1:2|0:0,0:0:0:0:
498,21,14019,1,10,0:1:0:0:
498,21,14184,2,0,L|399:3,1,100,10|10,0:0|0:0,0:0:0:0:
314,55,14843,6,0,P|266:67|218:55,1,100,10|10,1:2|0:0,0:0:0:0:
176,39,15338,1,10,0:1:0:0:
176,39,15502,2,0,L|167:88,2,50,10|10|8,0:0|0:1|0:0,0:0:0:0:
78,22,16162,2,0,L|60:120,1,100,10|10,1:2|1:2,0:0:0:0:
44,219,16821,1,10,0:1:0:0:
121,284,17151,1,10,1:2:0:0:
214,249,17480,6,0,P|248:213|262:165,1,100,14|10,1:2|0:0,0:0:0:0:
264,119,17975,1,10,0:1:0:0:
264,119,18140,2,0,L|214:110,2,50,10|10|10,0:0|0:1|0:0,0:0:0:0:
328,43,18799,2,0,L|426:25,1,100,10|10,1:2|0:0,0:0:0:0:
480,20,19294,1,10,0:1:0:0:
480,20,19458,2,0,P|455:63|455:112,1,100,10|10,0:0|0:0,0:0:0:0:
500,203,20118,6,0,L|482:301,1,100,10|10,1:2|0:0,0:0:0:0:
447,335,20612,1,10,0:1:0:0:
447,335,20777,2,0,L|455:384,2,50,10|10|8,0:0|0:1|0:0,0:0:0:0:
353,301,21436,1,10,1:2:0:0:
276,365,21766,1,10,1:2:0:0:
182,330,22096,2,0,L|173:281,1,50,10|10,1:2|0:0,0:0:0:0:
200,238,22425,2,0,L|208:189,1,50,10|10,0:1|0:1,0:0:0:0:
216,139,22755,6,0,P|166:138|123:114,1,100,14|8,0:1|3:2,0:0:0:0:
47,50,23414,1,8,3:1:0:0:
34,153,23744,1,8,3:2:0:0:
34,153,23909,2,0,L|16:251,1,100,0|0,3:0|3:0,0:0:0:0:
9,301,24403,2,0,L|107:283,1,100,8|8,3:2|3:1,0:0:0:0:
206,265,25063,1,10,3:2:0:0:
294,217,25392,6,0,P|306:265|294:313,2,100,14|8|8,0:1|0:1|0:1,0:0:0:0:
240,133,26381,2,0,L|248:83,1,50,10|2,0:1|0:0,0:0:0:0:
257,34,26711,2,0,L|158:51,2,100,10|8|8,0:1|0:1|0:1,0:0:0:0:
355,16,27700,1,10,0:1:0:0:
410,100,28030,6,0,P|422:148|410:196,1,100,10|10,0:1|0:1,0:0:0:0:
458,284,28689,2,0,P|410:296|362:284,1,100,10|10,0:1|0:1,0:0:0:0:
275,235,29348,2,0,L|225:243,1,50,10|2,0:1|0:0,0:0:0:0:
176,252,29678,1,8,0:1:0:0:
159,154,30008,2,0,L|257:136,1,100,8|8,0:1|0:1,0:0:0:0:
241,39,30667,6,0,L|192:48,1,50,10|2,0:1|0:0,0:0:0:0:
149,21,30997,2,0,L|100:13,1,50,10|2,0:1|0:0,0:0:0:0:
50,4,31327,2,0,P|62:52|49:100,1,100,10|10,0:1|0:1,0:0:0:0:
0,187,31986,2,0,L|8:236,1,50,10|2,0:1|0:0,0:0:0:0:
17,286,32316,1,10,0:1:0:0:
100,342,32645,2,0,P|148:354|196:342,1,100,10|10,0:1|0:1,0:0:0:0:
279,286,33305,5,14,0:1:0:0:
381,307,33634,1,10,0:1:0:0:
381,307,33799,2,0,L|398:208,1,100,8|8,0:0|0:1,0:0:0:0:
407,158,34294,1,10,0:0:0:0:
320,110,34623,2,0,P|272:98|224:110,1,100,10|8,0:1|0:0,0:0:0:0:
180,135,35118,2,0,L|130:126,1,50,10|10,3:1|0:1,0:0:0:0:
84,122,35447,1,8,0:0:0:0:
84,122,35612,1,10,0:0:0:0:
22,200,35942,6,0,P|10:248|22:296,2,100,14|8|8,0:1|0:0|0:1,0:0:0:0:
110,248,36931,2,0,L|159:239,1,50,10|2,0:0|0:0,0:0:0:0:
209,230,37261,2,0,L|191:328,2,100,10|8|8,0:1|0:0|0:1,0:0:0:0:
220,185,38085,1,8,0:0:0:0:
220,185,38250,1,10,0:0:0:0:
309,140,38579,6,0,P|357:128|405:140,1,100,10|10,0:1|0:0,0:0:0:0:
493,92,39239,2,0,P|505:140|493:188,1,100,10|10,0:1|0:0,0:0:0:0:
430,265,39898,2,0,L|438:314,1,50,10|2,0:1|0:0,0:0:0:0:
446,364,40228,2,0,L|347:346,1,100,10|10,0:0|0:1,0:0:0:0:
301,342,40722,1,8,0:0:0:0:
301,342,40887,1,10,0:0:0:0:
240,263,41217,6,0,P|228:215|240:167,1,100,10|10,0:1|0:0,0:0:0:0:
328,215,41876,2,0,P|340:167|328:119,1,100,10|10,0:1|0:0,0:0:0:0:
274,35,42535,2,0,L|224:43,1,50,10|2,0:1|0:0,0:0:0:0:
176,53,42865,2,0,L|184:3,2,50,10|2|10,0:0|0:0|0:1,0:0:0:0:
172,107,43359,1,8,0:0:0:0:
172,107,43524,1,10,0:0:0:0:
78,141,43854,6,0,P|43:176|29:224,1,100,14|10,0:1|0:0,0:0:0:0:
40,324,44513,2,0,L|89:315,1,50,10|8,0:1|0:1,0:0:0:0:
138,306,44843,1,10,0:0:0:0:
215,242,45173,2,0,L|313:259,1,100,10|8,0:0|0:1,0:0:0:0:
352,300,45667,1,10,3:2:0:0:
352,300,45832,2,0,L|450:283,1,100,10|8,0:1|3:2,0:0:0:0:
512,204,46491,6,0,P|524:156|512:108,1,100,14|10,0:1|0:1,0:0:0:0:
438,40,47151,2,0,P|390:28|342:40,1,100,10|10,0:1|0:1,0:0:0:0:
268,108,47810,2,0,B|244:156|268:204|268:204|319:221|336:272,1,200,14|10,0:1|0:1,0:0:0:0:
350,371,48799,1,10,0:1:0:0:
252,354,49129,6,0,B|154:337|154:337|130:289|154:241,1,200,14|10,0:1|0:1,0:0:0:0:
205,154,50118,1,10,0:1:0:0:
157,66,50447,2,0,P|205:54|253:66,1,100,14|10,0:1|0:1,0:0:0:0:
300,97,50942,1,8,3:2:0:0:
300,97,51107,2,0,L|308:146,2,50,10|2|8,0:1|0:0|3:1,0:0:0:0:
399,80,51766,6,0,L|416:178,1,100,14|10,0:1|0:1,0:0:0:0:
481,255,52425,2,0,L|463:353,1,100,10|10,0:1|0:1,0:0:0:0:
363,365,53085,2,0,B|310:362|280:317|280:317|250:362|197:365,1,200,14|10,0:1|0:1,0:0:0:0:
195,265,54074,1,10,0:1:0:0:
250,182,54403,6,0,P|262:134|250:86,1,100,14|10,0:1|0:1,0:0:0:0:
221,45,54898,2,0,L|122:62,1,100,8|8,0:0|0:1,0:0:0:0:
73,71,55392,1,10,0:0:0:0:
39,165,55722,1,14,0:1:0:0:
104,242,56052,1,10,0:1:0:0:
202,224,56381,2,0,L|251:215,1,50,10|10,0:1|0:0,0:0:0:0:
300,206,56711,1,10,0:1:0:0:
334,112,57041,5,14,0:1:0:0:
334,112,60997,5,10,0:3:0:0:
334,112,62316,6,0,L|351:210,1,100,10|10,0:3|0:0,0:0:0:0:
393,249,62811,1,10,0:1:0:0:
393,249,62976,2,0,L|384:298,1,50,10|10,0:0|0:1,0:0:0:0:
375,347,63305,1,10,0:0:0:0:
285,303,63634,2,0,P|237:291|189:303,1,100,10|8,1:2|0:0,0:0:0:0:
151,334,64129,1,10,0:1:0:0:
151,334,64294,2,0,L|101:325,1,50,10|10,0:0|0:1,0:0:0:0:
52,316,64623,1,10,0:0:0:0:
18,222,64953,5,10,1:2:0:0:
82,146,65283,1,10,0:0:0:0:
34,58,65612,2,0,P|82:46|130:58,1,100,10|8,0:0|0:0,0:0:0:0:
219,105,66272,2,0,L|227:55,2,50,10|10|10,1:2|0:1|0:0,0:0:0:0:
245,147,66766,2,0,L|262:245,1,100,2|10,0:0|1:2,0:0:0:0:
271,295,67261,1,10,1:2:0:0:
360,340,67590,6,0,P|408:352|456:340,1,100,14|10,1:2|0:0,0:0:0:0:
504,319,68085,1,10,0:1:0:0:
504,319,68250,2,0,L|495:270,1,50,8|10,0:0|0:1,0:0:0:0:
486,221,68579,1,10,0:0:0:0:
392,187,68909,2,0,L|409:88,1,100,10|8,1:2|0:0,0:0:0:0:
421,43,69403,1,10,0:1:0:0:
421,43,69568,2,0,L|372:52,1,50,10|10,0:0|0:1,0:0:0:0:
323,61,69897,1,10,0:0:0:0:
247,125,70228,6,0,L|198:116,1,50,10|2,1:2|0:0,0:0:0:0:
149,107,70557,1,10,0:0:0:0:
97,22,70887,2,0,P|62:57|49:105,1,100,10|8,0:0|0:0,0:0:0:0:
49,205,71546,2,0,P|62:252|97:288,1,100,10|10,1:2|0:0,0:0:0:0:
140,315,72041,1,10,0:0:0:0:
243,302,72370,1,10,0:0:0:0:
243,302,72535,1,8,0:0:0:0:
277,208,72865,5,14,1:2:0:0:
212,131,73195,1,10,0:1:0:0:
247,37,73524,2,0,L|296:28,1,50,10|10,0:1|0:0,0:0:0:0:
339,55,73854,2,0,L|388:63,1,50,10|10,0:1|0:0,0:0:0:0:
438,72,74184,1,10,0:1:0:0:
472,166,74513,1,10,0:1:0:0:
408,243,74843,2,0,L|359:234,1,50,10|10,0:1|0:0,0:0:0:0:
322,200,75173,2,0,L|273:208,1,50,10|10,0:1|0:0,0:0:0:0:
223,217,75502,6,0,P|209:264|175:300,1,100,10|10,0:1|0:1,0:0:0:0:
75,300,76162,2,0,P|40:264|27:216,1,100,10|10,0:1|0:1,0:0:0:0:
40,118,76821,2,0,L|-9:109,2,50,10|10|10,1:2|0:1|0:1,0:0:0:0:
90,127,77316,1,10,0:0:0:0:
192,148,77645,1,10,0:0:0:0:
192,148,77810,1,10,0:0:0:0:
209,246,78140,6,0,L|217:295,2,50,14|10|10,1:2|0:0|0:1,0:0:0:0:
258,235,78634,2,0,P|307:235|350:259,1,100,10|10,0:0|0:0,0:0:0:0:
387,295,79129,1,10,0:1:0:0:
485,312,79458,2,0,L|476:361,2,50,10|10|10,0:1|0:0|0:1,0:0:0:0:
512,270,79953,2,0,L|494:171,1,100,10|10,0:0|0:0,0:0:0:0:
487,122,80447,1,10,0:1:0:0:
470,24,80777,6,0,L|420:16,1,50,10|8,0:1|0:1,0:0:0:0:
371,7,81107,1,10,0:3:0:0:
307,83,81436,2,0,L|257:75,1,50,10|8,0:1|0:1,0:0:0:0:
208,66,81766,1,10,0:3:0:0:
111,43,82096,2,0,P|111:92|135:135,1,100,10|10,0:1|0:0,0:0:0:0:
181,169,82590,1,10,0:0:0:0:
181,169,82755,2,0,L|230:178,1,50,10|10,0:0|0:0,0:0:0:0:
265,215,83085,2,0,L|314:207,2,50,10|10|2,0:0|0:0|0:0,0:0:0:0:
231,309,83744,6,0,L|182:300,1,50,14|10,1:2|0:1,0:0:0:0:
139,327,84074,2,0,L|90:335,1,50,10|10,0:0|0:1,0:0:0:0:
40,344,84404,1,10,0:0:0:0:
0,253,84733,2,0,P|-12:205|0:157,1,100,10|8,1:2|0:0,0:0:0:0:
29,117,85228,1,10,0:1:0:0:
29,117,85393,2,0,L|20:67,1,50,10|10,0:0|0:1,0:0:0:0:
11,18,85722,1,10,0:0:0:0:
110,35,86052,5,10,1:2:0:0:
209,52,86381,1,10,0:0:0:0:
255,140,86711,2,0,P|267:188|255:236,1,100,10|8,0:0|0:0,0:0:0:0:
209,325,87370,2,0,L|159:316,2,50,10|10|10,1:2|0:1|0:0,0:0:0:0:
262,338,87865,1,2,0:0:0:0:
262,338,88030,1,10,1:2:0:0:
361,356,88359,1,10,1:2:0:0:
415,272,88689,6,0,P|427:224|415:176,1,100,14|10,1:2|0:0,0:0:0:0:
391,139,89184,1,10,0:1:0:0:
391,139,89349,2,0,L|400:89,1,50,8|10,0:0|0:1,0:0:0:0:
409,40,89678,1,10,0:0:0:0:
311,58,90008,2,0,L|213:75,1,100,10|8,1:2|0:0,0:0:0:0:
176,109,90503,1,10,0:1:0:0:
176,109,90668,2,0,L|127:100,1,50,10|10,0:0|0:1,0:0:0:0:
78,91,90997,1,10,0:0:0:0:
14,167,91327,5,10,1:2:0:0:
48,261,91656,1,10,0:0:0:0:
0,349,91986,2,0,P|48:361|96:349,1,100,10|8,0:0|0:0,0:0:0:0:
180,295,92645,2,0,L|230:304,1,50,10|10,1:2|0:1,0:0:0:0:
283,316,92975,1,10,0:0:0:0:
283,316,93140,2,0,L|265:217,1,100,10|10,0:0|0:0,0:0:0:0:
256,168,93634,1,10,0:1:0:0:
171,117,93964,6,0,P|206:82|254:68,1,100,14|10,1:2|0:0,0:0:0:0:
308,69,94458,1,10,0:1:0:0:
308,69,94623,2,0,L|316:20,2,50,10|10|10,0:0|0:1|0:0,0:0:0:0:
385,133,95283,2,0,L|403:232,1,100,10|10,1:2|0:0,0:0:0:0:
415,285,95777,1,10,0:1:0:0:
415,285,95942,2,0,P|379:319|331:333,1,100,10|10,0:0|0:0,0:0:0:0:
232,325,96601,6,0,L|134:307,1,100,10|10,1:2|0:0,0:0:0:0:
99,279,97095,1,10,0:1:0:0:
99,279,97260,2,0,L|50:287,2,50,10|10|8,0:0|0:1|0:0,0:0:0:0:
163,202,97920,2,0,P|175:154|163:106,1,100,10|10,1:2|1:2,0:0:0:0:
99,30,98579,1,10,1:2:0:0:
198,13,98909,1,10,1:2:0:0:
262,89,99239,6,0,L|360:71,1,100,14|10,1:2|0:0,0:0:0:0:
413,65,99733,1,10,0:1:0:0:
413,65,99898,2,0,L|422:16,2,50,10|10|10,0:0|0:1|0:0,0:0:0:0:
479,140,100557,2,0,P|503:183|503:232,1,100,10|10,1:2|0:0,0:0:0:0:
494,285,101052,1,10,0:1:0:0:
494,285,101217,2,0,L|395:267,1,100,10|10,0:0|0:0,0:0:0:0:
323,337,101876,6,0,P|298:293|298:244,1,100,10|10,1:2|0:0,0:0:0:0:
315,200,102370,1,10,0:1:0:0:
315,200,102535,2,0,L|265:191,2,50,10|10|8,0:0|0:1|0:0,0:0:0:0:
379,123,103195,1,10,1:2:0:0:
345,29,103524,1,10,3:2:0:0:
246,12,103854,2,0,P|196:12|153:36,1,100,10|10,3:1|3:1,0:0:0:0:
85,110,104513,5,14,1:2:0:0:
256,192,104678,12,10,107316,0:3:0:0:
