osu file format v14

[General]
AudioFilename: audio.mp3
AudioLeadIn: 0
PreviewTime: 61739
Countdown: 0
SampleSet: Soft
StackLeniency: 0.7
Mode: 0
LetterboxInBreaks: 0
WidescreenStoryboard: 0

[Editor]
Bookmarks: 338,12206,25392,35942,46491,62316,83744,107316
DistanceSpacing: 0.8
BeatDivisor: 4
GridSize: 4
TimelineZoom: 1.6

[Metadata]
Title:Koi o Uchinuke
TitleUnicode:恋ヲウチヌケ
Artist:HoneyWorks feat. sana
ArtistUnicode:HoneyWorks feat. sana
Creator:Serizawa Haruki
Version:Love
Source:
Tags:ハニーワークス ハニワ 鎖那 さな 好きになるその瞬間を。 Suki ni Naru Sono Shunkan o. Japanese Pop J-pop Jpop Jack J_a_c_k Project Railgun Project_Railgun Glaceon Grindle Kowari SkyFlame
BeatmapID:2090760
BeatmapSetID:999601

[Difficulty]
HPDrainRate:6
CircleSize:4
OverallDifficulty:9
ApproachRate:9.4
SliderMultiplier:1.6
SliderTickRate:1

[Events]
//Background and Video events
0,0,"bg.jpg",0,0
//Break Periods
//Storyboard Layer 0 (Background)
//Storyboard Layer 1 (Fail)
//Storyboard Layer 2 (Pass)
//Storyboard Layer 3 (Foreground)
//Storyboard Layer 4 (Overlay)
//Storyboard Sound Samples

[TimingPoints]
338,329.67032967033,4,2,1,50,1,0
338,-125,4,2,1,50,0,0
4623,-111.111111111111,4,2,1,50,0,0
4953,-99.9999999999999,4,2,1,50,0,0
5283,-90.9090909090909,4,2,1,50,0,0
5612,-125,4,2,1,50,0,0
9568,-100,4,2,1,60,0,0
10887,-333.333333333333,4,2,1,30,0,0
12123,-333.333333333333,4,2,1,5,0,0
12206,-90.9090909090909,4,2,1,70,0,0
22755,-100,4,2,1,70,0,0
25392,-111.111111111111,4,2,1,50,0,0
35942,-100,4,2,1,60,0,0
46491,-111.111111111111,4,2,1,50,0,0
57041,-142.857142857143,4,2,1,30,0,0
60997,-111.111111111111,4,2,1,80,0,0
62316,-83.3333333333333,4,2,1,80,0,1
72865,-76.9230769230769,4,2,1,80,0,1
83414,-76.9230769230769,4,2,1,30,0,1
83744,-83.3333333333333,4,2,1,80,0,1
93964,-90.9090909090909,4,2,1,70,0,0
104513,-185.185185185185,4,2,1,70,0,0

[Colours]
Combo1 : 212,212,212
Combo2 : 5,173,228
Combo3 : 255,204,0
Combo4 : 252,3,47

[HitObjects]
124,198,338,6,0,P|47:175|-21:169,1,128,14|2,0:1|0:0,0:0:0:0:
134,68,832,1,10,0:1:0:0:
219,147,997,1,10,0:0:0:0:
219,147,1162,2,0,L|307:133,1,64,2|8,0:0|0:0,0:0:0:0:
376,63,1491,1,8,0:0:0:0:
448,184,1656,6,0,P|436:258|429:332,1,128,14|2,0:1|0:0,0:0:0:0:
279,236,2151,1,10,0:1:0:0:
279,236,2316,2,0,P|285:278|289:320,1,64,10|0,0:0|0:0,0:0:0:0:
114,269,2645,2,0,L|71:256,3,32,8|8|8|8,0:0|0:0|0:0|0:0,0:0:0:0:
138,300,2975,6,0,P|168:265|150:177,1,128,14|2,0:1|0:0,0:0:0:0:
215,78,3469,1,10,0:1:0:0:
79,34,3634,1,10,0:0:0:0:
79,34,3799,2,0,P|85:76|89:118,1,64,2|8,0:0|0:0,0:0:0:0:
159,187,4129,1,8,0:0:0:0:
298,80,4294,6,0,P|336:93|369:100,1,64,14|0,0:1|0:0,0:0:0:0:
459,152,4623,2,0,P|423:162|389:174,1,71.9999978027344,2|8,0:0|0:1,0:0:0:0:
275,228,4953,2,0,P|312:240|351:251,1,80,10|0,0:0|0:0,0:0:0:0:
451,310,5283,2,0,P|425:317|401:325,3,44.0000013427735,10|8|8|8,0:0|0:0|0:0|0:0,0:0:0:0:
381,346,5612,6,0,P|312:332|246:313,1,128,14|2,0:1|0:0,0:0:0:0:
140,358,6107,1,10,0:1:0:0:
66,255,6272,1,10,0:0:0:0:
66,255,6436,2,0,P|57:221|46:188,1,64,2|8,0:0|0:0,0:0:0:0:
72,81,6766,1,8,0:0:0:0:
179,160,6931,6,0,B|267:165|231:126|329:130,1,128,14|2,0:1|0:0,0:0:0:0:
410,227,7425,1,10,0:1:0:0:
410,227,7590,2,0,P|419:193|430:160,1,64,10|0,0:0|0:0,0:0:0:0:
422,41,7920,2,0,P|405:45|388:51,3,32,10|8|8|8,0:0|0:0|0:0|0:0,0:0:0:0:
359,67,8250,6,0,P|300:38|209:30,1,128,14|2,0:1|0:0,0:0:0:0:
143,180,8744,1,10,0:1:0:0:
279,136,8909,1,10,0:0:0:0:
279,136,9074,2,0,P|273:178|269:220,1,64,2|8,0:0|0:1,0:0:0:0:
199,289,9404,1,0,0:0:0:0:
351,367,9568,6,0,P|346:323|339:279,1,80,10|0,0:1|0:0,0:0:0:0:
270,199,9898,1,10,0:0:0:0:
405,141,10063,1,8,0:0:0:0:
213,104,10228,5,10,0:0:0:0:
462,235,10392,1,8,0:0:0:0:
184,283,10557,5,10,0:0:0:0:
488,152,10722,1,8,0:0:0:0:
309,38,10887,6,0,B|205:32|248:77|133:73,1,179.999994506836,2|0,0:0|0:0,0:0:0:0:
100,70,12206,6,0,L|115:156,1,88.000002685547,10|0,0:3|0:0,0:0:0:0:
284,360,12535,1,10,0:0:0:0:
40,258,12700,1,10,0:1:0:0:
291,174,12865,1,10,0:0:0:0:
127,382,13030,1,10,0:1:0:0:
127,382,13112,1,2,0:0:0:0:
127,382,13195,2,0,P|119:339|127:296,1,88.000002685547,10|2,0:0|0:0,0:0:0:0:
413,196,13524,6,0,L|326:180,1,88.000002685547,10|0,1:2|0:0,0:0:0:0:
66,135,13854,1,10,0:0:0:0:
233,339,14018,1,10,0:1:0:0:
278,79,14184,2,0,P|238:60|194:56,1,88.000002685547,10|8,0:0|0:1,0:0:0:0:
44,273,14513,2,0,P|83:291|127:295,1,88.000002685547,10|0,0:0|0:0,0:0:0:0:
447,202,14843,6,0,L|462:288,1,88.000002685547,10|0,1:2|0:0,0:0:0:0:
208,171,15173,1,10,0:0:0:0:
442,50,15338,1,10,0:1:0:0:
304,274,15502,1,10,0:0:0:0:
254,10,15667,1,10,0:1:0:0:
304,274,15832,2,0,P|289:315|261:348,1,88.000002685547,8|0,0:0|0:0,0:0:0:0:
10,300,16162,5,10,1:2:0:0:
218,209,16327,1,8,0:1:0:0:
218,209,16409,1,8,0:1:0:0:
218,209,16491,2,0,L|202:122,1,88.000002685547,10|0,1:2|0:0,0:0:0:0:
0,20,16821,1,10,0:1:0:0:
110,250,16986,2,0,L|102:205,1,44.0000013427735,8|8,0:0|0:0,0:0:0:0:
282,40,17151,1,10,1:2:0:0:
252,20,17233,1,8,0:0:0:0:
219,10,17315,1,8,0:0:0:0:
184,10,17398,1,8,0:0:0:0:
150,20,17480,6,0,P|115:47|93:84,1,88.000002685547,14|0,1:2|0:0,0:0:0:0:
274,280,17810,1,10,0:0:0:0:
10,300,17975,1,10,0:1:0:0:
202,122,18140,1,10,0:0:0:0:
132,371,18305,1,10,0:1:0:0:
132,371,18387,1,2,0:0:0:0:
132,371,18469,2,0,L|116:284,1,88.000002685547,10|2,0:0|0:0,0:0:0:0:
380,155,18799,6,0,P|336:146|293:154,1,88.000002685547,10|0,1:2|0:0,0:0:0:0:
510,291,19129,1,10,0:0:0:0:
464,31,19294,1,10,0:1:0:0:
337,260,19458,2,0,L|423:276,1,88.000002685547,10|8,0:0|0:1,0:0:0:0:
377,16,19788,2,0,L|290:0,1,88.000002685547,10|0,0:0|0:0,0:0:0:0:
69,169,20118,6,0,P|60:125|68:82,1,88.000002685547,10|0,1:2|0:0,0:0:0:0:
258,266,20447,1,10,0:0:0:0:
0,323,20612,1,10,0:1:0:0:
175,125,20777,1,10,0:0:0:0:
129,384,20942,1,10,0:1:0:0:
175,125,21107,2,0,L|190:38,1,88.000002685547,8|0,0:0|0:0,0:0:0:0:
447,223,21436,5,10,1:2:0:0:
266,273,21601,1,2,0:0:0:0:
266,273,21684,1,2,0:0:0:0:
266,273,21766,2,0,P|228:297|203:333,1,88.000002685547,10|0,1:2|0:0,0:0:0:0:
415,369,22096,1,10,1:2:0:0:
348,181,22261,1,10,0:0:0:0:
348,181,22343,1,8,0:0:0:0:
348,181,22425,1,10,0:1:0:0:
310,380,22590,1,10,0:1:0:0:
482,217,22755,6,0,L|468:138,1,80,14|0,0:1|3:0,0:0:0:0:
512,379,23085,1,8,3:2:0:0:
512,379,23414,2,0,P|473:386|434:379,1,80,8|8,3:1|0:1,0:0:0:0:
266,258,23744,1,8,3:2:0:0:
133,357,23909,1,0,3:0:0:0:
133,357,23991,1,8,3:1:0:0:
133,357,24074,6,0,L|119:278,1,80,8|0,0:1|3:0,0:0:0:0:
210,100,24403,2,0,L|196:178,1,80,8|0,3:2|3:0,0:0:0:0:
285,370,24733,1,8,3:1:0:0:
20,334,24898,1,8,3:2:0:0:
266,258,25063,1,10,3:2:0:0:
100,160,25228,1,2,3:2:0:0:
210,100,25392,6,0,P|261:111|313:121,1,71.9999978027344,14|0,0:1|0:0,0:0:0:0:
144,251,25722,2,0,P|94:262|42:272,1,71.9999978027344,8|0,0:1|0:0,0:0:0:0:
295,329,26052,2,0,P|346:340|398:350,1,71.9999978027344,8|0,0:1|0:0,0:0:0:0:
203,344,26381,1,10,0:1:0:0:
203,344,26546,1,2,0:0:0:0:
368,263,26711,6,0,P|378:212|389:162,1,71.9999978027344,10|0,0:1|0:0,0:0:0:0:
229,150,27041,2,0,P|219:201|208:251,1,71.9999978027344,8|0,0:1|0:0,0:0:0:0:
401,91,27370,2,0,P|380:14|375:-21,1,71.9999978027344,8|0,0:1|0:0,0:0:0:0:
235,19,27700,1,10,0:1:0:0:
235,19,27865,1,2,0:0:0:0:
108,132,28030,6,0,L|30:143,1,71.9999978027344,10|0,0:1|0:0,0:0:0:0:
146,270,28359,2,0,L|217:280,1,71.9999978027344,10|0,0:1|0:0,0:0:0:0:
94,117,28689,2,0,L|16:128,1,71.9999978027344,10|0,0:1|0:0,0:0:0:0:
132,285,29019,2,0,L|203:295,1,71.9999978027344,10|0,0:1|0:0,0:0:0:0:
320,173,29348,5,10,0:1:0:0:
371,338,29513,1,2,0:0:0:0:
371,338,29678,2,0,L|442:348,1,71.9999978027344,8|0,0:1|0:0,0:0:0:0:
421,90,30008,5,8,0:1:0:0:
370,255,30173,1,0,0:0:0:0:
370,255,30338,2,0,L|299:265,1,71.9999978027344,8|0,0:1|0:0,0:0:0:0:
334,9,30667,5,10,0:1:0:0:
371,172,30832,1,2,0:0:0:0:
436,20,30997,1,10,0:1:0:0:
294,104,31162,1,2,0:0:0:0:
459,120,31327,2,0,L|539:140,1,71.9999978027344,10|0,0:1|0:0,0:0:0:0:
463,246,31656,2,0,L|383:266,1,71.9999978027344,10|0,0:1|0:0,0:0:0:0:
315,203,31986,5,10,0:1:0:0:
231,345,32151,1,2,0:0:0:0:
150,201,32316,2,0,L|161:129,1,71.9999978027344,10|0,0:1|0:0,0:0:0:0:
41,192,32645,2,0,L|30:264,1,71.9999978027344,10|0,0:1|0:0,0:0:0:0:
168,192,32975,2,0,L|179:120,1,71.9999978027344,10|0,0:1|0:0,0:0:0:0:
71,30,33305,6,0,L|60:102,1,71.9999978027344,14|0,0:1|0:0,0:0:0:0:
143,277,33634,1,10,0:1:0:0:
268,138,33798,1,8,0:0:0:0:
70,204,33964,2,0,L|-22:188,1,71.9999978027344,2|8,0:0|0:1,0:0:0:0:
165,354,34294,2,0,L|235:341,1,71.9999978027344,10|0,0:0|0:0,0:0:0:0:
361,231,34623,5,10,0:1:0:0:
193,81,34788,1,0,0:0:0:0:
193,81,34870,1,8,0:0:0:0:
193,81,34953,1,8,0:0:0:0:
398,34,35118,2,0,L|456:20,2,35.9999989013672,10|0|10,3:1|3:0|0:1,0:0:0:0:
262,171,35447,5,8,0:0:0:0:
490,243,35612,1,10,0:0:0:0:
227,300,35777,1,10,0:1:0:0:
410,127,35942,6,0,P|445:109|485:106,1,80,14|0,0:1|0:0,0:0:0:0:
230,158,36272,2,0,P|196:136|174:102,1,80,8|0,0:0|0:0,0:0:0:0:
347,299,36601,2,0,P|344:338|326:374,1,80,8|0,0:1|0:0,0:0:0:0:
136,250,36931,1,10,0:0:0:0:
328,194,37096,1,2,0:0:0:0:
161,25,37261,6,0,L|174:103,1,80,10|0,0:1|0:0,0:0:0:0:
217,340,37590,2,0,L|230:261,1,80,8|0,0:0|0:0,0:0:0:0:
330,85,37920,1,8,0:1:0:0:
104,164,38085,1,8,0:0:0:0:
104,164,38250,2,0,P|65:172|26:164,1,80,10|0,0:0|0:0,0:0:0:0:
333,220,38579,6,0,L|346:298,1,80,10|0,0:1|0:0,0:0:0:0:
210,111,38909,2,0,L|223:32,1,80,10|0,0:0|0:0,0:0:0:0:
365,231,39239,2,0,L|378:309,1,80,10|0,0:1|0:0,0:0:0:0:
178,122,39568,2,0,L|191:43,1,80,10|0,0:0|0:0,0:0:0:0:
235,258,39898,5,10,0:1:0:0:
330,85,40063,1,2,0:0:0:0:
143,219,40228,2,0,P|135:258|143:297,1,80,10|0,0:0|0:0,0:0:0:0:
342,315,40557,1,10,0:1:0:0:
182,126,40722,1,8,0:0:0:0:
182,126,40887,2,0,P|143:118|104:126,1,80,10|0,0:0|0:0,0:0:0:0:
400,192,41217,6,0,L|478:178,1,80,10|0,0:1|0:0,0:0:0:0:
307,308,41546,2,0,L|228:294,1,80,10|0,0:0|0:0,0:0:0:0:
411,160,41876,2,0,L|489:147,1,80,10|0,0:1|0:0,0:0:0:0:
318,340,42206,2,0,L|239:326,1,80,10|0,0:0|0:0,0:0:0:0:
101,182,42535,5,10,0:1:0:0:
127,381,42700,1,2,0:0:0:0:
221,202,42865,1,10,0:0:0:0:
41,290,43030,1,2,0:0:0:0:
239,326,43195,1,10,0:1:0:0:
83,159,43359,1,8,0:0:0:0:
83,159,43524,2,0,P|75:120|83:81,1,80,10|0,0:0|0:0,0:0:0:0:
267,0,43854,6,0,L|345:13,1,80,14|0,0:1|0:0,0:0:0:0:
406,206,44184,2,0,L|327:192,1,80,10|0,0:0|0:0,0:0:0:0:
160,302,44513,1,10,0:1:0:0:
204,107,44678,1,8,0:1:0:0:
293,295,44843,2,0,P|301:334|293:373,1,80,10|0,0:0|0:0,0:0:0:0:
51,229,45173,5,10,0:0:0:0:
295,186,45338,1,8,0:1:0:0:
72,111,45502,1,8,0:1:0:0:
243,310,45667,5,10,3:2:0:0:
20,235,45832,1,10,0:1:0:0:
264,192,45997,1,8,0:1:0:0:
40,97,46162,5,8,3:2:0:0:
110,330,46327,1,8,0:1:0:0:
201,107,46491,6,0,P|194:154|184:202,1,71.9999978027344,14|0,0:1|0:0,0:0:0:0:
138,35,46821,2,0,P|95:11|54:-14,1,71.9999978027344,10|0,0:1|0:0,0:0:0:0:
235,22,47151,2,0,P|276:44|318:70,1,71.9999978027344,10|0,0:1|0:0,0:0:0:0:
106,130,47480,1,10,0:1:0:0:
214,256,47645,1,8,0:0:0:0:
214,256,47728,1,8,0:0:0:0:
214,256,47810,6,0,P|262:247|310:239,1,71.9999978027344,14|0,0:1|0:0,0:0:0:0:
142,193,48140,2,0,P|118:150|93:109,1,71.9999978027344,8|0,0:1|0:0,0:0:0:0:
129,290,48470,2,0,P|151:331|177:373,1,71.9999978027344,10|0,0:1|0:0,0:0:0:0:
284,243,48799,2,0,P|325:265|367:291,1,71.9999978027344,10|0,0:1|0:0,0:0:0:0:
370,102,49129,6,0,P|361:150|353:198,1,71.9999978027344,14|0,0:1|0:0,0:0:0:0:
169,30,49458,2,0,P|178:78|186:126,1,71.9999978027344,8|0,0:1|0:0,0:0:0:0:
347,89,49788,2,0,P|338:41|330:-7,1,71.9999978027344,10|0,0:1|0:0,0:0:0:0:
153,195,50118,2,0,P|158:160|165:125,1,71.9999978027344,10|0,0:1|0:0,0:0:0:0:
138,315,50447,6,0,B|226:320|190:281|288:285,1,143.999995605469,14|10,0:1|0:1,0:0:0:0:
353,374,50942,1,8,3:2:0:0:
452,209,51107,1,10,0:1:0:0:
337,183,51272,1,2,0:0:0:0:
463,328,51436,1,8,3:1:0:0:
463,328,51766,6,0,P|421:303|381:290,1,71.9999978027344,14|0,0:1|0:0,0:0:0:0:
325,201,52096,2,0,P|291:214|261:234,1,71.9999978027344,10|0,0:1|0:0,0:0:0:0:
218,333,52425,2,0,P|176:308|136:295,1,71.9999978027344,10|0,0:1|0:0,0:0:0:0:
80,178,52755,1,10,0:1:0:0:
0,320,52920,1,2,0:0:0:0:
0,320,53002,1,2,0:0:0:0:
0,320,53085,6,0,P|84:289|160:280,1,143.999995605469,14|8,0:1|0:1,0:0:0:0:
172,177,53579,1,0,0:0:0:0:
172,177,53744,2,0,P|214:192|252:196,1,71.9999978027344,10|0,0:1|0:0,0:0:0:0:
293,291,54074,2,0,P|335:275|373:271,1,71.9999978027344,10|0,0:1|0:0,0:0:0:0:
435,140,54403,6,0,P|450:182|454:220,1,71.9999978027344,14|0,0:1|0:0,0:0:0:0:
320,160,54733,1,10,0:1:0:0:
512,87,54898,1,8,0:0:0:0:
277,6,55063,1,2,0:0:0:0:
420,126,55228,1,8,0:1:0:0:
202,204,55392,1,10,0:0:0:0:
202,204,55722,6,0,L|195:296,1,71.9999978027344,14|8,0:1|0:0,0:0:0:0:
194,301,55969,1,8,0:0:0:0:
194,301,56052,1,10,0:1:0:0:
62,148,56217,1,8,0:0:0:0:
62,148,56299,1,8,0:0:0:0:
62,148,56381,1,10,0:1:0:0:
31,340,56546,1,10,0:0:0:0:
31,340,56628,1,8,0:0:0:0:
31,340,56710,1,10,0:1:0:0:
93,244,56876,1,8,0:0:0:0:
93,244,56958,1,8,0:0:0:0:
93,244,57041,6,0,B|129:207|177:228|177:228|211:305|282:282,1,223.999993164063,14|2,0:1|0:0,0:0:0:0:
282,282,58359,6,0,B|296:208|317:143|317:143|299:99|234:108,1,223.999993164063,2|2,0:0|0:0,0:0:0:0:
252,106,59678,6,0,L|137:118,1,111.999996582031,2|2,0:0|0:0,0:0:0:0:
344,218,60338,2,0,L|459:206,1,111.999996582031,2|2,0:0|0:0,0:0:0:0:
290,358,60997,5,10,0:3:0:0:
290,358,61821,5,0,0:0:0:0:
273,219,61986,1,0,0:0:0:0:
307,347,62151,1,0,0:0:0:0:
94,127,62316,6,0,P|84:80|94:33,1,95.9999970703126,10|0,0:3|0:0,0:0:0:0:
397,180,62645,1,10,0:0:0:0:
119,314,62810,1,10,0:1:0:0:
264,43,62975,1,10,0:0:0:0:
307,347,63140,1,10,0:1:0:0:
94,127,63305,1,10,0:0:0:0:
397,180,63469,1,2,0:0:0:0:
87,328,63634,6,0,L|181:310,1,95.9999970703126,10|0,1:2|0:0,0:0:0:0:
485,255,63964,1,8,0:0:0:0:
194,156,64129,1,10,0:1:0:0:
415,370,64294,1,10,0:0:0:0:
371,68,64458,1,10,0:1:0:0:
182,310,64623,1,10,0:0:0:0:
485,255,64788,1,2,0:0:0:0:
194,156,64953,6,0,P|172:113|169:65,1,95.9999970703126,10|0,1:2|0:0,0:0:0:0:
458,156,65283,1,10,0:0:0:0:
173,272,65447,1,8,0:1:0:0:
479,272,65612,1,10,0:0:0:0:
194,156,65777,1,8,0:1:0:0:
483,65,65942,2,0,P|479:112|458:155,1,95.9999970703126,8|0,0:0|0:0,0:0:0:0:
225,360,66272,5,10,1:2:0:0:
305,65,66436,1,10,0:1:0:0:
435,345,66601,1,10,0:0:0:0:
194,156,66766,1,2,0:0:0:0:
495,225,66931,1,8,0:1:0:0:
225,360,67096,2,0,L|177:351,1,47.9999985351563,10|8,1:2|0:0,0:0:0:0:
135,56,67261,1,10,1:2:0:0:
167,43,67343,1,8,0:0:0:0:
201,40,67425,1,8,0:0:0:0:
235,47,67508,1,8,0:0:0:0:
265,65,67590,6,0,L|359:48,1,95.9999970703126,14|0,1:2|0:0,0:0:0:0:
56,311,67920,1,10,0:0:0:0:
334,177,68085,1,10,0:1:0:0:
31,124,68250,1,8,0:0:0:0:
244,344,68414,1,10,0:1:0:0:
201,40,68579,1,10,0:0:0:0:
56,311,68744,1,2,0:0:0:0:
365,162,68909,6,0,P|412:152|459:162,1,95.9999970703126,10|0,1:2|0:0,0:0:0:0:
150,328,69239,1,8,0:0:0:0:
83,30,69403,1,10,0:1:0:0:
300,248,69568,1,10,0:0:0:0:
18,126,69733,1,10,0:1:0:0:
321,72,69898,1,10,0:0:0:0:
150,328,70063,1,2,0:0:0:0:
428,157,70228,5,10,1:2:0:0:
125,211,70392,1,2,0:0:0:0:
387,372,70557,1,10,0:0:0:0:
321,72,70722,1,8,0:1:0:0:
150,328,70887,1,10,0:0:0:0:
92,36,71052,1,8,0:1:0:0:
92,36,71134,1,0,0:0:0:0:
92,36,71217,2,0,L|75:130,1,95.9999970703126,8|0,0:0|0:0,0:0:0:0:
313,340,71546,6,0,L|296:246,1,95.9999970703126,10|0,1:2|0:0,0:0:0:0:
482,0,71876,1,10,0:0:0:0:
186,61,72041,1,10,0:0:0:0:
186,61,72123,1,8,0:0:0:0:
186,61,72206,1,8,0:1:0:0:
447,218,72370,1,10,0:0:0:0:
143,271,72535,2,0,P|95:268|52:246,1,95.9999970703126,8|8,0:0|0:1,0:0:0:0:
329,66,72865,5,14,1:2:0:0:
489,358,73030,1,8,0:0:0:0:
489,26,73195,5,10,0:1:0:0:
329,317,73359,1,10,0:0:0:0:
138,44,73524,5,10,0:1:0:0:
426,210,73689,1,10,0:0:0:0:
86,210,73854,5,10,0:1:0:0:
374,44,74019,1,10,0:0:0:0:
183,317,74184,5,10,0:1:0:0:
23,26,74348,1,8,0:0:0:0:
23,358,74513,5,10,0:1:0:0:
183,66,74678,1,10,0:0:0:0:
374,340,74843,5,10,0:1:0:0:
86,174,75008,1,10,0:0:0:0:
426,174,75173,5,10,0:1:0:0:
138,340,75338,1,10,0:0:0:0:
355,17,75502,5,10,0:1:0:0:
256,339,75666,1,8,0:0:0:0:
158,17,75832,5,10,0:1:0:0:
256,339,75996,1,8,0:0:0:0:
355,17,76162,5,10,0:1:0:0:
256,339,76326,1,8,0:0:0:0:
158,17,76492,5,10,0:1:0:0:
256,339,76656,1,8,0:0:0:0:
416,85,76821,6,0,L|364:94,1,51.999997619629,10|8,1:2|0:1,0:0:0:0:
96,140,76986,2,0,L|147:149,1,51.999997619629,10|8,0:1|0:1,0:0:0:0:
416,195,77151,2,0,L|364:204,1,51.999997619629,10|8,0:1|0:1,0:0:0:0:
96,250,77316,2,0,L|198:268,1,103.999995239258,10|8,0:0|0:1,0:0:0:0:
467,314,77645,1,10,0:0:0:0:
256,66,77810,1,10,0:0:0:0:
256,66,78140,5,14,1:2:0:0:
96,358,78305,1,10,0:0:0:0:
96,26,78469,5,10,0:1:0:0:
256,318,78634,1,10,0:0:0:0:
416,26,78799,5,8,0:1:0:0:
129,192,78964,1,10,0:0:0:0:
469,192,79129,5,10,0:1:0:0:
182,26,79294,1,10,0:0:0:0:
256,318,79458,5,10,0:1:0:0:
416,26,79623,1,10,0:0:0:0:
416,358,79787,5,10,0:1:0:0:
256,66,79952,1,10,0:0:0:0:
96,358,80118,5,8,0:1:0:0:
383,192,80283,1,10,0:0:0:0:
43,192,80448,5,10,0:1:0:0:
330,358,80613,1,10,0:0:0:0:
214,154,80777,5,10,0:1:0:0:
214,154,80942,1,8,0:1:0:0:
495,20,81107,2,0,P|507:70|495:120,1,103.999995239258,10|0,0:3|0:0,0:0:0:0:
359,344,81436,5,10,0:1:0:0:
359,344,81601,1,8,0:1:0:0:
78,210,81766,2,0,P|66:260|78:310,1,103.999995239258,10|0,0:3|0:0,0:0:0:0:
267,130,82096,6,0,L|370:111,1,103.999995239258,10|2,0:1|0:0,0:0:0:0:
262,340,82425,1,10,0:0:0:0:
173,81,82590,1,10,0:0:0:0:
438,218,82755,1,10,0:0:0:0:
131,274,82920,1,10,0:0:0:0:
472,212,83085,1,10,0:0:0:0:
157,50,83250,1,10,0:0:0:0:
157,50,83744,6,0,P|207:38|257:50,1,95.9999970703126,14|10,1:2|0:1,0:0:0:0:
341,338,84074,1,10,0:0:0:0:
102,110,84239,1,10,0:1:0:0:
365,201,84404,1,10,0:0:0:0:
74,255,84569,1,2,0:0:0:0:
333,27,84733,6,0,P|345:77|333:127,1,95.9999970703126,10|0,1:2|0:0,0:0:0:0:
173,314,85063,1,8,0:0:0:0:
261,77,85227,1,10,0:1:0:0:
455,298,85392,1,10,0:0:0:0:
149,215,85557,1,10,0:1:0:0:
447,95,85722,1,10,0:0:0:0:
301,331,85887,1,2,0:0:0:0:
141,104,86052,6,0,P|128:193|115:244,1,95.9999970703126,10|0,1:2|0:0,0:0:0:0:
390,351,86381,2,0,P|380:301|374:251,1,95.9999970703126,10|8,0:0|0:1,0:0:0:0:
429,38,86711,1,10,0:0:0:0:
278,258,86876,1,8,0:1:0:0:
199,35,87041,1,8,0:0:0:0:
433,196,87206,1,0,0:0:0:0:
187,344,87370,5,10,1:2:0:0:
337,88,87535,1,10,0:1:0:0:
296,372,87700,1,10,0:0:0:0:
98,160,87865,1,2,0:0:0:0:
420,216,88029,1,10,1:2:0:0:
120,298,88194,1,8,0:0:0:0:
120,298,88277,1,8,0:0:0:0:
120,298,88359,2,0,L|129:239,1,47.9999985351563,10|8,1:2|0:0,0:0:0:0:
324,129,88524,2,0,L|333:188,1,47.9999985351563,8|8,0:0|0:0,0:0:0:0:
333,361,88689,6,0,P|286:371|239:361,1,95.9999970703126,14|0,1:2|0:0,0:0:0:0:
28,134,89018,1,10,0:0:0:0:
331,176,89183,1,10,0:1:0:0:
48,328,89348,1,8,0:0:0:0:
195,44,89513,1,10,0:1:0:0:
247,345,89678,1,10,0:0:0:0:
28,134,89842,1,2,0:0:0:0:
334,167,90008,6,0,L|463:136,1,95.9999970703126,10|0,1:2|0:0,0:0:0:0:
190,59,90338,1,8,0:0:0:0:
258,338,90502,1,10,0:1:0:0:
383,60,90667,1,10,0:0:0:0:
106,157,90832,1,10,0:1:0:0:
357,292,90997,1,10,0:0:0:0:
214,57,91162,1,2,0:0:0:0:
48,266,91327,6,0,P|114:261|152:233,1,95.9999970703126,10|0,1:2|0:0,0:0:0:0:
311,25,91656,2,0,P|245:30|207:58,1,95.9999970703126,10|8,0:0|0:1,0:0:0:0:
283,286,91986,1,10,0:0:0:0:
455,105,92151,1,8,0:1:0:0:
455,105,92233,1,0,0:0:0:0:
455,105,92316,2,0,L|468:218,1,95.9999970703126,8|0,0:0|0:0,0:0:0:0:
296,382,92645,6,0,L|282:272,1,95.9999970703126,10|10,1:2|0:1,0:0:0:0:
247,150,92892,1,8,0:1:0:0:
247,150,92975,2,0,P|241:176|241:202,1,47.9999985351563,10|8,0:0|0:1,0:0:0:0:
368,273,93140,2,0,P|365:250|361:225,1,47.9999985351563,10|8,0:0|0:1,0:0:0:0:
293,34,93305,5,8,0:1:0:0:
293,34,93387,1,8,0:1:0:0:
293,34,93469,2,0,P|301:59|305:81,1,47.9999985351563,10|8,0:0|0:0,0:0:0:0:
252,243,93634,2,0,P|244:218|240:196,1,47.9999985351563,10|8,0:1|0:1,0:0:0:0:
145,83,93799,2,0,L|128:130,1,47.9999985351563,8|8,0:0|0:1,0:0:0:0:
27,274,93964,6,0,P|11:224|3:180,1,88.000002685547,14|0,1:2|0:0,0:0:0:0:
241,292,94294,1,10,0:0:0:0:
114,45,94459,1,10,0:1:0:0:
3,309,94624,1,10,0:0:0:0:
254,157,94789,1,10,0:1:0:0:
254,157,94870,1,2,0:0:0:0:
254,157,94953,1,10,0:0:0:0:
43,80,95118,1,2,0:0:0:0:
158,337,95283,6,0,P|150:294|158:251,1,88.000002685547,10|0,1:2|0:0,0:0:0:0:
255,54,95612,1,10,0:0:0:0:
11,184,95777,1,10,0:1:0:0:
258,300,95942,2,0,P|301:292|338:269,1,88.000002685547,10|8,0:0|0:1,0:0:0:0:
123,49,96272,2,0,P|79:56|42:79,1,88.000002685547,10|0,0:0|0:0,0:0:0:0:
146,365,96601,6,0,P|165:324|180:263,1,88.000002685547,10|0,1:2|0:0,0:0:0:0:
208,96,96931,1,10,0:0:0:0:
331,340,97096,1,10,0:1:0:0:
107,202,97260,1,10,0:0:0:0:
357,157,97425,1,10,0:1:0:0:
107,202,97590,2,0,P|66:187|33:159,1,88.000002685547,8|0,0:0|0:0,0:0:0:0:
216,12,97920,5,10,1:2:0:0:
269,202,98085,1,8,0:1:0:0:
269,202,98167,1,8,0:1:0:0:
269,202,98250,2,0,P|263:230|261:258,1,44.0000013427735,10|8,1:2|0:1,0:0:0:0:
114,109,98414,1,8,0:1:0:0:
114,109,98496,1,8,0:1:0:0:
114,109,98579,6,0,P|120:71|123:34,2,66.0000020141602,10|8|8,1:2|0:1|0:1,0:0:0:0:
107,202,98909,2,0,P|95:258|91:314,1,88.000002685547,10|0,1:2|0:0,0:0:0:0:
464,284,99239,6,0,P|480:234|488:190,1,88.000002685547,14|0,1:2|0:0,0:0:0:0:
246,74,99569,1,10,0:0:0:0:
373,321,99734,1,10,0:1:0:0:
484,57,99899,1,10,0:0:0:0:
233,209,100064,1,10,0:1:0:0:
233,209,100145,1,2,0:0:0:0:
233,209,100228,1,10,0:0:0:0:
444,286,100393,1,2,0:0:0:0:
329,29,100558,6,0,P|337:72|329:115,1,88.000002685547,10|0,1:2|0:0,0:0:0:0:
232,312,100887,1,10,0:0:0:0:
476,182,101052,1,10,0:1:0:0:
228,71,101217,2,0,P|185:79|148:102,1,88.000002685547,10|8,0:0|0:1,0:0:0:0:
364,317,101547,2,0,P|408:310|445:287,1,88.000002685547,10|0,0:0|0:0,0:0:0:0:
341,1,101876,6,0,P|321:41|306:102,1,88.000002685547,10|0,1:2|0:0,0:0:0:0:
279,270,102206,1,10,0:0:0:0:
156,26,102371,1,10,0:1:0:0:
380,164,102535,1,10,0:0:0:0:
130,209,102700,1,10,0:1:0:0:
380,164,102865,2,0,P|421:179|454:207,1,88.000002685547,8|0,0:0|0:0,0:0:0:0:
356,374,103195,6,0,L|248:347,2,58.6666684570313,10|8|8,1:2|0:1|0:0,0:0:0:0:
201,242,103524,2,0,L|228:134,2,58.6666684570313,10|8|8,3:2|3:2|3:2,0:0:0:0:
41,307,103854,1,10,3:1:0:0:
196,96,104019,1,2,0:0:0:0:
196,359,104184,1,10,3:1:0:0:
41,145,104348,1,2,0:0:0:0:
289,227,104513,6,0,B|288:160|170:140|218:56|281:-6|357:75|357:75|463:8|523:123|506:216|348:168|336:338,1,734.400017929688,14|10,1:2|0:3,0:0:0:0:
