osu file format v14

[General]
AudioFilename: audio.mp3
AudioLeadIn: 0
PreviewTime: 11915
Countdown: 1
SampleSet: Soft
StackLeniency: 0.7
Mode: 0
LetterboxInBreaks: 0
WidescreenStoryboard: 0

[Editor]
DistanceSpacing: 4.9
BeatDivisor: 3
GridSize: 4
TimelineZoom: 2.999999

[Metadata]
Title:Ima Suki ni Naru.
TitleUnicode:今好きになる。
Artist:HoneyWorks feat. sana
ArtistUnicode:HoneyWorks feat. sana
Creator:Sotarks
Version:Emotions
Source:今好きになる。ショートストーリー
Tags:ハニワ 鎖那 さな 好きになるその瞬間を。 Sono Shunkan wo. 告白実行委員会〜恋愛シリーズ〜 Kokuhaku Jikkou Iinkai Renai Series Confession Executive Committee Love 初音ミク Hatsune Miku ボーカロイド ボカロ Vocaloid ゴム Gom フェルナンドP Fernando-P シト shito チョリスP Chorisu-P オジ Oji 海賊王 Kaizoku Ou ケイキ japanese female vocals Kowari Reform Kujinn DeRandom Otaku Ren
BeatmapID:2152330
BeatmapSetID:1029312

[Difficulty]
HPDrainRate:6.2
CircleSize:4
OverallDifficulty:9
ApproachRate:9.2
SliderMultiplier:1.72
SliderTickRate:1

[Events]
//Background and Video events
0,0,"bg.jpg",0,0
//Break Periods
//Storyboard Layer 0 (Background)
//Storyboard Layer 1 (Fail)
//Storyboard Layer 2 (Pass)
//Storyboard Layer 3 (Foreground)
//Storyboard Layer 4 (Overlay)
//Storyboard Sound Samples

[TimingPoints]
710,352.941176470588,4,2,22,52,1,0
710,-138.888888888889,4,2,22,52,0,0
6357,-138.888888888889,4,2,22,62,0,0
8121,-121.951219512195,4,2,22,52,0,0
9180,-161.290322580645,4,2,22,42,0,0
12004,-312.5,4,2,22,52,0,0
13415,-108.695652173913,4,2,22,62,0,0
14298,-108.695652173913,4,2,22,72,0,0
14827,-98.0392156862745,4,2,22,72,0,0
28945,-121.951219512195,4,2,22,52,0,0
34592,-121.951219512195,4,2,22,42,0,0
37415,-121.951219512195,4,2,22,52,0,0
38827,-121.951219512195,4,2,22,62,0,0
40239,-108.695652173913,4,2,22,62,0,0
51533,-121.951219512195,4,2,22,52,0,0
57180,-108.695652173913,4,2,22,62,0,0
62915,-108.695652173913,4,2,22,52,0,0
65651,-108.695652173913,4,2,22,62,0,0
67062,-108.695652173913,4,2,22,72,0,0
68474,-89.2857142857143,4,2,22,82,0,0
89739,-89.2857142857143,4,2,22,52,0,0
92474,-89.2857142857143,4,2,22,62,0,0
93180,-89.2857142857143,4,2,22,72,0,0
105180,-833.333333333333,4,2,22,52,0,0
105268,-833.333333333333,4,2,22,5,0,0
106592,-454.545454545455,4,2,22,72,0,0
106680,-454.545454545455,4,2,22,12,0,0

[Colours]
Combo1 : 232,81,81
Combo2 : 255,115,62
Combo3 : 54,113,209
Combo4 : 159,64,159

[HitObjects]
99,123,710,6,0,P|109:177|112:203,1,61.9200015117188,2|0,1:2|0:0,0:0:0:0:
276,89,1062,2,0,P|266:143|263:169,1,61.9200015117188,2|0,1:2|0:0,0:0:0:0:
172,44,1415,2,0,P|182:98|185:124,1,61.9200015117188,2|0,1:2|0:0,0:0:0:0:
368,19,1768,2,0,P|358:73|355:99,1,61.9200015117188,2|0,1:2|0:0,0:0:0:0:
144,31,2121,6,0,P|160:103|169:168,1,123.840003023438,2|0,1:2|1:2,0:0:0:0:
141,241,2651,1,0,0:0:0:0:
207,361,2827,2,0,P|216:314|214:279,1,61.9200015117188,2|0,1:2|0:0,0:0:0:0:
118,254,3180,2,0,P|119:284|127:314,1,61.9200015117188,2|0,1:2|0:0,0:0:0:0:
215,200,3533,6,0,P|265:168|344:181,1,123.840003023438,2|2,1:2|1:2,0:0:0:0:
352,272,4062,1,0,0:0:0:0:
352,272,4239,2,0,P|302:304|223:291,1,123.840003023438,2|2,1:2|1:2,0:0:0:0:
137,251,4768,1,2,0:0:0:0:
137,251,4945,2,0,P|128:186|125:104,1,123.840003023438,0|0,1:2|1:2,0:0:0:0:
152,42,5474,1,0,0:0:0:0:
214,124,5651,2,0,P|257:134|295:135,1,61.9200015117188,2|0,1:2|0:0,0:0:0:0:
305,23,6004,2,0,P|274:26|244:34,1,61.9200015117188,2|0,1:2|0:0,0:0:0:0:
183,212,6357,5,6,1:2:0:0:
183,212,6709,1,0,1:2:0:0:
355,95,6886,1,8,1:2:0:0:
174,240,7062,1,2,1:2:0:0:
412,321,7239,1,8,1:2:0:0:
243,125,7415,1,2,1:2:0:0:
284,364,7592,1,8,1:2:0:0:
437,180,7768,5,2,1:2:0:0:
174,240,7945,1,0,1:2:0:0:
464,252,8121,2,0,P|410:200|365:204,1,105.780001614075,12|0,1:2|0:0,0:0:0:0:
317,267,8474,2,0,P|273:290|263:291,2,47.0133340506999,10|4|4,1:3|1:3|1:3,0:0:0:0:
237,216,8827,2,0,P|189:201|181:194,2,47.0133340506999,10|4|4,1:3|1:3|1:3,0:0:0:0:
208,117,9180,6,0,P|208:62|217:-6,2,106.639995769287,2|0|2,0:0|0:0|0:0,0:0:0:0:
37,230,10239,1,0,0:0:0:0:
37,230,10415,2,0,P|83:214|103:213,1,53.3199978846436,0|2,0:0|0:0,0:0:0:0:
161,267,10768,2,0,P|205:287|285:299,1,106.639995769287,0|0,0:0|0:0,0:0:0:0:
445,199,11298,1,8,1:2:0:0:
405,175,11415,1,8,0:0:0:0:
359,173,11533,1,8,0:0:0:0:
318,192,11650,1,8,1:2:0:0:
277,211,11768,1,8,0:0:0:0:
231,209,11886,1,8,0:0:0:0:
191,185,12004,6,0,P|254:156|364:150,1,165.12,0|0,0:0|0:0,0:0:0:0:
348,147,13415,5,0,1:2:0:0:
171,223,13592,1,8,1:2:0:0:
393,319,13768,1,0,1:2:0:0:
98,147,13945,1,8,1:2:0:0:
396,25,14121,1,0,1:2:0:0:
289,345,14298,5,8,1:2:0:0:
289,345,14386,1,0,1:2:0:0:
289,345,14474,2,0,L|282:292,1,39.5599986719971,8|0,1:2|0:0,0:0:0:0:
242,43,14651,1,8,1:2:0:0:
242,43,14739,1,8,1:2:0:0:
242,43,14827,6,0,P|236:94|232:160,1,87.7200005354004,6|2,1:2|0:0,0:0:0:0:
176,312,15180,2,0,P|123:292|84:286,1,87.7200005354004,10|0,0:0|0:0,0:0:0:0:
291,194,15533,2,0,P|344:174|383:168,1,87.7200005354004,2|0,1:2|0:0,0:0:0:0:
176,292,15886,2,0,P|123:272|84:266,1,87.7200005354004,10|0,0:0|0:0,0:0:0:0:
405,253,16239,2,0,P|449:206|454:159,1,87.7200005354004,2|0,1:2|0:0,0:0:0:0:
250,117,16592,2,0,P|206:164|201:211,1,87.7200005354004,10|0,0:0|0:0,0:0:0:0:
344,332,16945,1,2,1:2:0:0:
414,118,17121,1,2,0:0:0:0:
344,332,17298,2,0,P|291:352|252:358,1,87.7200005354004,10|0,0:0|0:0,0:0:0:0:
125,139,17651,5,2,1:2:0:0:
324,223,17827,1,2,0:0:0:0:
125,139,18004,2,0,P|114:204|113:243,1,87.7200005354004,10|0,0:0|0:0,0:0:0:0:
379,161,18357,2,0,P|321:136|275:137,1,87.7200005354004,2|0,1:2|0:0,0:0:0:0:
173,292,18709,2,0,P|115:317|69:316,1,87.7200005354004,10|0,0:0|0:0,0:0:0:0:
108,57,19062,2,0,P|151:63|189:83,1,87.7200005354004,2|0,1:2|0:0,0:0:0:0:
324,223,19415,2,0,P|367:216|405:196,1,87.7200005354004,10|0,0:0|0:0,0:0:0:0:
457,26,19768,1,2,1:2:0:0:
457,26,19857,1,8,0:0:0:0:
457,26,19945,1,2,1:2:0:0:
252,155,20121,1,10,0:0:0:0:
403,310,20298,1,2,0:0:0:0:
330,88,20474,5,2,1:2:0:0:
315,355,20651,1,2,0:0:0:0:
330,88,20827,2,0,P|269:69|233:68,1,87.7200005354004,10|0,0:0|0:0,0:0:0:0:
136,309,21180,2,0,P|114:258|115:208,1,87.7200005354004,2|0,1:2|0:0,0:0:0:0:
252,155,21533,2,0,P|274:206|273:256,1,87.7200005354004,10|0,0:0|0:0,0:0:0:0:
29,243,21886,2,0,P|33:199|52:160,1,87.7200005354004,2|0,1:2|0:0,0:0:0:0:
359,221,22239,2,0,P|354:264|335:303,1,87.7200005354004,10|0,0:0|0:0,0:0:0:0:
112,226,22592,1,2,1:2:0:0:
326,107,22768,1,2,0:0:0:0:
112,226,22945,2,0,P|53:208|8:203,1,87.7200005354004,10|0,0:0|0:0,0:0:0:0:
222,54,23298,5,2,1:2:0:0:
260,288,23474,1,2,0:0:0:0:
222,54,23651,2,0,P|281:36|326:31,1,87.7200005354004,10|0,0:0|0:0,0:0:0:0:
400,247,24004,2,0,P|316:225|299:201,1,87.7200005354004,2|0,1:2|0:0,0:0:0:0:
163,116,24357,2,0,P|79:138|62:162,1,87.7200005354004,10|0,0:0|0:0,0:0:0:0:
105,271,24709,2,0,P|189:249|206:225,1,87.7200005354004,2|0,1:2|0:0,0:0:0:0:
342,140,25062,2,0,P|426:162|443:186,1,87.7200005354004,10|0,0:0|0:0,0:0:0:0:
471,319,25415,1,10,1:3:0:0:
309,225,25592,1,10,0:0:0:0:
269,208,25680,1,8,0:0:0:0:
226,216,25768,1,10,0:3:0:0:
195,246,25856,1,8,0:3:0:0:
155,263,25945,1,6,0:3:0:0:
112,255,26033,1,4,0:3:0:0:
82,225,26121,5,6,1:2:0:0:
262,294,26298,1,0,1:2:0:0:
82,225,26474,2,0,P|76:305|73:328,1,87.7200005354004,8|8,0:0|1:3,0:0:0:0:
65,341,26739,1,8,1:3:0:0:
65,341,26827,1,2,1:2:0:0:
156,163,27004,1,0,1:2:0:0:
292,344,27180,2,0,P|287:300|285:256,1,87.7200005354004,8|8,0:0|1:3,0:0:0:0:
295,223,27445,1,8,1:3:0:0:
295,223,27533,1,2,1:2:0:0:
174,369,27709,1,0,1:2:0:0:
386,194,27886,1,10,0:0:0:0:
192,252,28062,1,0,1:0:0:0:
192,252,28151,1,0,1:0:0:0:
192,252,28239,1,14,0:0:0:0:
390,310,28415,6,0,L|441:325,1,43.8600002677002,8|8,0:0|0:0,0:0:0:0:
283,160,28592,2,0,L|274:98,1,43.8600002677002,10|8,0:0|0:0,0:0:0:0:
209,325,28768,2,0,L|158:340,1,43.8600002677002,8|8,0:0|0:0,0:0:0:0:
386,194,28945,6,0,L|397:25,1,141.0400021521,6|2,1:2|1:2,0:0:0:0:
290,62,29474,1,0,0:0:0:0:
290,62,29651,2,0,L|301:142,1,70.5200010760498,2|0,1:2|0:0,0:0:0:0:
200,105,30004,2,0,L|190:174,1,70.5200010760498,2|0,1:2|0:0,0:0:0:0:
104,67,30357,1,2,1:2:0:0:
104,67,30533,1,2,0:0:0:0:
185,208,30709,1,2,1:2:0:0:
185,208,30886,1,2,0:0:0:0:
76,161,31062,2,0,L|-2:150,1,70.5200010760498,2|0,1:2|0:0,0:0:0:0:
200,105,31415,2,0,L|278:94,1,70.5200010760498,2|0,1:2|0:0,0:0:0:0:
388,186,31768,6,0,P|402:234|409:276,1,70.5200010760498,2|0,1:2|0:0,0:0:0:0:
273,236,32121,2,0,P|259:284|252:326,1,70.5200010760498,2|0,1:2|0:0,0:0:0:0:
36,234,32474,2,0,P|22:282|15:324,1,70.5200010760498,2|0,1:2|0:0,0:0:0:0:
151,284,32827,2,0,P|165:332|172:374,1,70.5200010760498,2|0,1:2|0:0,0:0:0:0:
186,145,33180,2,0,P|225:93|322:95,1,141.0400021521,2|0,1:2|1:2,0:0:0:0:
374,177,33709,1,2,0:0:0:0:
374,177,33886,2,0,P|427:198|468:195,1,70.5200010760498,2|0,1:2|0:0,0:0:0:0:
464,100,34239,2,0,P|411:79|370:82,1,70.5200010760498,0|0,1:2|0:0,0:0:0:0:
274,167,34592,5,2,1:2:0:0:
220,351,36004,1,2,0:0:0:0:
146,60,37415,5,2,1:2:0:0:
210,216,37592,1,0,1:2:0:0:
278,17,37768,1,10,1:2:0:0:
134,229,37945,1,0,1:2:0:0:
292,46,38121,1,10,1:2:0:0:
382,293,38298,1,0,1:2:0:0:
178,138,38474,1,10,1:2:0:0:
111,384,38651,1,0,1:2:0:0:
291,200,38827,5,10,1:2:0:0:
58,246,39004,1,0,1:2:0:0:
357,332,39180,2,0,L|448:308,1,70.5200010760498,8|2,1:2|0:0,0:0:0:0:
307,64,39533,1,2,1:2:0:0:
270,358,39709,1,8,1:2:0:0:
220,86,39886,1,0,1:2:0:0:
188,72,39974,1,0,0:0:0:0:
153,74,40062,1,8,1:2:0:0:
123,92,40150,1,8,1:2:0:0:
106,123,40239,6,0,P|109:180|118:225,1,79.1199973439942,6|0,1:2|0:0,0:0:0:0:
307,64,40592,2,0,P|305:103|300:142,1,79.1199973439942,10|0,1:2|0:0,0:0:0:0:
459,76,40945,1,2,1:2:0:0:
502,204,41121,1,0,0:0:0:0:
331,146,41298,2,0,P|332:185|337:224,1,79.1199973439942,10|0,1:2|0:0,0:0:0:0:
186,104,41651,1,2,1:2:0:0:
186,104,41827,2,0,P|184:143|179:182,1,79.1199973439942,2|8,0:0|1:2,0:0:0:0:
257,298,42180,1,2,1:2:0:0:
257,298,42268,1,8,0:2:0:0:
257,298,42357,1,2,1:2:0:0:
97,202,42533,1,8,0:0:0:0:
336,259,42709,1,10,1:2:0:0:
336,259,43062,6,0,P|341:219|342:180,1,79.1199973439942,2|0,1:2|0:0,0:0:0:0:
173,312,43415,2,0,P|167:272|166:233,1,79.1199973439942,10|0,1:2|0:0,0:0:0:0:
0,237,43768,2,0,P|5:197|6:158,1,79.1199973439942,2|0,1:2|0:0,0:0:0:0:
172,40,44121,1,10,1:2:0:0:
172,40,44474,1,2,1:2:0:0:
223,124,44651,1,0,0:0:0:0:
137,164,44827,1,8,1:2:0:0:
270,53,45004,1,2,1:2:0:0:
270,53,45092,1,8,0:2:0:0:
270,53,45180,1,2,1:2:0:0:
329,243,45357,1,8,0:0:0:0:
92,81,45533,1,8,1:2:0:0:
92,81,45886,6,0,P|88:192|83:255,1,158.239994687988,6|8,1:2|1:2,0:0:0:0:
206,120,46415,1,2,0:0:0:0:
206,120,46592,2,0,P|210:192|214:226,1,79.1199973439942,2|0,1:2|0:0,0:0:0:0:
315,66,46945,1,8,1:2:0:0:
315,66,47298,6,0,B|412:40|363:118|494:83,1,158.239994687988,2|8,1:2|1:2,0:0:0:0:
337,152,47827,1,2,1:2:0:0:
337,152,47915,1,8,0:2:0:0:
337,152,48004,1,2,1:2:0:0:
441,4,48180,1,8,0:0:0:0:
384,237,48357,1,8,1:2:0:0:
384,237,48709,6,0,P|391:291|397:325,1,79.1199973439942,2|0,1:2|0:0,0:0:0:0:
255,194,49062,2,0,P|248:248|242:282,1,79.1199973439942,10|0,1:2|0:0,0:0:0:0:
437,169,49415,2,0,P|430:223|424:257,1,79.1199973439942,2|0,1:2|0:0,0:0:0:0:
205,150,49768,2,0,P|212:204|218:238,1,79.1199973439942,10|0,1:2|0:0,0:0:0:0:
412,79,50121,2,0,P|377:24|277:45,1,158.239994687988,2|8,1:2|1:2,0:0:0:0:
227,174,50651,1,2,0:0:0:0:
114,36,50827,1,6,1:2:0:0:
166,252,51004,1,8,0:0:0:0:
199,271,51092,1,8,0:0:0:0:
238,276,51180,1,0,1:2:0:0:
276,264,51268,1,8,0:2:0:0:
305,238,51356,1,8,0:2:0:0:
321,202,51445,1,8,0:2:0:0:
321,162,51533,6,0,P|275:144|225:146,1,70.5200010760498,6|0,1:2|0:0,0:0:0:0:
368,295,51886,1,2,1:2:0:0:
452,135,52062,1,8,0:3:0:0:
305,238,52239,1,2,1:2:0:0:
445,306,52415,1,4,0:3:0:0:
406,219,52592,1,2,1:2:0:0:
406,219,52945,5,10,1:2:0:0:
402,254,53033,1,8,0:0:0:0:
399,289,53121,1,8,0:0:0:0:
395,324,53209,1,8,0:0:0:0:
392,359,53297,1,0,1:2:0:0:
317,199,53474,1,10,0:0:0:0:
277,314,53651,1,2,1:2:0:0:
179,140,53827,1,10,0:0:0:0:
226,231,54004,1,0,1:2:0:0:
137,59,54180,1,8,0:0:0:0:
53,220,54357,5,14,1:2:0:0:
179,140,54533,2,0,L|224:149,2,35.2600005380249,8|8|2,0:3|0:3|1:2,0:0:0:0:
100,311,54886,1,12,0:0:0:0:
226,231,55062,2,0,L|271:240,2,35.2600005380249,0|8|4,1:2|0:3|0:3,0:0:0:0:
140,384,55415,1,12,1:2:0:0:
140,384,55768,5,0,1:2:0:0:
226,231,55945,1,8,0:0:0:0:
264,329,56121,1,2,1:2:0:0:
194,130,56298,1,8,0:0:0:0:
166,286,56474,1,2,1:2:0:0:
331,138,56651,1,8,0:0:0:0:
144,200,56827,1,10,1:2:0:0:
364,221,57004,1,8,0:0:0:0:
237,53,57180,5,2,1:2:0:0:
237,53,57357,1,0,1:2:0:0:
269,245,57533,2,0,P|273:191|281:149,1,79.1199973439942,10|8,0:0|1:3,0:0:0:0:
316,97,57798,1,8,1:3:0:0:
316,97,57886,2,0,P|360:113|398:118,1,79.1199973439942,2|0,1:2|1:2,0:0:0:0:
193,192,58239,2,0,P|149:208|111:213,1,79.1199973439942,10|0,0:0|0:0,0:0:0:0:
341,286,58592,1,2,1:2:0:0:
341,286,58768,1,0,1:2:0:0:
228,121,58945,2,0,P|224:175|216:217,1,79.1199973439942,8|10,0:0|1:3,0:0:0:0:
181,269,59210,1,8,1:3:0:0:
181,269,59298,2,0,P|137:253|99:248,1,79.1199973439942,2|2,1:2|1:2,0:0:0:0:
314,162,59651,1,8,0:0:0:0:
314,162,60004,6,0,P|320:111|328:70,1,79.1199973439942,2|0,1:2|1:2,0:0:0:0:
156,187,60357,2,0,P|150:136|142:95,1,79.1199973439942,10|8,0:0|1:3,0:0:0:0:
85,61,60621,1,8,1:3:0:0:
85,61,60709,2,0,P|129:33|161:28,1,79.1199973439942,2|0,1:2|1:2,0:0:0:0:
325,83,61062,2,0,P|369:111|401:116,1,79.1199973439942,10|0,0:0|0:0,0:0:0:0:
189,208,61415,1,2,1:2:0:0:
189,208,61592,1,0,1:2:0:0:
267,35,61768,1,8,0:0:0:0:
356,222,61945,2,0,B|356:220|372:222|399:213,2,26.3733324479981,2|0|0,1:2|1:0|1:0,0:0:0:0:
349,244,62121,2,0,P|356:283|361:323,1,79.1199973439942,10|0,1:2|1:2,0:0:0:0:
254,154,62474,1,8,0:0:0:0:
223,129,62562,1,8,0:0:0:0:
184,121,62650,1,8,0:0:0:0:
146,131,62738,1,8,0:0:0:0:
116,156,62826,5,4,1:2:0:0:
167,351,64062,1,0,1:2:0:0:
116,156,64239,1,2,1:2:0:0:
116,156,65651,5,6,1:2:0:0:
181,270,65827,1,0,0:0:0:0:
268,99,66004,1,0,1:2:0:0:
217,252,66180,1,8,1:2:0:0:
346,64,66357,1,2,1:2:0:0:
432,267,66533,1,8,1:2:0:0:
209,169,66709,1,0,1:2:0:0:
455,242,66886,1,8,1:2:0:0:
221,360,67062,5,2,1:2:0:0:
394,174,67239,1,0,1:2:0:0:
186,342,67415,1,0,1:2:0:0:
233,41,67592,1,14,1:2:0:0:
233,41,68474,6,0,P|238:106|251:191,1,144.480001763672,6|0,1:2|0:0,0:0:0:0:
273,267,68827,2,0,P|219:259|174:225,1,96.3200011757813,10|0,1:2|0:0,0:0:0:0:
49,24,69180,2,0,P|44:89|31:174,1,144.480001763672,2|0,1:2|0:0,0:0:0:0:
9,250,69533,2,0,P|63:242|108:208,1,96.3200011757813,10|0,1:2|0:0,0:0:0:0:
233,41,69886,2,0,B|370:34|272:97|432:91,1,192.640002351563,2|8,1:2|1:2,0:0:0:0:
256,128,70415,1,0,0:0:0:0:
433,15,70592,2,0,P|438:80|451:165,1,144.480001763672,2|0,1:2|0:0,0:0:0:0:
473,241,70945,2,0,P|419:233|374:199,1,96.3200011757813,10|0,1:2|0:0,0:0:0:0:
233,41,71298,6,0,B|96:34|194:97|34:91,1,192.640002351563,2|8,1:2|1:2,0:0:0:0:
256,128,71827,1,2,0:0:0:0:
82,226,72004,1,2,1:2:0:0:
149,111,72180,1,0,0:0:0:0:
278,297,72357,1,10,1:2:0:0:
176,218,72533,1,2,0:0:0:0:
283,54,72709,2,0,P|335:96|310:213,2,192.640002351563,2|8|2,1:2|1:2|1:2,0:0:0:0:
427,175,73592,1,2,1:2:0:0:
427,175,73680,1,8,0:0:0:0:
427,175,73768,1,10,1:2:0:0:
256,128,73945,1,8,0:0:0:0:
256,128,74033,1,8,0:0:0:0:
256,128,74121,6,0,P|189:149|151:151,1,96.3200011757813,2|0,1:2|0:0,0:0:0:0:
172,293,74474,2,0,P|124:286|79:269,1,96.3200011757813,10|0,1:2|0:0,0:0:0:0:
186,64,74827,1,2,1:2:0:0:
228,227,75004,1,2,0:0:0:0:
356,31,75180,1,10,1:2:0:0:
328,164,75357,1,2,0:0:0:0:
469,75,75533,2,0,P|473:166|481:277,2,192.640002351563,2|8|2,1:2|1:2|1:2,0:0:0:0:
324,244,76415,1,0,0:0:0:0:
445,165,76592,1,10,1:2:0:0:
305,90,76768,1,0,0:0:0:0:
399,266,76945,5,2,1:2:0:0:
225,299,77121,1,0,0:0:0:0:
346,168,77298,1,10,1:2:0:0:
171,131,77474,1,0,0:0:0:0:
324,244,77651,1,2,1:2:0:0:
283,56,77827,1,0,0:0:0:0:
143,205,78004,1,10,1:2:0:0:
355,137,78180,1,0,0:0:0:0:
148,50,78357,5,2,1:2:0:0:
235,262,78533,1,0,0:0:0:0:
377,31,78709,1,8,1:2:0:0:
173,174,78886,1,2,0:0:0:0:
404,306,79062,1,2,0:0:0:0:
446,284,79150,1,8,0:3:0:0:
472,245,79238,1,4,0:3:0:0:
476,197,79326,1,4,0:3:0:0:
455,154,79415,2,0,P|379:142|332:222,1,144.480001763672,10|8,0:0|0:0,0:0:0:0:
294,258,79768,6,0,B|191:268|249:221|125:230,1,144.480001763672,6|0,1:2|0:0,0:0:0:0:
94,284,80121,2,0,P|80:222|85:185,1,96.3200011757813,10|0,1:2|0:0,0:0:0:0:
170,39,80474,2,0,B|273:29|215:76|339:67,1,144.480001763672,2|0,1:2|0:0,0:0:0:0:
370,13,80827,2,0,P|384:75|379:112,1,96.3200011757813,10|0,1:2|0:0,0:0:0:0:
155,228,81180,2,0,P|204:138|280:152,1,192.640002351563,2|8,1:2|1:2,0:0:0:0:
371,292,81709,1,0,0:0:0:0:
479,116,81886,1,2,1:2:0:0:
359,173,82062,1,0,0:0:0:0:
445,327,82239,1,10,1:2:0:0:
377,141,82415,1,0,0:0:0:0:
306,335,82592,6,0,P|213:346|144:347,1,144.480001763672,2|0,1:2|0:0,0:0:0:0:
106,301,82945,2,0,P|179:320|208:322,1,96.3200011757813,10|0,1:2|0:0,0:0:0:0:
359,173,83298,2,0,P|272:207|205:226,1,144.480001763672,2|0,1:2|0:0,0:0:0:0:
157,191,83651,1,10,1:2:0:0:
372,258,83827,1,2,0:0:0:0:
163,110,84004,2,0,P|74:148|74:254,2,192.640002351563,2|8|2,1:2|1:2|1:2,0:0:0:0:
246,290,84886,1,8,0:0:0:0:
246,290,84974,1,8,0:0:0:0:
246,290,85062,1,10,1:2:0:0:
342,81,85239,1,8,0:0:0:0:
342,81,85327,1,8,0:0:0:0:
342,81,85415,6,0,P|348:172|354:277,1,192.640002351563,2|8,1:2|1:2,0:0:0:0:
262,121,85945,1,0,0:0:0:0:
436,183,86121,1,2,1:2:0:0:
246,290,86298,1,0,0:0:0:0:
456,210,86474,2,0,P|462:267|467:316,1,96.3200011757813,10|0,1:2|0:0,0:0:0:0:
220,192,86827,6,0,B|93:191|172:270|34:263,1,192.640002351563,2|8,1:2|1:2,0:0:0:0:
154,107,87357,1,0,0:0:0:0:
246,290,87533,1,2,1:2:0:0:
61,171,87709,1,0,0:0:0:0:
268,264,87886,2,0,P|325:250|371:225,1,96.3200011757813,10|0,1:2|0:0,0:0:0:0:
240,40,88239,1,2,1:2:0:0:
240,40,88415,1,0,1:2:0:0:
151,201,88592,2,0,P|94:187|48:162,1,96.3200011757813,14|0,1:2|0:0,0:0:0:0:
309,98,88945,2,0,P|320:164|323:199,2,64.2133341171875,10|4|4,0:3|0:3|0:3,0:0:0:0:
223,310,89298,2,0,P|227:278|233:246,2,64.2133341171875,10|4|4,0:3|0:3|0:3,0:0:0:0:
126,103,89651,5,6,1:2:0:0:
259,337,90886,1,8,0:0:0:0:
259,337,90974,1,8,0:0:0:0:
259,337,91062,1,2,1:2:0:0:
259,337,92474,5,0,1:2:0:0:
187,143,92651,1,8,1:2:0:0:
129,303,92827,1,0,1:2:0:0:
297,144,93004,1,8,1:2:0:0:
344,359,93180,1,0,1:2:0:0:
111,225,93357,1,8,1:2:0:0:
382,102,93533,1,0,1:2:0:0:
148,382,93709,1,8,1:2:0:0:
281,48,93886,6,0,P|291:110|300:164,1,96.3200011757813,6|2,1:2|0:0,0:0:0:0:
111,225,94239,2,0,P|118:177|126:129,1,96.3200011757813,10|0,0:0|0:0,0:0:0:0:
253,288,94592,2,0,P|305:312|347:310,1,96.3200011757813,2|0,1:2|0:0,0:0:0:0:
386,120,94945,2,0,P|338:120|295:142,1,96.3200011757813,10|0,0:0|0:0,0:0:0:0:
171,314,95298,1,2,1:2:0:0:
334,221,95474,1,0,0:0:0:0:
126,129,95651,1,10,0:0:0:0:
253,288,95827,1,0,0:0:0:0:
325,82,96004,1,2,1:2:0:0:
109,207,96180,1,2,0:0:0:0:
379,310,96357,2,0,P|412:243|411:188,1,96.3200011757813,10|0,0:0|0:0,0:0:0:0:
202,78,96709,5,2,1:2:0:0:
253,288,96886,1,2,0:0:0:0:
325,82,97062,2,0,P|385:57|435:60,1,96.3200011757813,10|0,0:0|0:0,0:0:0:0:
235,260,97415,2,0,P|187:255|144:234,1,96.3200011757813,2|0,1:2|0:0,0:0:0:0:
389,151,97768,2,0,P|411:214|407:259,1,96.3200011757813,10|0,0:0|0:0,0:0:0:0:
216,168,98121,1,2,1:2:0:0:
354,327,98298,1,0,0:0:0:0:
307,120,98474,1,10,0:0:0:0:
192,326,98651,1,0,1:2:0:0:
192,326,98739,1,8,0:2:0:0:
192,326,98827,1,2,1:2:0:0:
374,194,99004,1,8,0:2:0:0:
160,296,99180,1,10,0:0:0:0:
430,342,99357,1,2,0:0:0:0:
193,146,99533,6,0,P|123:128|81:136,1,96.3200011757813,2|2,1:2|0:0,0:0:0:0:
267,299,99886,2,0,P|314:299|359:283,1,96.3200011757813,10|0,0:0|0:0,0:0:0:0:
426,101,100239,1,2,1:2:0:0:
274,199,100415,1,0,0:0:0:0:
430,342,100592,2,0,P|445:260|437:228,1,96.3200011757813,10|0,0:0|0:0,0:0:0:0:
185,154,100945,2,0,P|183:201|198:247,1,96.3200011757813,2|0,1:2|0:0,0:0:0:0:
426,101,101298,2,0,P|427:53|412:7,1,96.3200011757813,10|0,0:0|0:0,0:0:0:0:
481,189,101651,1,2,1:2:0:0:
345,66,101827,1,2,0:0:0:0:
371,241,102004,2,0,P|428:234|477:201,1,96.3200011757813,10|0,0:0|0:0,0:0:0:0:
270,12,102357,6,0,P|257:88|259:135,1,96.3200011757813,2|0,1:2|0:0,0:0:0:0:
203,306,102709,2,0,P|200:257|189:211,1,96.3200011757813,10|0,0:2|0:0,0:0:0:0:
302,267,103062,1,2,1:2:0:0:
98,214,103239,1,0,3:0:0:0:
292,127,103415,2,0,P|302:173|305:221,1,96.3200011757813,10|0,0:2|0:0,0:0:0:0:
64,343,103768,2,0,P|66:294|77:248,1,96.3200011757813,2|0,1:2|0:0,0:0:0:0:
158,60,104121,1,12,0:0:0:0:
158,60,104474,1,2,1:2:0:0:
214,33,104591,1,8,0:0:0:0:
274,50,104709,1,8,0:0:0:0:
307,103,104826,1,0,1:2:0:0:
340,156,104945,1,8,0:0:0:0:
400,173,105063,1,8,0:0:0:0:
456,146,105180,6,0,L|448:67,1,77.4000018896485,2|0,0:0|0:0,0:0:0:0:
457,36,106592,6,0,B|396:-3|72:59|389:311|41:367|-7:340,1,605.440018476563,4|0,1:2|0:0,0:0:0:0:
