osu file format v14

[General]
AudioFilename: audio.mp3
AudioLeadIn: 0
PreviewTime: 68125
Countdown: 0
SampleSet: Soft
StackLeniency: 0.3
Mode: 0
LetterboxInBreaks: 0
WidescreenStoryboard: 0

[Editor]
Bookmarks: 714,6361,14831,28949,40243,51537,62831,68478,91066,93890,106596,112243
DistanceSpacing: 4.9
BeatDivisor: 4
GridSize: 4
TimelineZoom: 1.5

[Metadata]
Title:Ima Suki ni Naru.
TitleUnicode:今好きになる。
Artist:HoneyWorks feat. sana
ArtistUnicode:HoneyWorks feat. sana
Creator:Serizawa Haruki
Version:Yudragen's Insane
Source:今好きになる。ショートストーリー
Tags:ハニワ 鎖那 さな Short Story 好きになるその瞬間を。 Suki ni Naru Sono Shunkan o. 告白実行委員会〜恋愛シリーズ〜 Kokuhaku Jikkou Iinkai Renai Series Confession Executive Committee Love 初音ミク Hatsune Miku ボーカロイド ボカロ Vocaloid ゴム Gom フェルナンドP Fernando-P シト shito チョリスP Chorisu-P オジ Oji 海賊王 Kaizoku Ou ケイキ cake Jack J_a_c_k Shunao ShogunMoon Nikakis Elcheer Irohas MugiwaraSekai Yudragen ChaoticRed William K William_K Affirmation Neoskylove
BeatmapID:1759865
BeatmapSetID:828753

[Difficulty]
HPDrainRate:5.5
CircleSize:4
OverallDifficulty:8
ApproachRate:9
SliderMultiplier:1.8
SliderTickRate:1

[Events]
//Background and Video events
0,0,"bg.jpg",0,0
//Break Periods
//Storyboard Layer 0 (Background)
//Storyboard Layer 1 (Fail)
//Storyboard Layer 2 (Pass)
//Storyboard Layer 3 (Foreground)
//Storyboard Layer 4 (Overlay)
//Storyboard Sound Samples

[TimingPoints]
714,352.941176470588,4,2,1,40,1,0
714,-166.666666666667,4,2,1,40,0,0
6361,-100,4,2,1,60,0,0
6625,-100,4,2,1,5,0,0
6713,-100,4,2,1,60,0,0
9184,-100,4,2,1,40,0,0
10596,-166.666666666667,4,2,1,40,0,0
11302,-100,4,2,1,60,0,0
16155,-100,4,2,1,5,0,0
16243,-100,4,2,1,60,0,0
18978,-100,4,2,1,5,0,0
19066,-100,4,2,1,60,0,0
21802,-100,4,2,1,5,0,0
21890,-100,4,2,1,60,0,0
24625,-100,4,2,1,5,0,0
24713,-100,4,2,1,60,0,0
28949,-116.279069767442,4,2,1,50,0,0
34596,-116.279069767442,4,2,1,40,0,0
37419,-116.279069767442,4,2,1,60,0,0
40243,-105.263157894737,4,2,1,60,0,0
41213,-105.263157894737,4,2,1,5,0,0
41302,-105.263157894737,4,2,1,60,0,0
47213,-105.263157894737,4,2,1,5,0,0
47302,-105.263157894737,4,2,1,60,0,0
48625,-105.263157894737,4,2,1,5,0,0
48713,-105.263157894737,4,2,1,60,0,0
58508,-105.263157894737,4,2,1,5,0,0
58596,-105.263157894737,4,2,1,60,0,0
62831,-153.846153846154,4,2,1,40,0,0
65655,-100,4,2,1,60,0,0
65919,-100,4,2,1,5,0,0
66008,-100,4,2,1,60,0,0
68478,-80,4,2,1,75,0,1
69449,-80,4,2,1,5,0,1
69537,-80,4,2,1,75,0,1
72272,-80,4,2,1,5,0,1
72361,-80,4,2,1,75,0,1
83566,-80,4,2,1,5,0,1
83655,-80,4,2,1,75,0,1
91066,-80,4,2,1,75,0,0
92478,-80,4,2,1,75,0,1
93890,-100,4,2,1,60,0,0
95213,-100,4,2,1,5,0,0
95302,-100,4,2,1,60,0,0
96625,-100,4,2,1,5,0,0
96713,-100,4,2,1,60,0,0
104037,-100,4,2,1,5,0,0
104125,-100,4,2,1,60,0,0
104390,-100,4,2,1,5,0,0
104478,-100,4,2,1,60,0,0

[Colours]
Combo1 : 214,235,163
Combo2 : 250,128,90
Combo3 : 255,128,192
Combo4 : 185,125,251

[HitObjects]
202,58,714,6,0,P|156:35|89:30,1,107.999996704102,6|2,0:0|0:0,0:0:0:0:
197,157,1419,2,0,P|243:134|310:129,1,107.999996704102,2|2,0:0|0:0,0:0:0:0:
276,237,2125,1,2,0:0:0:0:
276,237,2478,1,2,0:0:0:0:
389,84,2831,6,0,P|398:137|388:190,1,107.999996704102,2|2,0:0|0:0,0:0:0:0:
275,343,3537,2,0,P|266:289|276:237,1,107.999996704102,2|2,0:0|0:0,0:0:0:0:
370,292,4243,1,2,0:0:0:0:
370,292,4596,2,0,P|418:281|438:279,1,53.9999983520508,2|0,0:0|0:0,0:0:0:0:
512,292,4949,5,2,0:0:0:0:
512,292,5302,1,2,0:0:0:0:
432,173,5655,2,0,P|420:286|415:300,1,107.999996704102,2|6,0:0|0:0,0:0:0:0:
156,234,6361,6,0,L|309:219,1,135,8|0,3:0|0:0,0:0:0:0:
312,205,6713,1,10,0:0:0:0:
240,113,6890,1,8,0:0:0:0:
323,181,7066,1,10,0:0:0:0:
251,89,7243,1,8,0:0:0:0:
334,157,7419,1,10,0:0:0:0:
262,65,7596,1,8,0:0:0:0:
382,43,7772,5,10,0:0:0:0:
334,157,7949,1,8,0:0:0:0:
262,65,8125,1,8,3:0:0:0:
262,65,8478,6,0,P|199:50|180:33,2,60,2|2|2,0:0|0:0|0:0,0:0:0:0:
157,137,8831,2,0,P|94:152|75:169,2,60,2|0|0,0:0|3:0|3:0,0:0:0:0:
236,184,9184,5,0,0:0:0:0:
236,184,9537,1,0,0:0:0:0:
236,184,9890,1,0,0:0:0:0:
236,184,10243,1,0,0:0:0:0:
213,273,10419,1,0,0:0:0:0:
302,249,10596,6,0,P|343:239|374:237,1,53.9999983520508
434,273,10949,2,0,P|475:283|506:285,1,53.9999983520508
487,128,11302,6,0,L|478:193,2,60,2|2|2,3:0|3:0|3:0,0:0:0:0:
419,65,11655,2,0,L|410:0,2,60,2|2|2,3:0|3:0|3:0,0:0:0:0:
419,65,13419,5,10,0:0:0:0:
351,162,13596,1,8,0:0:0:0:
332,52,13772,1,10,0:0:0:0:
441,149,13949,1,8,0:0:0:0:
282,215,14125,2,0,P|226:221|176:214,1,90,8|0,3:0|0:0,0:0:0:0:
134,168,14390,1,8,0:0:0:0:
134,168,14478,2,0,L|141:100,1,45,2|0,0:0|0:0,0:0:0:0:
206,16,14655,2,0,L|213:84,1,45,8|8,0:0|0:0,0:0:0:0:
272,175,14831,5,6,0:0:0:0:
332,42,15008,1,0,0:0:0:0:
440,180,15184,2,0,P|382:157|327:167,1,90,8|0,0:0|0:0,0:0:0:0:
509,271,15537,2,0,P|451:293|396:283,1,90,2|0,0:0|0:0,0:0:0:0:
322,231,15890,2,0,P|321:280|270:355,1,135,8|0,0:0|0:0,0:0:0:0:
244,340,16243,6,0,P|210:321|151:311,1,90,2|0,0:0|0:0,0:0:0:0:
30,248,16596,2,0,P|68:247|125:226,1,90,8|0,0:0|0:0,0:0:0:0:
203,117,16949,1,2,0:0:0:0:
48,148,17125,1,0,0:0:0:0:
232,238,17302,2,0,L|333:229,1,90,8|0,0:0|0:0,0:0:0:0:
185,149,17655,5,2,0:0:0:0:
345,96,17831,1,0,0:0:0:0:
174,29,18008,2,0,P|99:16|51:25,1,90,8|0,0:0|0:0,0:0:0:0:
337,76,18361,2,0,P|262:89|214:80,1,90,2|0,0:0|0:0,0:0:0:0:
418,182,18713,2,0,L|431:47,1,135,8|0,0:0|0:0,0:0:0:0:
448,16,19066,6,0,P|477:78|508:104,1,90,2|0,0:0|0:0,0:0:0:0:
354,259,19419,2,0,P|325:197|294:171,1,90,8|0,0:0|0:0,0:0:0:0:
287,338,19772,1,2,0:0:0:0:
287,338,19861,1,8,0:0:0:0:
287,338,19949,1,0,0:0:0:0:
195,172,20125,1,8,0:0:0:0:
149,297,20302,1,0,0:0:0:0:
65,130,20478,5,6,0:0:0:0:
136,269,20655,1,0,0:0:0:0:
222,157,20831,2,0,P|273:133|324:132,1,90,8|0,0:0|0:0,0:0:0:0:
385,283,21184,2,0,P|346:263|302:257,1,90,2|0,0:0|0:0,0:0:0:0:
173,374,21537,2,0,P|209:324|154:262,1,135,8|0,0:0|0:0,0:0:0:0:
136,269,21890,6,0,P|128:216|130:177,1,90,2|0,0:0|0:0,0:0:0:0:
35,384,22243,2,0,P|43:331|41:292,1,90,8|0,0:0|0:0,0:0:0:0:
0,162,22596,1,2,0:0:0:0:
55,277,22772,1,0,0:0:0:0:
217,166,22949,2,0,P|268:146|339:154,1,90,8|0,0:0|0:0,0:0:0:0:
179,265,23302,5,2,0:0:0:0:
352,307,23478,1,0,0:0:0:0:
139,384,23655,2,0,L|50:369,1,90,8|0,0:0|0:0,0:0:0:0:
192,283,24008,2,0,L|281:268,1,90,2|0,0:0|0:0,0:0:0:0:
436,202,24361,2,0,P|382:188|347:103,1,135,8|0,0:0|0:0,0:0:0:0:
370,95,24713,6,0,P|418:98|462:89,1,90,2|0,0:0|0:0,0:0:0:0:
207,19,25066,2,0,P|255:16|299:25,1,90,8|0,0:0|0:0,0:0:0:0:
134,92,25419,1,2,0:0:0:0:
297,179,25596,1,8,0:0:0:0:
297,179,25684,1,8,0:0:0:0:
297,179,25772,2,0,L|280:237,1,45,8|0,0:0|3:0,0:0:0:0:
246,335,25949,2,0,L|229:277,1,45,2|2,0:0|0:0,0:0:0:0:
193,176,26125,5,6,0:0:0:0:
193,176,26302,1,2,0:0:0:0:
146,303,26478,1,8,0:0:0:0:
59,147,26655,1,0,0:0:0:0:
59,147,26743,1,0,3:0:0:0:
59,147,26831,2,0,L|50:253,1,90,2|2,0:0|0:0,0:0:0:0:
122,51,27184,1,8,0:0:0:0:
205,164,27361,1,2,0:0:0:0:
205,164,27449,1,0,3:0:0:0:
205,164,27537,6,0,L|306:156,1,90,2|2,0:0|0:0,0:0:0:0:
441,190,27890,1,8,0:0:0:0:
291,269,28066,1,2,0:0:0:0:
397,354,28243,1,8,3:0:0:0:
395,340,28331,1,2,0:0:0:0:
392,327,28419,1,2,0:0:0:0:
390,312,28508,1,2,0:0:0:0:
387,296,28596,1,8,0:0:0:0:
363,333,28684,1,8,0:0:0:0:
325,358,28772,1,8,0:0:0:0:
281,364,28861,1,8,0:0:0:0:
238,350,28949,6,0,P|217:342|138:349,1,77.4000011810303,6|0,0:0|0:0,0:0:0:0:
90,287,29302,2,0,P|69:279|-10:286,1,77.4000011810303,2|0,0:0|0:0,0:0:0:0:
161,220,29655,2,0,P|182:212|261:219,1,77.4000011810303,2|0,0:0|0:0,0:0:0:0:
309,157,30008,2,0,P|330:149|409:156,1,77.4000011810303,2|0,0:0|0:0,0:0:0:0:
480,89,30361,6,0,L|464:202,1,77.4000011810303,2|0,0:0|0:0,0:0:0:0:
442,254,30713,2,0,L|458:367,1,77.4000011810303,2|0,0:0|0:0,0:0:0:0:
313,251,31066,2,0,L|297:138,1,77.4000011810303,2|0,0:0|0:0,0:0:0:0:
275,86,31419,2,0,L|291:-27,1,77.4000011810303,2|0,0:0|0:0,0:0:0:0:
133,119,31772,6,0,P|181:86|279:87,1,154.800002362061,2|2,0:0|0:0,0:0:0:0:
165,240,32478,2,0,P|117:207|19:208,1,154.800002362061,2|2,0:0|0:0,0:0:0:0:
151,369,33184,6,0,P|192:330|128:258,1,154.800002362061,2|2,0:0|0:0,0:0:0:0:
225,361,33713,1,0,0:0:0:0:
283,257,33890,2,0,P|301:219|298:174,1,77.4000011810303,2|0,0:0|0:0,0:0:0:0:
270,85,34243,1,6,0:0:0:0:
270,85,34419,1,0,0:0:0:0:
385,218,34596,5,2,0:0:0:0:
385,218,35125,1,0,0:0:0:0:
435,64,35302,1,0,0:0:0:0:
435,64,36008,5,0,0:0:0:0:
435,64,36537,1,0,0:0:0:0:
506,253,36713,1,0,0:0:0:0:
506,253,37419,5,10,0:0:0:0:
330,189,37596,1,8,0:0:0:0:
504,133,37772,5,10,0:0:0:0:
350,216,37949,1,8,0:0:0:0:
405,56,38125,5,10,0:0:0:0:
446,210,38302,1,8,0:0:0:0:
306,95,38478,5,10,0:0:0:0:
285,287,38655,1,8,0:0:0:0:
142,114,38831,5,2,3:0:0:0:
307,198,39008,1,8,0:0:0:0:
94,280,39184,6,0,L|-4:288,1,77.4000011810303,8|0,3:0|0:0,0:0:0:0:
155,204,39537,1,2,0:0:0:0:
0,166,39713,1,8,0:0:0:0:
191,89,39890,1,2,0:0:0:0:
195,96,39978,1,2,0:0:0:0:
199,103,40066,1,2,0:0:0:0:
204,110,40155,1,8,0:0:0:0:
208,120,40243,6,0,P|235:79|245:29,1,85.4999977169037,6|0,0:0|0:0,0:0:0:0:
340,216,40596,2,0,P|313:175|303:125,1,85.4999977169037,8|0,0:0|0:0,0:0:0:0:
512,148,40949,2,0,P|452:166|395:141,1,128.249996575356,2|0,0:0|0:0,0:0:0:0:
395,115,41302,2,0,L|408:24,1,85.4999977169037,8|0,0:0|0:0,0:0:0:0:
460,213,41655,5,2,0:0:0:0:
460,213,41831,1,0,0:0:0:0:
351,284,42008,2,0,P|287:293|236:290,1,85.4999977169037,8|0,0:0|0:0,0:0:0:0:
237,285,42272,1,8,0:0:0:0:
237,285,42361,1,2,0:0:0:0:
314,376,42537,1,8,0:0:0:0:
204,205,42713,2,0,L|215:89,1,85.4999977169037,8|0,0:0|0:0,0:0:0:0:
126,290,43066,6,0,P|93:233|56:217,1,85.4999977169037,2|0,0:0|0:0,0:0:0:0:
192,384,43419,2,0,P|225:327|262:311,1,85.4999977169037,8|0,0:0|0:0,0:0:0:0:
416,364,43772,2,0,P|352:380|314:366,1,85.4999977169037,2|0,0:0|0:0,0:0:0:0:
512,279,44125,2,0,P|448:262|410:276,1,85.4999977169037,8|0,0:0|0:0,0:0:0:0:
334,128,44478,6,0,P|341:221|323:301,1,170.999995433807,2|8,0:0|0:0,0:0:0:0:
242,190,45008,1,0,0:0:0:0:
242,190,45096,1,8,0:0:0:0:
242,190,45184,1,2,0:0:0:0:
154,345,45361,1,8,0:0:0:0:
348,288,45537,2,0,P|406:274|446:273,1,85.4999977169037,8|0,0:0|0:0,0:0:0:0:
242,190,45890,6,0,P|171:166|73:180,1,170.999995433807,2|8,0:0|0:0,0:0:0:0:
109,372,46419,1,0,0:0:0:0:
109,372,46596,2,0,P|146:312|152:262,1,85.4999977169037,2|0,0:0|0:0,0:0:0:0:
57,194,46949,2,0,P|33:132|78:50,1,128.249996575356,8|0,0:0|0:0,0:0:0:0:
85,64,47302,6,0,B|184:35|175:109|278:56,1,170.999995433807,2|8,0:0|0:0,0:0:0:0:
382,4,47831,1,0,0:0:0:0:
382,4,47919,1,8,0:0:0:0:
382,4,48008,2,0,P|373:63|382:101,1,85.4999977169037,2|8,0:0|0:0,0:0:0:0:
509,199,48361,2,0,P|460:169|385:173,1,128.249996575356,8|0,0:0|0:0,0:0:0:0:
376,192,48713,6,0,L|388:290,1,85.4999977169037,2|0,0:0|0:0,0:0:0:0:
275,345,49066,2,0,L|286:261,1,85.4999977169037,8|0,0:0|0:0,0:0:0:0:
171,182,49419,2,0,L|183:280,1,85.4999977169037,2|0,0:0|0:0,0:0:0:0:
70,335,49772,2,0,L|81:251,1,85.4999977169037,8|0,0:0|0:0,0:0:0:0:
0,132,50125,6,0,P|44:155|110:146,2,85.4999977169037,2|0|8,0:0|0:0|0:0,0:0:0:0:
124,50,50655,1,0,0:0:0:0:
185,226,50831,1,2,0:0:0:0:
351,78,51008,1,2,0:0:0:0:
321,48,51096,1,2,0:0:0:0:
280,44,51184,1,8,0:0:0:0:
245,68,51272,1,2,0:0:0:0:
235,108,51361,1,2,0:0:0:0:
254,146,51449,1,2,0:0:0:0:
292,162,51537,5,6,0:0:0:0:
292,162,51890,1,2,0:0:0:0:
270,276,52066,1,0,3:0:0:0:
384,204,52243,1,2,0:0:0:0:
405,326,52419,1,0,3:0:0:0:
492,169,52596,1,2,0:0:0:0:
292,162,52949,5,6,0:0:0:0:
249,165,53037,1,2,0:0:0:0:
207,168,53125,1,2,0:0:0:0:
164,171,53213,1,2,0:0:0:0:
122,174,53302,1,2,0:0:0:0:
65,284,53478,1,8,0:0:0:0:
24,144,53655,1,2,0:0:0:0:
158,262,53831,1,8,0:0:0:0:
192,90,54008,1,2,0:0:0:0:
252,246,54184,1,8,0:0:0:0:
88,58,54361,5,8,3:0:0:0:
321,120,54625,2,0,P|354:99|418:88,1,85.4999977169037,0|2,3:0|0:0,0:0:0:0:
430,92,54890,1,8,3:0:0:0:
429,304,55066,1,0,0:0:0:0:
429,304,55155,2,0,L|393:212,1,85.4999977169037,0|0,3:0|3:0,0:0:0:0:
399,193,55419,1,8,3:0:0:0:
399,193,55772,5,2,0:0:0:0:
509,248,55949,1,8,0:0:0:0:
328,320,56125,1,2,0:0:0:0:
510,375,56302,1,8,0:0:0:0:
304,226,56478,1,2,0:0:0:0:
260,380,56655,1,0,3:0:0:0:
215,173,56831,1,0,3:0:0:0:
229,294,57008,1,0,3:0:0:0:
304,133,57184,6,0,P|318:86|314:40,1,85.4999977169037,6|2,0:0|0:0,0:0:0:0:
374,200,57537,1,8,0:0:0:0:
222,78,57713,1,2,0:0:0:0:
222,78,57802,1,0,3:0:0:0:
222,78,57890,2,0,L|105:70,1,85.4999977169037,2|2,0:0|0:0,0:0:0:0:
11,15,58243,2,0,P|51:78|28:152,1,128.249996575356,8|0,0:0|0:0,0:0:0:0:
27,153,58596,5,2,0:0:0:0:
72,313,58772,1,2,0:0:0:0:
204,204,58949,2,0,P|145:189|100:205,1,85.4999977169037,8|2,0:0|0:0,0:0:0:0:
100,210,59213,1,0,3:0:0:0:
100,210,59302,1,2,0:0:0:0:
236,306,59478,1,2,0:0:0:0:
85,344,59655,2,0,L|-21:349,1,85.4999977169037,8|0,0:0|0:0,0:0:0:0:
204,204,60008,6,0,P|219:160|215:98,1,85.4999977169037,2|2,0:0|0:0,0:0:0:0:
324,264,60361,2,0,P|309:220|313:158,1,85.4999977169037,8|2,0:0|0:0,0:0:0:0:
320,152,60625,1,0,3:0:0:0:
320,152,60713,1,2,0:0:0:0:
418,249,60890,1,2,0:0:0:0:
446,99,61066,2,0,P|449:52|429:-6,1,85.4999977169037,8|0,0:0|0:0,0:0:0:0:
402,172,61419,5,2,0:0:0:0:
335,37,61596,1,2,0:0:0:0:
217,213,61772,1,8,0:0:0:0:
328,130,61949,1,2,0:0:0:0:
128,61,62125,1,6,0:0:0:0:
137,242,62302,1,2,0:0:0:0:
140,255,62390,1,2,0:0:0:0:
141,265,62478,1,8,0:0:0:0:
174,291,62566,1,8,0:0:0:0:
214,302,62655,1,8,0:0:0:0:
256,296,62743,1,8,0:0:0:0:
292,273,62831,6,0,L|300:134,3,116.999994644165,6|0|0|0,0:0|0:0|0:0|0:0,0:0:0:0:
354,78,64066,1,0,3:0:0:0:
435,280,64243,1,2,0:0:0:0:
186,140,64949,6,0,P|243:135|297:156,1,116.999994644165
219,384,65655,6,0,L|219:226,1,135,8|0,3:0|0:0,0:0:0:0:
230,217,66008,1,10,0:0:0:0:
309,338,66184,1,8,0:0:0:0:
343,179,66361,1,10,0:0:0:0:
225,301,66537,1,8,0:0:0:0:
258,118,66713,1,10,0:0:0:0:
371,275,66890,1,8,0:0:0:0:
340,85,67066,5,10,0:0:0:0:
234,285,67243,1,8,0:0:0:0:
170,67,67419,1,10,0:0:0:0:
395,301,67596,1,8,0:0:0:0:
450,222,67772,1,0,0:0:0:0:
468,111,68478,6,0,L|446:254,1,112.5,8|0,3:0|0:0,0:0:0:0:
311,18,68831,2,0,L|328:129,1,112.5,8|0,0:0|0:0,0:0:0:0:
294,287,69184,2,0,P|248:217|139:229,1,168.75,2|0,0:0|0:0,0:0:0:0:
149,223,69537,1,8,0:0:0:0:
304,155,69713,1,0,0:0:0:0:
88,88,69890,5,2,0:0:0:0:
88,88,70066,1,0,0:0:0:0:
19,210,70243,2,0,P|2:257|4:332,1,112.5,8|0,0:0|0:0,0:0:0:0:
227,306,70596,2,0,L|92:279,1,112.5,2|0,0:0|0:0,0:0:0:0:
37,186,70949,1,8,0:0:0:0:
230,176,71125,1,0,0:0:0:0:
42,67,71302,5,2,0:0:0:0:
137,209,71478,1,0,0:0:0:0:
276,93,71655,2,0,P|323:76|398:78,1,112.5,8|0,0:0|0:0,0:0:0:0:
411,314,72008,2,0,P|353:280|369:171,1,168.75,2|0,0:0|0:0,0:0:0:0:
375,171,72361,1,8,0:0:0:0:
330,294,72537,1,0,0:0:0:0:
330,294,72625,1,0,0:0:0:0:
330,294,72713,6,0,P|257:271|218:275,1,112.5,2|0,0:0|0:0,0:0:0:0:
512,336,73066,2,0,P|439:359|400:355,1,112.5,8|0,0:0|0:0,0:0:0:0:
512,229,73419,1,2,0:0:0:0:
320,153,73596,1,2,0:0:0:0:
320,153,73684,1,8,0:0:0:0:
320,153,73772,1,2,0:0:0:0:
485,49,73949,1,8,0:0:0:0:
485,49,74037,1,8,0:0:0:0:
485,49,74125,6,0,P|433:37|367:39,1,112.5,6|0,0:0|0:0,0:0:0:0:
209,164,74478,2,0,P|261:152|327:154,1,112.5,8|0,0:0|0:0,0:0:0:0:
467,207,74831,1,2,0:0:0:0:
266,253,75008,1,0,0:0:0:0:
484,324,75184,1,8,0:0:0:0:
353,177,75361,1,0,0:0:0:0:
217,348,75537,6,0,P|164:270|173:219,1,112.5,2|0,0:0|0:0,0:0:0:0:
176,101,75890,1,8,0:0:0:0:
176,101,76066,1,0,0:0:0:0:
265,252,76243,2,0,L|377:266,1,112.5,2|0,0:0|0:0,0:0:0:0:
496,157,76596,2,0,L|384:170,1,112.5,8|0,0:0|0:0,0:0:0:0:
263,33,76949,6,0,P|281:106|276:148,1,112.5,2|0,0:0|0:0,0:0:0:0:
88,168,77302,2,0,P|142:115|181:99,1,112.5,8|0,0:0|0:0,0:0:0:0:
298,248,77655,2,0,P|225:227|191:201,1,112.5,2|0,0:0|0:0,0:0:0:0:
263,33,78008,1,8,0:0:0:0:
263,33,78184,1,0,0:0:0:0:
312,269,78361,6,0,L|316:400,1,112.5,2|0,0:0|0:0,0:0:0:0:
394,194,78713,1,8,0:0:0:0:
394,194,78890,1,0,0:0:0:0:
219,335,79066,1,8,0:0:0:0:
178,336,79155,1,0,3:0:0:0:
138,337,79243,1,2,0:0:0:0:
97,339,79331,1,2,0:0:0:0:
57,340,79419,1,8,0:0:0:0:
19,155,79596,1,2,0:0:0:0:
19,155,79684,1,8,0:0:0:0:
19,155,79772,6,0,P|42:222|29:270,1,112.5,6|0,0:0|0:0,0:0:0:0:
140,23,80125,2,0,P|117:90|130:138,1,112.5,8|0,0:0|0:0,0:0:0:0:
331,102,80478,2,0,L|191:84,1,112.5,2|0,0:0|0:0,0:0:0:0:
435,186,80831,2,0,L|295:204,1,112.5,8|0,0:0|0:0,0:0:0:0:
507,106,81184,5,2,0:0:0:0:
507,106,81361,1,0,0:0:0:0:
468,272,81537,2,0,P|460:355|482:414,1,112.5,8|0,0:0|0:0,0:0:0:0:
266,355,81890,2,0,P|311:318|367:305,1,112.5,2|0,0:0|0:0,0:0:0:0:
109,211,82243,2,0,P|154:248|210:261,1,112.5,8|0,0:0|0:0,0:0:0:0:
212,43,82596,6,0,L|197:174,1,112.5,2|0,0:0|0:0,0:0:0:0:
319,0,82949,2,0,L|334:131,1,112.5,8|0,0:0|0:0,0:0:0:0:
467,227,83302,2,0,P|411:197|321:240,1,168.75,2|0,0:0|0:0,0:0:0:0:
314,260,83655,1,8,0:0:0:0:
421,152,83831,1,0,0:0:0:0:
421,152,83919,1,0,0:0:0:0:
421,152,84008,6,0,L|442:31,1,112.5,2|0,0:0|0:0,0:0:0:0:
314,260,84361,2,0,L|293:139,1,112.5,8|0,0:0|0:0,0:0:0:0:
250,361,84713,1,2,0:0:0:0:
61,256,84890,1,8,0:0:0:0:
75,234,84978,1,8,0:0:0:0:
94,217,85066,1,2,0:0:0:0:
117,206,85155,1,2,0:0:0:0:
143,201,85243,1,8,0:0:0:0:
168,204,85331,1,8,0:0:0:0:
193,215,85419,6,0,P|210:174|196:92,1,112.5,6|0,0:0|0:0,0:0:0:0:
139,6,85772,1,8,0:0:0:0:
98,168,85949,1,0,0:0:0:0:
288,82,86125,2,0,L|407:68,1,112.5,2|0,0:0|0:0,0:0:0:0:
304,228,86478,2,0,L|185:214,1,112.5,8|0,0:0|0:0,0:0:0:0:
394,170,86831,5,2,0:0:0:0:
394,170,87008,1,0,0:0:0:0:
203,107,87184,2,0,P|161:91|79:108,1,112.5,8|0,0:0|0:0,0:0:0:0:
104,298,87537,2,0,P|140:221|138:173,1,112.5,2|0,0:0|0:0,0:0:0:0:
269,384,87890,2,0,P|233:307|235:259,1,112.5,8|0,0:0|0:0,0:0:0:0:
278,109,88243,5,2,0:0:0:0:
346,299,88419,1,2,0:0:0:0:
430,61,88596,1,8,3:0:0:0:
430,61,88949,6,0,L|421:143,2,75,2|2|2,0:0|0:0|0:0,0:0:0:0:
496,188,89302,2,0,L|505:270,2,75,0|0|0,3:0|3:0|3:0,0:0:0:0:
429,303,89655,5,6,0:0:0:0:
429,303,90361,5,0,0:0:0:0:
383,384,90537,1,0,0:0:0:0:
335,303,90713,1,0,0:0:0:0:
287,384,90890,1,8,0:0:0:0:
287,384,90978,1,8,0:0:0:0:
287,384,91066,1,2,0:0:0:0:
290,341,92478,5,10,0:0:0:0:
365,173,92655,1,8,0:0:0:0:
453,361,92831,5,10,0:0:0:0:
271,245,93008,1,8,0:0:0:0:
489,181,93184,5,10,0:0:0:0:
361,375,93361,1,8,0:0:0:0:
274,155,93537,5,10,0:0:0:0:
489,313,93713,1,8,0:0:0:0:
200,305,93890,5,6,0:0:0:0:
358,256,94066,1,0,0:0:0:0:
182,200,94243,2,0,P|128:190|64:198,1,90,8|0,0:0|0:0,0:0:0:0:
340,117,94596,2,0,P|286:127|222:119,1,90,2|0,0:0|0:0,0:0:0:0:
442,174,94949,2,0,P|435:107|454:43,1,135,8|0,0:0|0:0,0:0:0:0:
480,19,95302,6,0,L|496:123,1,90,2|0,0:0|0:0,0:0:0:0:
410,289,95655,2,0,L|426:185,1,90,8|0,0:0|0:0,0:0:0:0:
473,366,96008,1,2,0:0:0:0:
509,200,96184,1,0,0:0:0:0:
336,349,96361,2,0,P|285:328|194:329,1,135,8|0,0:0|0:0,0:0:0:0:
187,334,96713,5,2,0:0:0:0:
315,289,96890,1,0,0:0:0:0:
150,226,97066,2,0,L|40:233,1,90,8|0,0:0|0:0,0:0:0:0:
3,111,97419,1,2,0:0:0:0:
3,111,97508,1,0,0:0:0:0:
3,111,97596,1,0,0:0:0:0:
168,49,97772,2,0,P|181:99|167:153,1,90,8|0,0:0|0:0,0:0:0:0:
367,77,98125,6,0,L|237:55,1,90,2|0,0:0|0:0,0:0:0:0:
396,166,98478,2,0,L|526:144,1,90,8|0,0:0|0:0,0:0:0:0:
508,165,98743,1,8,0:0:0:0:
508,165,98831,1,2,0:0:0:0:
428,343,99008,1,8,0:0:0:0:
396,166,99184,1,2,0:0:0:0:
506,315,99361,1,8,0:0:0:0:
303,214,99537,5,6,0:0:0:0:
270,348,99713,1,0,0:0:0:0:
137,200,99890,2,0,P|186:174|258:185,1,90,8|0,0:0|0:0,0:0:0:0:
29,269,100243,2,0,P|78:295|150:284,1,90,2|0,0:0|0:0,0:0:0:0:
271,240,100596,1,8,0:0:0:0:
97,201,100772,1,0,0:0:0:0:
283,98,100949,6,0,L|379:86,1,90,2|0,0:0|0:0,0:0:0:0:
213,23,101302,2,0,L|117:11,1,90,8|0,0:0|0:0,0:0:0:0:
10,100,101655,1,2,0:0:0:0:
10,100,101743,1,2,0:0:0:0:
10,100,101831,1,0,0:0:0:0:
177,209,102008,2,0,P|199:169|203:116,1,90,8|0,0:0|0:0,0:0:0:0:
255,281,102361,5,2,0:0:0:0:
313,156,102537,1,0,0:0:0:0:
384,346,102713,1,8,0:0:0:0:
480,235,102890,1,0,0:0:0:0:
480,235,102978,1,0,0:0:0:0:
480,235,103066,1,2,0:0:0:0:
277,276,103243,1,0,0:0:0:0:
419,135,103419,1,8,0:0:0:0:
419,135,103772,6,0,P|440:80|386:2,1,135,2|0,0:0|0:0,0:0:0:0:
379,27,104125,2,0,B|308:50|313:2|216:48,1,135,8|0,3:0|0:0,0:0:0:0:
224,53,104478,2,0,P|195:44|163:40,2,60,2|2|2,0:0|0:0|0:0,0:0:0:0:
277,136,104831,2,0,P|306:131|335:123,2,60,2|2|2,0:0|0:0|0:0,0:0:0:0:
223,214,105184,5,0,0:0:0:0:
93,146,106596,5,8,3:0:0:0:
