osu file format v14

[General]
AudioFilename: audio.mp3
AudioLeadIn: 0
PreviewTime: 68125
Countdown: 0
SampleSet: Soft
StackLeniency: 0.5
Mode: 0
LetterboxInBreaks: 0
WidescreenStoryboard: 0

[Editor]
Bookmarks: 714,6361,14831,28949,40243,51537,62831,68478,91066,93890,106596,112243
DistanceSpacing: 4.9
BeatDivisor: 4
GridSize: 16
TimelineZoom: 1.5

[Metadata]
Title:Ima Suki ni Naru.
TitleUnicode:今好きになる。
Artist:HoneyWorks feat. sana
ArtistUnicode:HoneyWorks feat. sana
Creator:Serizawa Haruki
Version:Will's Extra
Source:今好きになる。ショートストーリー
Tags:ハニワ 鎖那 さな Short Story 好きになるその瞬間を。 Suki ni Naru Sono Shunkan o. 告白実行委員会〜恋愛シリーズ〜 Kokuhaku Jikkou Iinkai Renai Series Confession Executive Committee Love 初音ミク Hatsune Miku ボーカロイド ボカロ Vocaloid ゴム Gom フェルナンドP Fernando-P シト shito チョリスP Chorisu-P オジ Oji 海賊王 Kaizoku Ou ケイキ cake Jack J_a_c_k Shunao ShogunMoon Nikakis Elcheer Irohas MugiwaraSekai Yudragen ChaoticRed William K William_K Affirmation Neoskylove
BeatmapID:1749073
BeatmapSetID:828753

[Difficulty]
HPDrainRate:6
CircleSize:4
OverallDifficulty:8.5
ApproachRate:9
SliderMultiplier:1.8
SliderTickRate:1

[Events]
//Background and Video events
0,0,"bg.jpg",0,0
//Break Periods
//Storyboard Layer 0 (Background)
//Storyboard Layer 1 (Fail)
//Storyboard Layer 2 (Pass)
//Storyboard Layer 3 (Foreground)
//Storyboard Layer 4 (Overlay)
//Storyboard Sound Samples

[TimingPoints]
714,352.941176470588,4,2,1,40,1,0
714,-125,4,2,1,40,0,0
6361,-90.9090909090909,4,2,1,60,0,0
6625,-90.9090909090909,4,2,1,5,0,0
6713,-90.9090909090909,4,2,1,60,0,0
8390,-90.9090909090909,4,2,1,5,0,0
8478,-90.9090909090909,4,2,1,60,0,0
9184,-90.9090909090909,4,2,1,40,0,0
11302,-90.9090909090909,4,2,1,60,0,0
12008,-90.9090909090909,4,2,1,40,0,0
13243,-90.9090909090909,4,2,1,5,0,0
13419,-90.9090909090909,4,2,1,60,0,0
14831,-100,4,2,1,60,0,0
16508,-100,4,2,1,5,0,0
16596,-100,4,2,1,60,0,0
19331,-100,4,2,1,5,0,0
19419,-100,4,2,1,60,0,0
22155,-100,4,2,1,5,0,0
22243,-100,4,2,1,60,0,0
24978,-100,4,2,1,5,0,0
25066,-100,4,2,1,60,0,0
28949,-111.111111111111,4,2,1,50,0,0
34508,-111.111111111111,4,2,1,5,0,0
34596,-111.111111111111,4,2,1,40,0,0
37419,-111.111111111111,4,2,1,60,0,0
39184,-100,4,2,1,60,0,0
39449,-100,4,2,1,5,0,0
39537,-100,4,2,1,60,0,0
40508,-100,4,2,1,5,0,0
40596,-100,4,2,1,60,0,0
42978,-100,4,2,1,5,0,0
43066,-100,4,2,1,60,0,0
44743,-100,4,2,1,5,0,0
44831,-100,4,2,1,60,0,0
47213,-100,4,2,1,5,0,0
47302,-100,4,2,1,60,0,0
50390,-100,4,2,1,5,0,0
50478,-100,4,2,1,60,0,0
51537,-111.111111111111,4,2,1,60,0,0
52861,-111.111111111111,4,2,1,5,0,0
52949,-111.111111111111,4,2,1,60,0,0
57184,-100,4,2,1,60,0,0
62831,-100,4,2,1,40,0,0
65655,-100,4,2,1,60,0,0
68478,-83.3333333333333,4,2,1,75,0,1
71566,-83.3333333333333,4,2,1,5,0,1
71655,-83.3333333333333,4,2,1,75,0,1
72978,-83.3333333333333,4,2,1,5,0,1
73066,-83.3333333333333,4,2,1,75,0,1
74390,-83.3333333333333,4,2,1,5,0,1
74478,-83.3333333333333,4,2,1,75,0,1
75802,-83.3333333333333,4,2,1,5,0,1
75890,-83.3333333333333,4,2,1,75,0,1
82861,-83.3333333333333,4,2,1,5,0,1
82949,-83.3333333333333,4,2,1,75,0,1
91066,-83.3333333333333,4,2,1,75,0,0
93890,-100,4,2,1,60,0,0
95566,-100,4,2,1,5,0,0
95655,-100,4,2,1,60,0,0
96272,-100,4,2,1,5,0,0
96361,-100,4,2,1,60,0,0
98390,-100,4,2,1,5,0,0
98478,-100,4,2,1,60,0,0
101213,-100,4,2,1,5,0,0
101302,-100,4,2,1,60,0,0
104037,-100,4,2,1,5,0,0
104125,-100,4,2,1,60,0,0
105184,-106.723585912487,4,2,1,60,0,0
112243,-100,4,2,1,5,0,0

[Colours]
Combo1 : 214,235,163
Combo2 : 250,128,90
Combo3 : 255,128,192
Combo4 : 185,125,251

[HitObjects]
255,190,714,6,0,P|281:174|354:174,1,72,6|0,0:0|0:0,0:0:0:0:
382,278,1066,2,0,P|346:272|315:254,1,72,2|0,0:0|0:0,0:0:0:0:
399,145,1419,2,0,P|391:108|356:56,1,72,2|0,0:0|0:0,0:0:0:0:
190,134,1772,2,0,P|173:165|166:201,1,72,2|0,0:0|0:0,0:0:0:0:
275,335,2125,6,0,P|233:301|123:295,1,144,2|2,0:0|0:0,0:0:0:0:
91,355,2655,1,0,0:0:0:0:
30,226,2831,2,0,P|12:175|8:137,1,72,2|0,0:0|0:0,0:0:0:0:
166,219,3184,2,0,P|158:254|145:287,1,72,2|0,0:0|0:0,0:0:0:0:
99,130,3537,6,0,P|159:119|197:116,1,72,2|0,0:0|0:0,0:0:0:0:
253,211,3890,2,0,P|217:206|182:198,1,72,2|0,0:0|0:0,0:0:0:0:
106,55,4243,2,0,P|157:26|251:76,1,144,2|2,0:0|0:0,0:0:0:0:
272,127,4772,1,0,0:0:0:0:
400,72,4949,6,0,P|361:60|318:65,1,72,2|0,0:0|0:0,0:0:0:0:
354,151,5302,2,0,P|393:163|436:158,1,72,2|0,0:0|0:0,0:0:0:0:
272,127,5655,2,0,B|297:210|223:172|253:297,1,144,2|6,0:0|0:0,0:0:0:0:
222,281,6361,6,0,P|288:266|403:261,1,148.50000453186,8|0,3:0|0:0,0:0:0:0:
383,275,6713,5,10,0:0:0:0:
239,190,6890,1,8,0:0:0:0:
443,198,7066,1,10,0:0:0:0:
222,281,7243,1,8,0:0:0:0:
484,286,7419,1,10,0:0:0:0:
184,127,7596,1,8,0:0:0:0:
201,368,7772,5,10,0:0:0:0:
239,190,7949,1,8,0:0:0:0:
464,357,8125,6,0,B|408:336|408:336|378:343|378:343|294:309,1,148.50000453186,8|0,3:0|0:0,0:0:0:0:
324,191,8478,2,0,P|311:230|284:256,2,66.0000020141602,2|2|2,0:0|0:0|0:0,0:0:0:0:
209,132,8831,2,0,P|217:163|238:189,2,66.0000020141602,2|0|0,0:0|3:0|3:0,0:0:0:0:
294,103,9184,5,0,0:0:0:0:
324,321,9890,1,0,0:0:0:0:
121,238,10596,1,0,0:0:0:0:
246,220,11302,6,0,L|217:292,2,66.0000020141602,2|2|2,3:0|3:0|3:0,0:0:0:0:
294,103,11655,2,0,L|269:41,2,66.0000020141602,2|2|2,3:0|3:0|3:0,0:0:0:0:
372,204,12008,5,0,0:0:0:0:
256,192,12096,12,0,13243,0:0:0:0:
186,241,13419,5,10,0:0:0:0:
266,14,13596,1,8,0:0:0:0:
313,339,13772,1,10,0:0:0:0:
148,117,13949,1,8,0:0:0:0:
0,384,14125,5,8,3:0:0:0:
70,146,14302,2,0,P|64:175|69:217,1,49.5000015106202,0|8,0:0|0:0,0:0:0:0:
196,384,14478,2,0,P|197:345|187:301,1,49.5000015106202,2|0,0:0|0:0,0:0:0:0:
255,91,14655,2,0,P|262:115|265:140,1,49.5000015106202,8|8,0:0|0:0,0:0:0:0:
184,183,14831,6,0,P|211:211|293:218,1,90,6|0,0:0|0:0,0:0:0:0:
413,142,15184,2,0,P|369:153|337:184,1,90,8|0,0:0|0:0,0:0:0:0:
260,314,15537,2,0,P|297:304|344:237,1,90,2|0,0:0|0:0,0:0:0:0:
266,53,15890,2,0,P|254:95|264:139,1,90,8|0,0:0|0:0,0:0:0:0:
388,346,16243,6,0,P|356:328|233:319,1,135,2|0,0:0|0:0,0:0:0:0:
233,295,16596,2,0,P|186:324|136:325,1,90,8|0,0:0|0:0,0:0:0:0:
93,189,16949,1,2,0:0:0:0:
167,237,17125,1,0,0:0:0:0:
282,111,17302,2,0,P|271:60|240:31,1,90,8|0,0:0|0:0,0:0:0:0:
227,175,17655,5,2,0:0:0:0:
309,196,17831,1,0,0:0:0:0:
167,237,18008,2,0,P|143:195|158:128,1,90,8|0,0:0|0:0,0:0:0:0:
247,260,18361,2,0,P|271:302|256:369,1,90,2|0,0:0|0:0,0:0:0:0:
227,175,18713,2,0,P|275:175|325:221,1,90,8|0,0:0|0:0,0:0:0:0:
183,326,19066,6,0,P|130:306|25:291,1,135,2|0,0:0|0:0,0:0:0:0:
31,296,19419,2,0,P|51:333|56:383,1,90,8|0,0:0|0:0,0:0:0:0:
70,108,19772,2,0,P|84:147|91:180,1,45,2|8,0:0|0:0,0:0:0:0:
35,211,19949,1,0,0:0:0:0:
18,43,20125,1,8,0:0:0:0:
116,229,20302,1,0,0:0:0:0:
281,69,20478,6,0,P|249:45|176:61,1,90,6|0,0:0|0:0,0:0:0:0:
313,153,20831,2,0,P|345:177|418:161,1,90,8|0,0:0|0:0,0:0:0:0:
233,142,21184,2,0,P|208:178|210:222,1,90,2|0,0:0|0:0,0:0:0:0:
373,84,21537,2,0,P|398:48|396:4,1,90,8|0,0:0|0:0,0:0:0:0:
294,252,21890,6,0,P|330:224|434:219,1,135,2|0,0:0|0:0,0:0:0:0:
424,241,22243,2,0,P|458:258|527:255,1,90,8|0,0:0|0:0,0:0:0:0:
498,61,22596,1,2,0:0:0:0:
439,135,22772,1,0,0:0:0:0:
287,104,22949,2,0,P|321:87|390:90,1,90,8|0,0:0|0:0,0:0:0:0:
210,222,23302,5,2,0:0:0:0:
281,280,23478,1,0,0:0:0:0:
140,269,23655,2,0,P|102:278|56:308,1,90,8|0,0:0|0:0,0:0:0:0:
206,138,24008,2,0,P|244:147|290:177,1,90,2|0,0:0|0:0,0:0:0:0:
111,43,24361,2,0,P|73:52|27:82,1,90,8|0,0:0|0:0,0:0:0:0:
286,173,24713,6,0,P|259:109|239:29,1,135,2|0,0:0|0:0,0:0:0:0:
247,22,25066,2,0,P|301:25|357:50,1,90,8|0,0:0|0:0,0:0:0:0:
333,257,25419,1,2,0:0:0:0:
416,64,25596,2,0,P|427:107|441:148,1,45,8|8,0:0|0:0,0:0:0:0:
472,182,25772,1,8,0:0:0:0:
286,173,25949,2,0,P|256:219|245:242,1,45,2|2,0:0|0:0,0:0:0:0:
363,341,26125,5,6,0:0:0:0:
333,257,26302,1,2,0:0:0:0:
150,191,26478,2,0,P|100:189|55:197,1,90,8|0,0:0|0:0,0:0:0:0:
343,347,26831,5,2,0:0:0:0:
353,240,27008,1,2,0:0:0:0:
114,273,27184,2,0,P|69:296|34:325,1,90,8|2,0:0|0:0,0:0:0:0:
297,126,27537,5,2,0:0:0:0:
205,98,27713,1,2,0:0:0:0:
322,232,27890,2,0,P|372:206|423:199,1,90,8|2,0:0|0:0,0:0:0:0:
123,149,28243,5,8,3:0:0:0:
207,192,28419,1,2,0:0:0:0:
101,352,28596,2,0,P|86:290|85:276,1,45,8|8,0:0|0:0,0:0:0:0:
189,216,28772,2,0,P|183:237|176:259,1,45,8|8,0:0|0:0,0:0:0:0:
41,124,28949,6,0,P|70:83|108:64,1,80.9999975280763,6|0,0:0|0:0,0:0:0:0:
205,175,29302,2,0,P|154:170|117:142,1,80.9999975280763,2|0,0:0|0:0,0:0:0:0:
247,105,29655,2,0,P|289:159|235:252,1,161.999995056153,2|2,0:0|0:0,0:0:0:0:
205,175,30184,1,0,0:0:0:0:
328,80,30361,6,0,P|299:39|260:22,1,80.9999975280763,2|0,0:0|0:0,0:0:0:0:
308,158,30713,2,0,P|358:155|393:128,1,80.9999975280763,2|0,0:0|0:0,0:0:0:0:
452,21,31066,2,0,P|381:69|392:152,1,161.999995056153,2|2,0:0|0:0,0:0:0:0:
458,102,31596,1,0,0:0:0:0:
512,251,31772,6,0,P|510:204|501:155,1,80.9999975280763,2|0,0:0|0:0,0:0:0:0:
370,222,32125,2,0,P|362:266|361:311,1,80.9999975280763,2|0,0:0|0:0,0:0:0:0:
497,269,32478,2,0,P|495:222|485:167,1,80.9999975280763,2|0,0:0|0:0,0:0:0:0:
355,245,32831,2,0,P|347:289|346:334,1,80.9999975280763,2|0,0:0|0:0,0:0:0:0:
402,172,33184,6,0,B|321:131|319:222|212:166,1,161.999995056153,2|2,0:0|0:0,0:0:0:0:
270,101,33713,1,0,0:0:0:0:
223,36,33890,2,0,L|118:44,1,80.9999975280763,2|0,0:0|0:0,0:0:0:0:
61,120,34243,2,0,P|157:146|196:164,1,121.499996292114,6|0,0:0|0:0,0:0:0:0:
180,178,34596,5,2,0:0:0:0:
209,262,34949,1,0,0:0:0:0:
267,194,35302,1,0,0:0:0:0:
122,246,36008,5,0,0:0:0:0:
151,330,36361,1,0,0:0:0:0:
209,262,36713,1,0,0:0:0:0:
146,169,37419,5,10,0:0:0:0:
322,137,37596,1,8,0:0:0:0:
82,109,37772,5,10,0:0:0:0:
350,216,37949,1,8,0:0:0:0:
94,237,38125,5,10,0:0:0:0:
383,76,38302,1,8,0:0:0:0:
86,23,38478,5,10,0:0:0:0:
350,216,38655,1,8,0:0:0:0:
78,359,38831,5,2,3:0:0:0:
146,169,39008,1,8,0:0:0:0:
317,375,39184,2,0,B|305:326|305:326|316:292|316:292|296:206,1,135,8|0,3:0|0:0,0:0:0:0:
387,329,39537,2,0,L|447:343,1,45,2|0,0:0|0:0,0:0:0:0:
486,287,39713,1,8,0:0:0:0:
233,279,39890,1,2,0:0:0:0:
361,191,40066,2,0,L|428:182,1,45,2|8,0:0|0:0,0:0:0:0:
234,196,40243,6,0,P|177:215|161:317,1,135,6|0,0:0|0:0,0:0:0:0:
137,297,40596,2,0,P|120:255|79:222,1,90,8|0,0:0|0:0,0:0:0:0:
148,65,40949,1,2,0:0:0:0:
108,140,41125,1,0,0:0:0:0:
235,62,41302,2,0,P|291:48|341:70,1,90,8|0,0:0|0:0,0:0:0:0:
381,217,41655,5,2,0:0:0:0:
385,131,41831,2,0,P|324:152|298:206,1,90,0|8,0:0|0:0,0:0:0:0:
424,297,42184,1,0,0:0:0:0:
424,297,42272,1,8,0:0:0:0:
424,297,42361,1,2,0:0:0:0:
462,105,42537,1,8,0:0:0:0:
333,297,42713,2,0,P|294:318|208:247,1,135,8|0,0:0|0:0,0:0:0:0:
192,271,43066,6,0,P|181:219|156:174,1,90,2|0,0:0|0:0,0:0:0:0:
300,44,43419,2,0,P|280:84|272:128,1,90,8|0,0:0|0:0,0:0:0:0:
206,263,43772,2,0,P|195:211|170:166,1,90,2|0,0:0|0:0,0:0:0:0:
318,40,44125,2,0,P|298:80|290:124,1,90,8|0,0:0|0:0,0:0:0:0:
427,252,44478,6,0,P|380:219|275:231,1,135,2|0,0:0|0:0,0:0:0:0:
278,230,44831,2,0,P|298:275|320:343,1,90,8|0,0:0|0:0,0:0:0:0:
298,336,45096,1,8,0:0:0:0:
298,336,45184,1,2,0:0:0:0:
178,178,45361,1,8,0:0:0:0:
165,346,45537,2,0,P|185:301|207:233,1,90,8|0,0:0|0:0,0:0:0:0:
129,111,45890,6,0,P|100:136|101:204,1,90,2|0,0:0|0:0,0:0:0:0:
248,38,46243,1,8,0:0:0:0:
164,23,46419,1,0,0:0:0:0:
322,108,46596,2,0,P|261:121|218:144,1,90,2|0,0:0|0:0,0:0:0:0:
425,233,46949,2,0,P|368:217|265:212,1,135,8|0,0:0|0:0,0:0:0:0:
270,224,47302,6,0,P|288:265|297:335,1,90,2|0,0:0|0:0,0:0:0:0:
236,132,47655,1,8,0:0:0:0:
196,272,47831,1,0,0:0:0:0:
196,272,47919,1,8,0:0:0:0:
196,272,48008,1,2,0:0:0:0:
202,41,48184,1,8,0:0:0:0:
270,224,48361,2,0,P|307:233|387:257,1,90,8|0,0:0|0:0,0:0:0:0:
151,114,48713,6,0,P|130:82|114:13,1,90,2|0,0:0|0:0,0:0:0:0:
305,142,49066,2,0,P|293:185|269:223,1,90,8|0,0:0|0:0,0:0:0:0:
135,119,49419,2,0,P|114:87|98:18,1,90,2|0,0:0|0:0,0:0:0:0:
289,147,49772,2,0,P|277:190|253:228,1,90,8|0,0:0|0:0,0:0:0:0:
69,208,50125,6,0,P|102:245|146:357,1,135,2|0,0:0|0:0,0:0:0:0:
146,342,50478,2,0,P|165:282|184:245,1,90,8|0,0:0|0:0,0:0:0:0:
207,243,50743,1,0,0:0:0:0:
207,243,50831,1,2,0:0:0:0:
372,305,51008,2,0,P|327:327|301:329,1,45,2|2,0:0|0:0,0:0:0:0:
248,309,51184,1,8,0:0:0:0:
439,247,51361,2,0,P|394:224|365:219,1,45,2|2,0:0|0:0,0:0:0:0:
304,249,51537,6,0,P|288:207|270:155,1,80.9999975280763,6|0,0:0|0:0,0:0:0:0:
326,98,51890,1,2,0:0:0:0:
326,98,52066,1,0,3:0:0:0:
367,176,52243,1,2,0:0:0:0:
398,53,52419,1,0,3:0:0:0:
243,96,52596,2,0,P|197:97|153:30,1,121.499996292114,2|0,0:0|0:0,0:0:0:0:
227,18,52949,5,6,0:0:0:0:
256,14,53037,1,2,0:0:0:0:
285,24,53125,1,2,0:0:0:0:
307,44,53213,1,2,0:0:0:0:
319,72,53302,1,2,0:0:0:0:
243,96,53478,1,8,0:0:0:0:
301,155,53655,1,2,0:0:0:0:
210,251,53831,1,8,0:0:0:0:
292,236,54008,1,2,0:0:0:0:
172,140,54184,1,8,0:0:0:0:
134,292,54361,6,0,P|133:240|147:190,1,80.9999975280763,8|0,3:0|0:0,0:0:0:0:
210,251,54713,1,2,0:0:0:0:
381,191,54890,2,0,P|382:139|368:89,1,80.9999975280763,8|0,3:0|0:0,0:0:0:0:
301,155,55243,1,0,0:0:0:0:
168,114,55419,2,0,P|167:62|181:12,1,80.9999975280763,8|0,3:0|0:0,0:0:0:0:
306,72,55772,5,2,0:0:0:0:
219,179,55949,1,8,0:0:0:0:
301,155,56125,1,2,0:0:0:0:
168,114,56302,1,8,0:0:0:0:
281,239,56478,5,2,0:0:0:0:
301,155,56655,1,0,3:0:0:0:
219,299,56831,1,0,3:0:0:0:
163,240,57008,2,0,L|100:223,1,40.4999987640381,0|0,3:0|0:0,0:0:0:0:
301,321,57184,5,6,0:0:0:0:
301,321,57361,1,2,0:0:0:0:
163,240,57537,2,0,P|110:249|68:278,1,90,8|2,0:0|0:0,0:0:0:0:
246,377,57890,5,2,0:0:0:0:
246,377,58066,1,2,0:0:0:0:
232,186,58243,2,0,P|181:155|128:155,1,90,8|0,0:0|0:0,0:0:0:0:
301,321,58596,5,2,0:0:0:0:
363,266,58772,1,2,0:0:0:0:
147,329,58949,1,8,0:0:0:0:
151,151,59125,1,2,0:0:0:0:
151,151,59213,1,0,3:0:0:0:
151,151,59302,1,2,0:0:0:0:
163,240,59478,1,2,0:0:0:0:
204,79,59655,2,0,P|196:36|168:1,1,90,8|0,0:0|0:0,0:0:0:0:
269,180,60008,5,2,0:0:0:0:
312,109,60184,1,2,0:0:0:0:
400,255,60361,2,0,P|416:212|398:157,1,90,8|2,0:0|0:0,0:0:0:0:
263,192,60713,5,2,0:0:0:0:
307,96,60890,1,2,0:0:0:0:
325,299,61066,2,0,P|361:334|434:339,1,90,8|0,0:0|0:0,0:0:0:0:
205,287,61419,5,2,0:0:0:0:
159,143,61596,1,2,0:0:0:0:
129,356,61772,1,8,0:0:0:0:
227,202,61949,2,0,L|269:212,2,30,2|2|2,0:0|0:0|0:0,0:0:0:0:
289,309,62125,5,6,0:0:0:0:
342,199,62302,1,2,0:0:0:0:
484,329,62478,2,0,L|473:411,1,45,8|8,0:0|0:0,0:0:0:0:
342,199,62655,2,0,L|353:281,1,45,8|8,0:0|0:0,0:0:0:0:
479,144,62831,5,6,0:0:0:0:
459,227,64066,5,0,3:0:0:0:
459,227,64243,1,2,0:0:0:0:
64,266,64949,5,0,0:0:0:0:
64,266,65655,5,8,3:0:0:0:
176,214,65831,1,0,0:0:0:0:
35,131,66008,5,10,0:0:0:0:
250,261,66184,1,8,0:0:0:0:
23,345,66361,5,10,0:0:0:0:
243,161,66537,1,8,0:0:0:0:
0,50,66713,5,10,0:0:0:0:
154,375,66890,1,8,0:0:0:0:
289,85,67066,6,0,P|268:18|259:-1,1,90,10|8,0:0|0:0,0:0:0:0:
141,292,67419,1,10,0:0:0:0:
332,167,67596,1,8,0:0:0:0:
202,86,67772,1,0,0:0:0:0:
202,86,68478,6,0,L|327:92,1,107.999996704102,8|0,3:0|0:0,0:0:0:0:
109,195,68831,2,0,L|234:189,1,107.999996704102,8|0,0:0|0:0,0:0:0:0:
0,46,69184,2,0,L|107:40,1,107.999996704102,2|0,0:0|0:0,0:0:0:0:
52,268,69537,2,0,P|20:218|37:150,1,107.999996704102,8|0,0:0|0:0,0:0:0:0:
259,163,69890,5,2,0:0:0:0:
220,250,70066,1,0,0:0:0:0:
140,28,70243,1,8,0:0:0:0:
109,195,70419,1,0,0:0:0:0:
266,75,70596,2,0,P|312:91|337:190,1,107.999996704102,2|0,0:0|0:0,0:0:0:0:
318,326,70949,2,0,P|301:280|362:198,1,107.999996704102,8|0,0:0|0:0,0:0:0:0:
479,340,71302,6,0,L|298:324,1,161.999995056153,2|0,0:0|0:0,0:0:0:0:
306,346,71655,2,0,L|188:362,1,107.999996704102,8|0,0:0|0:0,0:0:0:0:
151,148,72008,2,0,L|258:162,1,107.999996704102,2|0,0:0|0:0,0:0:0:0:
94,381,72361,1,8,0:0:0:0:
65,135,72537,1,0,0:0:0:0:
65,135,72625,1,0,0:0:0:0:
65,135,72713,6,0,P|90:80|197:80,1,161.999995056153,2|0,0:0|0:0,0:0:0:0:
200,89,73066,2,0,L|171:216,1,107.999996704102,8|0,0:0|0:0,0:0:0:0:
6,358,73419,1,2,0:0:0:0:
40,87,73596,2,0,P|60:120|68:171,1,53.9999983520508,2|8,0:0|0:0,0:0:0:0:
17,207,73772,1,2,0:0:0:0:
224,41,73949,2,0,P|204:74|196:125,1,53.9999983520508,8|8,0:0|0:0,0:0:0:0:
292,222,74125,6,0,P|327:190|241:111,1,161.999995056153,6|0,0:0|0:0,0:0:0:0:
292,222,74478,2,0,L|414:205,1,107.999996704102,8|0,0:0|0:0,0:0:0:0:
229,169,74831,1,2,0:0:0:0:
279,332,75008,1,0,0:0:0:0:
199,88,75184,1,8,0:0:0:0:
141,274,75361,1,0,0:0:0:0:
263,33,75537,6,0,B|346:-1|342:66|426:26,1,161.999995056153,2|0,0:0|0:0,0:0:0:0:
445,7,75890,2,0,P|422:92|412:151,1,107.999996704102,8|0,0:0|0:0,0:0:0:0:
296,277,76243,2,0,L|172:252,1,107.999996704102,2|0,0:0|0:0,0:0:0:0:
389,241,76596,1,8,0:0:0:0:
112,308,76772,1,0,0:0:0:0:
343,348,76949,6,0,L|219:373,1,107.999996704102,2|0,0:0|0:0,0:0:0:0:
429,311,77302,1,8,0:0:0:0:
190,255,77478,1,0,0:0:0:0:
398,209,77655,2,0,P|331:191|253:191,1,107.999996704102,2|0,0:0|0:0,0:0:0:0:
429,311,78008,1,8,0:0:0:0:
277,269,78184,1,0,0:0:0:0:
429,311,78361,6,0,P|416:239|368:181,1,107.999996704102,2|0,0:0|0:0,0:0:0:0:
177,231,78713,1,8,0:0:0:0:
394,117,78890,1,0,0:0:0:0:
262,37,79066,2,0,P|287:44|333:77,1,53.9999983520508,8|0,0:0|3:0,0:0:0:0:
167,141,79243,2,0,P|142:148|96:181,1,53.9999983520508,2|2,0:0|0:0,0:0:0:0:
291,342,79419,2,0,P|325:302|239:243,1,161.999995056153,8|8,0:0|0:0,0:0:0:0:
146,310,79772,6,0,P|78:287|13:272,1,107.999996704102,6|0,0:0|0:0,0:0:0:0:
250,139,80125,2,0,P|182:162|117:177,1,107.999996704102,8|0,0:0|0:0,0:0:0:0:
330,321,80478,2,0,P|262:298|197:283,1,107.999996704102,2|0,0:0|0:0,0:0:0:0:
423,188,80831,1,8,0:0:0:0:
341,120,81008,1,0,0:0:0:0:
400,361,81184,5,2,0:0:0:0:
434,203,81361,1,0,0:0:0:0:
300,384,81537,1,8,0:0:0:0:
247,252,81713,1,0,0:0:0:0:
33,329,81890,2,0,P|87:361|136:357,1,107.999996704102,2|0,0:0|0:0,0:0:0:0:
272,165,82243,2,0,P|218:165|174:194,1,107.999996704102,8|0,0:0|0:0,0:0:0:0:
248,325,82596,6,0,L|274:146,1,161.999995056153,2|0,0:0|0:0,0:0:0:0:
259,146,82949,2,0,L|279:23,1,107.999996704102,8|0,0:0|0:0,0:0:0:0:
451,181,83302,2,0,P|394:202|332:169,1,107.999996704102,2|0,0:0|0:0,0:0:0:0:
352,5,83655,1,8,0:0:0:0:
461,63,83831,1,0,0:0:0:0:
271,164,84008,5,2,0:0:0:0:
435,280,84184,1,0,0:0:0:0:
246,257,84361,1,8,0:0:0:0:
397,116,84537,1,0,0:0:0:0:
224,342,84713,1,2,0:0:0:0:
62,226,84890,2,0,P|93:206|155:207,1,53.9999983520508,8|8,0:0|0:0,0:0:0:0:
160,270,85066,1,2,0:0:0:0:
119,72,85243,2,0,P|155:70|209:102,1,53.9999983520508,8|8,0:0|0:0,0:0:0:0:
268,205,85419,6,0,P|209:197|194:138,1,107.999996704102,6|0,0:0|0:0,0:0:0:0:
284,7,85772,2,0,P|266:84|266:138,1,107.999996704102,8|0,0:0|0:0,0:0:0:0:
328,280,86125,1,2,0:0:0:0:
354,155,86302,1,0,0:0:0:0:
449,348,86478,1,8,0:0:0:0:
242,319,86655,1,0,0:0:0:0:
396,231,86831,6,0,P|426:195|418:96,1,107.999996704102,2|0,0:0|0:0,0:0:0:0:
251,18,87184,2,0,L|276:159,1,107.999996704102,8|0,0:0|0:0,0:0:0:0:
242,319,87537,1,2,0:0:0:0:
325,195,87713,1,0,0:0:0:0:
146,139,87890,1,8,0:0:0:0:
329,292,88066,1,0,0:0:0:0:
238,48,88243,5,2,0:0:0:0:
72,239,88419,1,2,0:0:0:0:
329,50,88596,5,8,3:0:0:0:
149,41,88772,1,0,0:0:0:0:
412,178,88949,6,0,P|425:144|420:97,2,71.9999978027344,2|2|2,0:0|0:0|0:0,0:0:0:0:
253,308,89302,2,0,P|251:343|264:377,2,71.9999978027344,0|0|0,3:0|3:0|3:0,0:0:0:0:
321,236,89655,5,6,0:0:0:0:
321,236,90361,5,0,0:0:0:0:
367,170,90537,1,0,0:0:0:0:
405,241,90713,1,0,0:0:0:0:
285,165,90890,1,8,0:0:0:0:
252,153,90978,1,8,0:0:0:0:
220,142,91066,5,2,0:0:0:0:
213,151,92478,5,10,0:0:0:0:
257,247,92655,1,8,0:0:0:0:
271,77,92831,5,10,0:0:0:0:
206,322,93008,1,8,0:0:0:0:
204,20,93184,5,10,0:0:0:0:
286,368,93361,1,8,0:0:0:0:
314,0,93537,5,10,0:0:0:0:
142,370,93713,1,8,0:0:0:0:
297,169,93890,5,6,0:0:0:0:
170,224,94066,1,0,0:0:0:0:
373,213,94243,2,0,P|386:166|370:116,1,90,8|0,0:0|0:0,0:0:0:0:
216,64,94596,2,0,P|203:111|219:161,1,90,2|0,0:0|0:0,0:0:0:0:
369,299,94949,2,0,P|382:252|366:202,1,90,8|0,0:0|0:0,0:0:0:0:
170,224,95302,6,0,P|94:201|5:201,1,135,2|0,0:0|0:0,0:0:0:0:
20,210,95655,2,0,P|46:261|61:323,1,90,8|0,0:0|0:0,0:0:0:0:
153,129,96008,2,0,P|77:106|-12:106,1,135,2|0,0:0|0:0,0:0:0:0:
3,115,96361,2,0,P|29:166|44:228,1,90,8|0,0:0|0:0,0:0:0:0:
208,52,96713,5,2,0:0:0:0:
153,129,96890,1,0,0:0:0:0:
273,225,97066,2,0,P|275:186|237:133,1,90,8|0,0:0|0:0,0:0:0:0:
69,110,97419,2,0,P|67:149|105:202,1,90,2|0,0:0|0:0,0:0:0:0:
295,307,97772,2,0,P|297:268|259:215,1,90,8|0,0:0|0:0,0:0:0:0:
43,262,98125,6,0,P|79:276|176:204,1,135,2|0,0:0|0:0,0:0:0:0:
176,216,98478,2,0,P|162:172|141:114,1,90,8|0,0:0|0:0,0:0:0:0:
133,108,98743,1,8,0:0:0:0:
133,108,98831,1,2,0:0:0:0:
116,314,99008,1,8,0:0:0:0:
232,109,99184,1,2,0:0:0:0:
64,50,99361,1,8,0:0:0:0:
254,194,99537,5,6,0:0:0:0:
310,77,99713,1,0,0:0:0:0:
420,272,99890,2,0,P|409:215|356:186,1,90,8|0,0:0|0:0,0:0:0:0:
247,285,100243,2,0,P|258:342|311:371,1,90,2|0,0:0|0:0,0:0:0:0:
386,194,100596,2,0,P|375:137|322:108,1,90,8|0,0:0|0:0,0:0:0:0:
168,284,100949,6,0,P|120:271|89:171,1,135,2|0,0:0|0:0,0:0:0:0:
89,172,101302,2,0,P|125:185|196:200,1,90,8|0,0:0|0:0,0:0:0:0:
287,64,101655,1,2,0:0:0:0:
189,96,101831,1,0,0:0:0:0:
242,255,102008,2,0,P|284:228|354:228,1,90,8|0,0:0|0:0,0:0:0:0:
89,172,102361,6,0,P|61:114|55:60,1,90,2|0,0:0|0:0,0:0:0:0:
242,255,102713,2,0,P|214:313|208:367,1,90,8|0,0:0|0:0,0:0:0:0:
150,101,103066,2,0,P|161:57|182:18,1,90,2|0,0:0|0:0,0:0:0:0:
302,327,103419,2,0,P|341:307|384:294,1,90,8|0,0:0|0:0,0:0:0:0:
477,169,103772,6,0,P|428:171|376:80,1,135,2|0,0:0|0:0,0:0:0:0:
488,79,104125,2,0,L|474:186,1,90,8|0,3:0|0:0,0:0:0:0:
358,347,104478,2,0,L|278:320,2,60,2|2|2,0:0|0:0|0:0,0:0:0:0:
225,237,104831,2,0,L|305:210,2,60,2|2|2,0:0|0:0|0:0,0:0:0:0:
158,300,105184,6,0,B|89:195|-50:285|-51:140|-24:130|-5:102|33:88|70:125|70:125|66:76|102:57|134:60|147:30|293:153|92:194|150:269,1,674.639992897009,0|8,0:0|3:0,0:0:0:0:
256,192,106684,12,0,112243,0:0:0:0:
