osu file format v14

[General]
AudioFilename: audio.mp3
AudioLeadIn: 0
PreviewTime: 68125
Countdown: 0
SampleSet: Soft
StackLeniency: 0.5
Mode: 0
LetterboxInBreaks: 0
WidescreenStoryboard: 0

[Editor]
Bookmarks: 714,6361,14831,28949,40243,51537,62831,68478,91066,93890,106596,112243
DistanceSpacing: 1
BeatDivisor: 4
GridSize: 4
TimelineZoom: 1

[Metadata]
Title:Ima Suki ni Naru.
TitleUnicode:今好きになる。
Artist:HoneyWorks feat. sana
ArtistUnicode:HoneyWorks feat. sana
Creator:Serizawa Haruki
Version:Shunao's Normal
Source:今好きになる。ショートストーリー
Tags:ハニワ 鎖那 さな Short Story 好きになるその瞬間を。 Suki ni Naru Sono Shunkan o. 告白実行委員会〜恋愛シリーズ〜 Kokuhaku Jikkou Iinkai Renai Series Confession Executive Committee Love 初音ミク Hatsune Miku ボーカロイド ボカロ Vocaloid ゴム Gom フェルナンドP Fernando-P シト shito チョリスP Chorisu-P オジ Oji 海賊王 Kaizoku Ou ケイキ cake Jack J_a_c_k Shunao ShogunMoon Nikakis Elcheer Irohas MugiwaraSekai Yudragen ChaoticRed William K William_K Affirmation Neoskylove
BeatmapID:1754408
BeatmapSetID:828753

[Difficulty]
HPDrainRate:4
CircleSize:3.5
OverallDifficulty:4
ApproachRate:5
SliderMultiplier:1
SliderTickRate:1

[Events]
//Background and Video events
0,0,"bg.jpg",0,0
//Break Periods
2,34796,36219
//Storyboard Layer 0 (Background)
//Storyboard Layer 1 (Fail)
//Storyboard Layer 2 (Pass)
//Storyboard Layer 3 (Foreground)
//Storyboard Layer 4 (Overlay)
//Storyboard Sound Samples

[TimingPoints]
714,352.941176470588,4,2,1,40,1,0
6361,-100,4,2,1,60,0,0
9184,-100,4,2,1,40,0,0
11302,-100,4,2,1,60,0,0
12008,-100,4,2,1,40,0,0
13419,-100,4,2,1,60,0,0
28949,-100,4,2,1,50,0,0
34596,-100,4,2,1,40,0,0
37419,-100,4,2,1,60,0,0
62831,-100,4,2,1,40,0,0
65655,-100,4,2,1,60,0,0
68478,-100,4,2,1,75,0,1
91066,-100,4,2,1,75,0,0
93890,-100,4,2,1,60,0,0
112243,-100,4,2,1,5,0,0

[Colours]
Combo1 : 214,235,163
Combo2 : 250,128,90
Combo3 : 255,128,192
Combo4 : 185,125,251

[HitObjects]
260,37,714,6,0,L|269:155,1,100,6|2,0:0|0:0,0:0:0:0:
354,186,1419,2,0,L|345:304,1,100,2|2,0:0|0:0,0:0:0:0:
275,356,2125,2,0,B|185:314|178:393|65:359,1,200,2|2,0:0|0:0,0:0:0:0:
14,287,3184,1,2,0:0:0:0:
53,195,3537,6,0,P|64:140|67:93,1,100,2|2,0:0|0:0,0:0:0:0:
155,49,4243,2,0,P|158:98|168:147,1,100,2|2,0:0|0:0,0:0:0:0:
189,193,4772,2,0,P|243:171|329:220,1,150,0|2,0:0|0:0,0:0:0:0:
409,257,5655,1,2,0:0:0:0:
501,220,6008,1,6,0:0:0:0:
501,119,6361,6,0,P|493:82|487:20,1,100,8|10,3:0|0:0,0:0:0:0:
438,9,6890,1,8,0:0:0:0:
438,9,7066,2,0,P|397:24|342:24,1,100,10|10,0:0|0:0,0:0:0:0:
249,65,7772,2,0,P|208:50|153:50,1,100,10|8,0:0|3:0,0:0:0:0:
61,92,8478,2,0,L|65:146,1,50,2|0,0:0|0:0,0:0:0:0:
101,176,8831,2,0,L|95:240,1,50,2|0,0:0|0:0,0:0:0:0:
91,275,9184,5,0,0:0:0:0:
91,275,11302,2,0,B|193:240|183:313|296:285,1,200,2|0,3:0|0:0,0:0:0:0:
285,287,13419,6,0,L|290:238,1,50,10|8,0:0|0:0,0:0:0:0:
270,191,13772,2,0,L|263:135,1,50,10|8,0:0|0:0,0:0:0:0:
263,91,14125,2,0,P|309:77|363:93,1,100,8|2,3:0|0:0,0:0:0:0:
456,110,14831,6,0,L|461:166,1,50,6|0,0:0|0:0,0:0:0:0:
497,193,15184,2,0,L|488:314,1,100,8|2,0:0|0:0,0:0:0:0:
415,360,15890,1,8,0:0:0:0:
315,350,16243,2,0,P|267:333|203:344,1,100,2|8,0:0|0:0,0:0:0:0:
122,365,16949,2,0,L|54:357,1,50,2|0,0:0|0:0,0:0:0:0:
22,351,17302,1,8,0:0:0:0:
8,251,17655,6,0,P|4:220|11:189,1,50,2|0,0:0|0:0,0:0:0:0:
40,164,18008,2,0,P|51:118|36:62,1,100,8|2,0:0|0:0,0:0:0:0:
126,18,18713,1,8,0:0:0:0:
218,56,19066,2,0,P|268:65|325:51,1,100,2|8,0:0|0:0,0:0:0:0:
410,22,19772,2,0,L|416:76,1,50,2|0,0:0|0:0,0:0:0:0:
455,102,20125,2,0,L|447:170,1,50,8|0,0:0|0:0,0:0:0:0:
415,189,20478,6,0,P|386:182|347:180,1,50,6|0,0:0|0:0,0:0:0:0:
315,179,20831,2,0,P|310:232|298:301,1,100,8|2,0:0|0:0,0:0:0:0:
229,346,21537,1,8,0:0:0:0:
326,369,21890,2,0,P|376:371|437:353,1,100,2|8,0:0|0:0,0:0:0:0:
493,286,22596,2,0,L|498:229,1,50,2|0,0:0|0:0,0:0:0:0:
504,186,22949,1,8,0:0:0:0:
427,121,23302,6,0,L|421:58,1,50,2|0,0:0|0:0,0:0:0:0:
404,24,23655,2,0,P|356:12|304:27,1,100,8|2,0:0|0:0,0:0:0:0:
232,88,24361,1,8,0:0:0:0:
149,144,24713,2,0,L|32:134,1,100,2|8,0:0|0:0,0:0:0:0:
0,221,25419,2,0,L|4:275,1,50,2|8,0:0|0:0,0:0:0:0:
50,287,25772,2,0,L|46:350,1,50,8|2,0:0|0:0,0:0:0:0:
83,371,26125,6,0,P|111:369|149:370,1,50,6|2,0:0|0:0,0:0:0:0:
183,371,26478,1,8,0:0:0:0:
278,341,26831,2,0,P|281:313|280:272,1,50,2|2,0:0|0:0,0:0:0:0:
282,241,27184,1,8,0:0:0:0:
223,159,27537,2,0,P|220:131|221:90,1,50,2|2,0:0|0:0,0:0:0:0:
228,59,27890,1,8,0:0:0:0:
328,59,28243,2,0,P|358:63|388:58,1,50,8|2,3:0|0:0,0:0:0:0:
425,47,28596,2,0,P|455:43|485:48,1,50,8|8,0:0|0:0,0:0:0:0:
505,84,28949,6,0,P|499:122|496:190,1,100,6|2,0:0|0:0,0:0:0:0:
499,237,29478,1,0,0:0:0:0:
499,237,29655,2,0,P|450:228|397:239,1,100,2|2,0:0|0:0,0:0:0:0:
302,238,30361,2,0,L|296:171,1,50,2|0,0:0|0:0,0:0:0:0:
258,157,30713,2,0,L|268:56,1,100,2|2,0:0|0:0,0:0:0:0:
175,18,31419,1,2,0:0:0:0:
76,33,31772,6,0,P|33:44|2:90,1,100,2|2,0:0|0:0,0:0:0:0:
7,188,32478,2,0,P|14:236|20:306,1,100,2|2,0:0|0:0,0:0:0:0:
80,366,33184,2,0,P|128:352|190:362,1,100,2|2,0:0|0:0,0:0:0:0:
224,375,33713,1,0,0:0:0:0:
224,375,33890,2,0,P|214:332|220:266,1,100,2|6,0:0|0:0,0:0:0:0:
304,226,34596,5,2,0:0:0:0:
304,226,37419,6,0,L|309:162,1,50,10|8,0:0|0:0,0:0:0:0:
265,149,37772,2,0,L|260:85,1,50,10|8,0:0|0:0,0:0:0:0:
230,59,38125,2,0,P|184:45|123:73,1,100,10|10,0:0|0:0,0:0:0:0:
56,121,38831,2,0,L|66:235,1,100,2|8,3:0|3:0,0:0:0:0:
74,270,39361,1,0,0:0:0:0:
74,270,39537,2,0,P|121:261|169:282,1,100,2|2,0:0|0:0,0:0:0:0:
239,351,40243,6,0,L|362:342,1,100,6|8,0:0|0:0,0:0:0:0:
439,327,40949,2,0,P|451:275|429:221,1,100,2|8,0:0|0:0,0:0:0:0:
355,184,41655,1,2,0:0:0:0:
355,184,41831,2,0,L|232:175,1,100
226,135,42361,1,2,0:0:0:0:
163,57,42713,1,8,0:0:0:0:
65,77,43066,6,0,P|37:114|40:180,1,100,2|8,0:0|0:0,0:0:0:0:
63,262,43772,2,0,P|124:253|182:251,1,100,2|8,0:0|0:0,0:0:0:0:
252,293,44478,2,0,P|313:302|371:304,1,100,2|8,0:0|0:0,0:0:0:0:
401,308,45008,1,0,0:0:0:0:
401,308,45184,1,2,0:0:0:0:
471,236,45537,1,8,0:0:0:0:
421,148,45890,6,0,P|409:99|404:40,1,100,2|8,0:0|0:0,0:0:0:0:
362,21,46419,1,0,0:0:0:0:
362,21,46596,2,0,P|308:8|254:27,1,100,2|8,0:0|0:0,0:0:0:0:
208,102,47302,2,0,P|203:151|191:200,1,100,2|8,0:0|0:0,0:0:0:0:
184,249,47831,1,0,0:0:0:0:
184,249,48008,2,0,P|137:235|86:249,1,100,2|8,0:0|0:0,0:0:0:0:
28,167,48713,6,0,L|22:52,1,100,2|8,0:0|0:0,0:0:0:0:
118,36,49419,2,0,L|123:135,1,100,2|8,0:0|0:0,0:0:0:0:
210,184,50125,2,0,P|243:192|318:173,1,100,2|8,0:0|0:0,0:0:0:0:
356,161,50655,1,0,0:0:0:0:
356,161,50831,1,2,0:0:0:0:
422,235,51184,1,8,0:0:0:0:
373,322,51537,6,0,P|328:327|278:371,1,100,6|2,0:0|0:0,0:0:0:0:
185,371,52243,2,0,L|76:365,1,100,2|2,0:0|0:0,0:0:0:0:
37,276,52949,2,0,P|32:225|22:171,1,100,6|2,0:0|0:0,0:0:0:0:
8,134,53478,1,8,0:0:0:0:
8,134,53655,2,0,P|55:141|104:117,1,100,2|2,0:0|0:0,0:0:0:0:
170,46,54361,6,0,P|219:34|271:51,1,100,8|2,3:0|0:0,0:0:0:0:
358,83,55066,1,0,0:0:0:0:
452,49,55419,1,8,3:0:0:0:
500,136,55772,2,0,P|496:179|493:256,1,100,2|2,0:0|0:0,0:0:0:0:
483,335,56478,2,0,P|457:328|423:328,1,50,2|0,0:0|3:0,0:0:0:0:
385,340,56831,2,0,P|359:347|325:347,1,50,0|0,3:0|3:0,0:0:0:0:
294,319,57184,6,0,P|250:305|196:308,1,100,6|8,0:0|0:0,0:0:0:0:
104,347,57890,2,0,P|96:304|89:234,1,100,2|8,0:0|0:0,0:0:0:0:
163,180,58596,2,0,P|171:137|178:67,1,100,2|8,0:0|0:0,0:0:0:0:
146,49,59125,1,2,0:0:0:0:
146,49,59302,2,0,P|142:18|142:-13,2,50,2|2|8,0:0|0:0|0:0,0:0:0:0:
55,90,60008,6,0,P|26:133|24:186,1,100,2|8,0:0|0:0,0:0:0:0:
55,275,60713,2,0,P|109:271|160:295,1,100,2|8,0:0|0:0,0:0:0:0:
250,298,61419,2,0,P|242:255|235:185,1,100,2|8,0:0|0:0,0:0:0:0:
254,154,61949,1,2,0:0:0:0:
254,154,62125,2,0,P|300:171|364:155,1,100,6|8,0:0|0:0,0:0:0:0:
444,131,62831,5,6,0:0:0:0:
444,131,64066,2,0,L|449:194,1,50,0|2,3:0|0:0,0:0:0:0:
69,46,65655,6,0,L|78:157,1,100,8|10,3:0|0:0,0:0:0:0:
109,183,66184,1,8,0:0:0:0:
109,183,66361,2,0,L|103:245,1,50,10|8,0:0|0:0,0:0:0:0:
99,282,66713,1,10,0:0:0:0:
132,378,67066,2,0,P|178:364|240:368,1,100,10|10,0:0|0:0,0:0:0:0:
278,378,67596,1,8,0:0:0:0:
278,378,67772,1,0,0:0:0:0:
452,281,68478,6,0,P|463:237|471:163,1,100,8|8,3:0|0:0,0:0:0:0:
391,120,69184,2,0,P|344:131|288:114,1,100,2|8,0:0|0:0,0:0:0:0:
217,54,69890,2,0,P|170:43|114:60,1,100,2|8,0:0|0:0,0:0:0:0:
33,105,70596,1,2,0:0:0:0:
45,204,70949,1,8,0:0:0:0:
122,267,71302,6,0,P|133:313|145:380,1,100,2|8,0:0|0:0,0:0:0:0:
196,374,71831,1,0,0:0:0:0:
196,374,72008,2,0,P|241:359|294:366,1,100,2|8,0:0|0:0,0:0:0:0:
335,339,72537,2,0,P|384:353|435:339,1,100
475,320,73066,1,8,0:0:0:0:
496,222,73419,2,0,P|498:191|503:160,1,50,2|2,0:0|0:0,0:0:0:0:
509,122,73772,1,2,0:0:0:0:
452,39,74125,6,0,P|406:23|349:43,1,100,6|8,0:0|0:0,0:0:0:0:
266,76,74831,2,0,L|273:139,1,50,2|0,0:0|0:0,0:0:0:0:
282,174,75184,1,8,0:0:0:0:
325,263,75537,2,0,L|314:375,1,100,2|8,0:0|0:0,0:0:0:0:
215,356,76243,2,0,P|169:344|111:361,1,100,2|8,0:0|0:0,0:0:0:0:
18,360,76949,6,0,L|7:248,1,100,2|8,0:0|0:0,0:0:0:0:
3,160,77655,1,2,0:0:0:0:
56,75,78008,1,8,0:0:0:0:
144,28,78361,2,0,P|195:16|246:35,1,100,2|8,0:0|0:0,0:0:0:0:
283,54,78890,1,0,0:0:0:0:
283,54,79066,2,0,L|389:48,1,100,8|8,0:0|0:0,0:0:0:0:
473,90,79772,6,0,P|489:139|477:191,1,100,6|8,0:0|0:0,0:0:0:0:
426,270,80478,2,0,L|315:262,1,100,2|8,0:0|0:0,0:0:0:0:
253,193,81184,2,0,L|142:201,1,100,2|8,0:0|0:0,0:0:0:0:
54,184,81890,1,2,0:0:0:0:
7,95,82243,1,8,0:0:0:0:
74,21,82596,6,0,L|173:28,1,100,2|8,0:0|0:0,0:0:0:0:
267,64,83302,2,0,P|259:113|255:187,1,100,2|8,0:0|0:0,0:0:0:0:
205,158,83831,2,0,P|213:207|216:257,1,100
221,307,84361,1,8,0:0:0:0:
137,361,84713,1,2,0:0:0:0:
38,342,85066,2,0,P|33:313|32:278,1,50,2|8,0:0|0:0,0:0:0:0:
28,242,85419,6,0,P|76:240|125:208,1,100,6|8,0:0|0:0,0:0:0:0:
189,141,86125,2,0,L|301:150,1,100,2|8,0:0|0:0,0:0:0:0:
366,85,86831,2,0,L|470:78,1,100,2|8,0:0|0:0,0:0:0:0:
498,173,87537,1,2,0:0:0:0:
495,272,87890,1,8,0:0:0:0:
436,353,88243,6,0,L|331:345,1,100,2|8,0:0|3:0,0:0:0:0:
244,305,88949,2,0,L|182:311,1,50,2|0,0:0|0:0,0:0:0:0:
159,346,89302,2,0,L|97:340,1,50,0|0,3:0|0:0,0:0:0:0:
63,361,89655,1,6,0:0:0:0:
63,361,91066,5,2,0:0:0:0:
63,361,92478,2,0,L|57:292,1,50,10|8,0:0|0:0,0:0:0:0:
22,275,92831,2,0,L|29:205,1,50,10|8,0:0|0:0,0:0:0:0:
35,175,93184,2,0,P|78:155|136:168,1,100,10|10,0:0|0:0,0:0:0:0:
228,166,93890,6,0,L|233:112,1,50,6|0,0:0|0:0,0:0:0:0:
246,68,94243,2,0,P|290:82|352:66,1,100,8|2,0:0|0:0,0:0:0:0:
434,33,94949,1,8,0:0:0:0:
502,105,95302,2,0,L|494:213,1,100,2|8,0:0|0:0,0:0:0:0:
424,275,96008,2,0,L|428:337,1,50,2|0,0:0|0:0,0:0:0:0:
430,374,96361,1,8,0:0:0:0:
329,373,96713,6,0,P|300:368|269:375,1,50,2|0,0:0|0:0,0:0:0:0:
240,340,97066,2,0,P|188:354|141:341,1,100,8|2,0:0|0:0,0:0:0:0:
53,301,97772,1,8,0:0:0:0:
12,209,98125,2,0,L|3:95,1,100,2|8,0:0|0:0,0:0:0:0:
88,54,98831,2,0,L|93:115,1,50,2|8,0:0|0:0,0:0:0:0:
136,127,99184,2,0,L|131:190,1,50,2|8,0:0|0:0,0:0:0:0:
165,213,99537,6,0,P|193:210|222:214,1,50,6|0,0:0|0:0,0:0:0:0:
254,242,99890,2,0,P|261:298|272:350,1,100,8|2,0:0|0:0,0:0:0:0:
366,367,100596,1,8,0:0:0:0:
463,344,100949,2,0,P|472:294|478:245,1,100,2|8,0:0|0:0,0:0:0:0:
417,165,101655,2,0,P|407:115|401:66,1,100,2|8,0:0|0:0,0:0:0:0:
307,30,102361,6,0,P|257:21|201:48,1,100,2|8,0:0|0:0,0:0:0:0:
125,87,103066,1,2,0:0:0:0:
105,185,103419,1,8,0:0:0:0:
175,255,103772,2,0,L|168:368,1,100,2|8,0:0|3:0,0:0:0:0:
70,371,104478,2,0,L|65:307,1,50,2|0,0:0|0:0,0:0:0:0:
23,293,104831,2,0,L|28:227,1,50,2|0,0:0|0:0,0:0:0:0:
32,193,105184,5,0,0:0:0:0:
32,193,106596,1,8,3:0:0:0:
256,192,106684,12,0,112243,0:0:0:0:
