osu file format v14

[General]
AudioFilename: audio.mp3
AudioLeadIn: 0
PreviewTime: 68125
Countdown: 0
SampleSet: Soft
StackLeniency: 0.5
Mode: 0
LetterboxInBreaks: 0
WidescreenStoryboard: 0

[Editor]
Bookmarks: 714,6361,14831,28949,40243,51537,62831,68478,91066,93890,106596,112243
DistanceSpacing: 1.1
BeatDivisor: 4
GridSize: 32
TimelineZoom: 1.8

[Metadata]
Title:Ima Suki ni Naru.
TitleUnicode:今好きになる。
Artist:HoneyWorks feat. sana
ArtistUnicode:HoneyWorks feat. sana
Creator:Serizawa Haruki
Version:Nikakis' Hard
Source:今好きになる。ショートストーリー
Tags:ハニワ 鎖那 さな Short Story 好きになるその瞬間を。 Suki ni Naru Sono Shunkan o. 告白実行委員会〜恋愛シリーズ〜 Kokuhaku Jikkou Iinkai Renai Series Confession Executive Committee Love 初音ミク Hatsune Miku ボーカロイド ボカロ Vocaloid ゴム Gom フェルナンドP Fernando-P シト shito チョリスP Chorisu-P オジ Oji 海賊王 Kaizoku Ou ケイキ cake Jack J_a_c_k Shunao ShogunMoon Nikakis Elcheer Irohas MugiwaraSekai Yudragen ChaoticRed William K William_K Affirmation Neoskylove
BeatmapID:1764158
BeatmapSetID:828753

[Difficulty]
HPDrainRate:5
CircleSize:3.8
OverallDifficulty:6
ApproachRate:7.5
SliderMultiplier:1.5
SliderTickRate:1

[Events]
//Background and Video events
0,0,"bg.jpg",0,0
//Break Periods
//Storyboard Layer 0 (Background)
//Storyboard Layer 1 (Fail)
//Storyboard Layer 2 (Pass)
//Storyboard Layer 3 (Foreground)
//Storyboard Layer 4 (Overlay)
//Storyboard Sound Samples

[TimingPoints]
714,352.941176470588,4,2,1,40,1,0
714,-125,4,2,1,40,0,0
6361,-125,4,2,1,60,0,0
9184,-125,4,2,1,40,0,0
11302,-125,4,2,1,60,0,0
12008,-166.666666666667,4,2,1,40,0,0
13243,-166.666666666667,4,2,1,5,0,0
13419,-100,4,2,1,60,0,0
28949,-111.111111111111,4,2,1,50,0,0
34596,-125,4,2,1,40,0,0
37419,-100,4,2,1,60,0,0
62831,-100,4,2,1,40,0,0
65655,-100,4,2,1,60,0,0
68478,-100,4,2,1,75,0,1
89655,-166.666666666667,4,2,1,75,0,0
92478,-100,4,2,1,75,0,0
93890,-100,4,2,1,60,0,0
105184,-166.666666666667,4,2,1,60,0,0
112243,-100,4,2,1,5,0,0

[Colours]
Combo1 : 214,235,163
Combo2 : 250,128,90
Combo3 : 255,128,192
Combo4 : 185,125,251

[HitObjects]
23,90,714,6,0,L|28:167,1,60,6|0,0:0|0:0,0:0:0:0:
62,218,1066,2,0,P|113:219|133:210,1,60,2|0,0:0|0:0,0:0:0:0:
185,172,1419,2,0,L|188:112,1,60,2|0,0:0|0:0,0:0:0:0:
234,48,1772,2,0,P|285:47|305:56,1,60,2|0,0:0|0:0,0:0:0:0:
335,115,2125,6,0,L|346:263,1,120,2|2,0:0|0:0,0:0:0:0:
279,377,2831,2,0,P|249:383|220:378,1,60,2|0,0:0|0:0,0:0:0:0:
161,327,3184,2,0,L|157:267,1,60,2|0,0:0|0:0,0:0:0:0:
176,191,3537,6,0,L|179:131,1,60,2|0,0:0|0:0,0:0:0:0:
128,71,3890,2,0,P|98:64|69:69,1,60,2|0,0:0|0:0,0:0:0:0:
26,134,4243,2,0,L|29:193,1,60,2|0,0:0|0:0,0:0:0:0:
85,260,4596,1,2,0:0:0:0:
85,260,4772,1,0,0:0:0:0:
149,216,4949,6,0,P|194:197|280:227,1,120,2|2,0:0|0:0,0:0:0:0:
247,367,5655,2,0,L|168:363,1,60,2|0,0:0|0:0,0:0:0:0:
127,313,6008,2,0,P|120:283|125:254,1,60,6|0,0:0|0:0,0:0:0:0:
163,186,6361,6,0,P|179:145|159:62,1,120,8|10,3:0|0:0,0:0:0:0:
98,31,6890,1,8,0:0:0:0:
68,103,7066,2,0,L|65:167,1,60,10|8,0:0|0:0,0:0:0:0:
81,239,7419,2,0,L|84:303,1,60,10|8,0:0|0:0,0:0:0:0:
136,356,7772,6,0,P|187:374|265:343,1,120,10|8,0:0|3:0,0:0:0:0:
294,207,8478,2,0,L|297:154,2,40,2|2|2,0:0|0:0|0:0,0:0:0:0:
320,251,8831,2,0,L|322:290,2,40,2|0|0,0:0|3:0|3:0,0:0:0:0:
363,222,9184,6,0,P|385:175|374:88,1,120
233,58,9890,2,0,L|86:67,1,120
165,212,10596,2,0,L|284:219,1,120
384,340,11302,2,0,L|387:379,2,40,2|2|2,3:0|3:0|3:0,0:0:0:0:
395,289,11655,2,0,L|399:250,2,40,2|2|2,3:0|3:0|3:0,0:0:0:0:
352,311,12008,6,0,B|275:353|214:299|214:299|257:203|212:135,1,314.999990386963
142,100,13419,6,0,P|77:105|57:95,1,75,10|8,0:0|0:0,0:0:0:0:
105,27,13772,2,0,P|170:22|190:32,1,75,10|8,0:0|0:0,0:0:0:0:
244,73,14125,1,8,3:0:0:0:
221,152,14302,2,0,L|165:160,2,37.5,0|8|2,0:0|0:0|0:0,0:0:0:0:
267,230,14655,1,8,0:0:0:0:
267,230,14743,1,8,0:0:0:0:
267,230,14831,6,0,P|317:237|347:225,1,75,6|0,0:0|0:0,0:0:0:0:
410,187,15184,2,0,L|416:36,2,150,8|2|8,0:0|0:0|0:0,0:0:0:0:
407,269,16066,1,0,0:0:0:0:
331,235,16243,6,0,P|247:209|175:239,1,150,2|8,0:0|0:0,0:0:0:0:
143,297,16772,1,0,0:0:0:0:
213,352,16949,1,2,0:0:0:0:
213,352,17125,1,0,0:0:0:0:
287,315,17302,2,0,P|294:271|286:236,1,75,8|0,0:0|0:0,0:0:0:0:
223,189,17655,5,2,0:0:0:0:
223,189,17831,1,0,0:0:0:0:
155,141,18008,2,0,P|132:67|162:-8,2,150,8|2|8,0:0|0:0|0:0,0:0:0:0:
179,227,18890,1,0,0:0:0:0:
244,176,19066,6,0,P|328:150|400:180,1,150,2|8,0:0|0:0,0:0:0:0:
446,224,19596,1,0,0:0:0:0:
392,286,19772,2,0,L|401:326,2,37.5,2|8|8,0:0|0:0|0:0,0:0:0:0:
317,250,20125,2,0,P|308:201|316:170,1,75,8|0,0:0|0:0,0:0:0:0:
343,99,20478,5,6,0:0:0:0:
343,99,20655,1,0,0:0:0:0:
281,44,20831,2,0,L|128:40,2,150,8|2|8,0:0|0:0|0:0,0:0:0:0:
325,113,21713,1,0,0:0:0:0:
255,158,21890,6,0,P|235:211|270:316,1,150,2|8,0:0|0:0,0:0:0:0:
307,364,22419,1,0,0:0:0:0:
226,383,22596,1,2,0:0:0:0:
226,383,22772,1,0,0:0:0:0:
153,342,22949,2,0,P|143:296|155:257,1,75,8|0,0:0|0:0,0:0:0:0:
196,201,23302,5,2,0:0:0:0:
196,201,23478,1,0,0:0:0:0:
270,163,23655,2,0,P|295:116|282:23,2,150,8|2|8,0:0|0:0|0:0,0:0:0:0:
196,201,24537,1,0,0:0:0:0:
257,256,24713,6,0,L|406:267,1,150,2|8,0:0|0:0,0:0:0:0:
489,277,25243,1,0,0:0:0:0:
458,353,25419,2,0,P|400:365|371:357,1,75,2|8,0:0|0:0,0:0:0:0:
352,340,25684,1,8,0:0:0:0:
352,340,25772,2,0,L|348:258,1,75,8|2,0:0|0:0,0:0:0:0:
288,203,26125,6,0,P|241:195|200:212,1,75,6|2,0:0|0:0,0:0:0:0:
141,239,26478,2,0,P|94:247|53:230,1,75,8|0,0:0|0:0,0:0:0:0:
32,219,26743,1,0,3:0:0:0:
32,219,26831,2,0,L|36:137,1,75,2|2,0:0|0:0,0:0:0:0:
85,78,27184,2,0,P|132:70|173:87,1,75,8|2,0:0|0:0,0:0:0:0:
195,94,27449,1,0,3:0:0:0:
195,94,27537,6,0,L|198:168,1,75,2|2,0:0|0:0,0:0:0:0:
220,248,27890,2,0,L|216:322,1,75,8|2,0:0|0:0,0:0:0:0:
279,375,28243,2,0,P|326:383|367:366,1,75,8|2,3:0|0:0,0:0:0:0:
399,308,28596,2,0,L|396:252,3,37.5,8|8|8|8,0:0|0:0|0:0|0:0,0:0:0:0:
361,241,28949,6,0,L|218:232,1,134.999995880127,6|2,0:0|0:0,0:0:0:0:
150,203,29478,1,0,0:0:0:0:
204,142,29655,2,0,L|292:138,1,67.4999979400635,2|0,0:0|0:0,0:0:0:0:
339,93,30008,2,0,P|344:44|335:20,1,67.4999979400635,2|0,0:0|0:0,0:0:0:0:
261,3,30361,5,2,0:0:0:0:
261,3,30537,1,0,0:0:0:0:
228,76,30713,1,2,0:0:0:0:
228,76,30889,1,0,0:0:0:0:
258,151,31066,2,0,P|277:204|246:284,1,134.999995880127,2|2,0:0|0:0,0:0:0:0:
193,209,31596,1,0,0:0:0:0:
258,151,31772,6,0,L|325:154,1,67.4999979400635,2|0,0:0|0:0,0:0:0:0:
411,167,32125,2,0,P|417:199|410:232,1,67.4999979400635,2|0,0:0|0:0,0:0:0:0:
358,295,32478,2,0,L|290:291,1,67.4999979400635,2|0,0:0|0:0,0:0:0:0:
216,325,32831,2,0,L|148:328,1,67.4999979400635,2|0,0:0|0:0,0:0:0:0:
75,293,33184,6,0,P|57:250|91:146,1,134.999995880127,2|2,0:0|0:0,0:0:0:0:
114,95,33713,1,0,0:0:0:0:
183,136,33890,2,0,L|339:141,1,134.999995880127,2|6,0:0|0:0,0:0:0:0:
235,258,34596,6,0,L|91:264,1,120,2|0,0:0|0:0,0:0:0:0:
37,270,35125,1,0,0:0:0:0:
67,341,35302,2,0,P|108:355|208:335,1,120
287,230,36008,6,0,L|292:110,1,120
294,31,36537,1,0,0:0:0:0:
222,62,36713,2,0,P|164:74|106:58,1,120
37,210,37419,6,0,L|32:300,1,75,10|8,0:0|0:0,0:0:0:0:
97,336,37772,2,0,P|145:345|173:337,1,75,10|8,0:0|0:0,0:0:0:0:
220,273,38125,1,10,0:0:0:0:
220,273,38302,1,8,0:0:0:0:
195,194,38478,1,10,0:0:0:0:
195,194,38655,1,8,0:0:0:0:
224,117,38831,6,0,P|295:83|367:111,1,150,2|8,3:0|3:0,0:0:0:0:
430,147,39361,1,0,0:0:0:0:
468,219,39537,2,0,L|465:322,1,75,2|8,0:0|0:0,0:0:0:0:
402,347,39890,2,0,L|404:394,3,37.5,2|2|2|8,0:0|0:0|0:0|0:0,0:0:0:0:
383,312,40243,6,0,P|346:303|310:310,1,75,6|0,0:0|0:0,0:0:0:0:
240,353,40596,2,0,P|181:359|153:346,1,75,8|0,0:0|0:0,0:0:0:0:
96,312,40949,2,0,L|92:228,1,75,2|0,0:0|0:0,0:0:0:0:
111,156,41302,2,0,L|115:72,1,75,8|0,0:0|0:0,0:0:0:0:
183,19,41655,5,2,0:0:0:0:
183,19,41831,1,0,0:0:0:0:
248,69,42008,2,0,L|251:143,1,75,8|0,0:0|0:0,0:0:0:0:
241,183,42272,1,8,0:0:0:0:
241,183,42361,2,0,P|182:189|154:176,1,75,2|8,0:0|0:0,0:0:0:0:
90,156,42713,2,0,P|53:147|17:154,1,75,8|0,0:0|0:0,0:0:0:0:
7,236,43066,6,0,L|1:324,1,75,2|0,0:0|0:0,0:0:0:0:
73,352,43419,2,0,P|109:360|145:353,1,75,8|0,0:0|0:0,0:0:0:0:
216,309,43772,2,0,L|210:234,1,75,2|0,0:0|0:0,0:0:0:0:
206,151,44125,2,0,L|211:76,1,75,8|0,0:0|0:0,0:0:0:0:
283,33,44478,6,0,P|331:54|450:28,1,150,2|8,0:0|0:0,0:0:0:0:
503,14,45008,1,0,0:0:0:0:
503,14,45096,1,8,0:0:0:0:
503,14,45184,2,0,L|497:98,1,75,2|8,0:0|0:0,0:0:0:0:
476,168,45537,2,0,L|482:252,1,75,8|0,0:0|0:0,0:0:0:0:
454,320,45890,6,0,P|386:347|300:313,1,150,2|8,0:0|0:0,0:0:0:0:
249,275,46419,1,0,0:0:0:0:
274,196,46596,2,0,L|282:42,1,150,2|8,0:0|0:0,0:0:0:0:
118,17,47302,6,0,L|125:166,1,150,2|8,0:0|0:0,0:0:0:0:
193,222,47831,1,0,0:0:0:0:
193,222,47919,1,8,0:0:0:0:
193,222,48008,2,0,L|286:228,1,75,2|8,0:0|0:0,0:0:0:0:
346,256,48361,2,0,P|353:320|337:351,1,75,8|0,0:0|0:0,0:0:0:0:
272,356,48713,6,0,L|198:360,1,75,2|0,0:0|0:0,0:0:0:0:
133,307,49066,2,0,P|123:262|129:227,1,75,8|0,0:0|0:0,0:0:0:0:
179,167,49419,2,0,L|253:171,1,75,2|0,0:0|0:0,0:0:0:0:
319,121,49772,2,0,P|329:76|323:41,1,75,8|0,0:0|0:0,0:0:0:0:
248,17,50125,6,0,L|97:12,1,150,2|8,0:0|0:0,0:0:0:0:
22,47,50655,1,0,0:0:0:0:
69,114,50831,1,2,0:0:0:0:
121,178,51008,2,0,L|123:238,2,37.5,2|2|8,0:0|0:0|0:0,0:0:0:0:
197,147,51361,1,2,0:0:0:0:
197,147,51449,1,2,0:0:0:0:
197,147,51537,6,0,L|205:308,1,150,6|2,0:0|0:0,0:0:0:0:
154,362,52066,2,0,P|85:368|59:354,1,75,0|2,3:0|0:0,0:0:0:0:
13,319,52419,1,0,3:0:0:0:
19,236,52596,2,0,L|24:148,1,75,2|0,0:0|0:0,0:0:0:0:
69,92,52949,6,0,L|125:87,4,37.5,6|2|2|2|2,0:0|0:0|0:0|0:0|0:0,0:0:0:0:
167,142,53478,2,0,P|232:148|260:133,1,75,8|2,0:0|0:0,0:0:0:0:
300,88,53831,2,0,P|335:78|372:84,1,75,8|2,0:0|0:0,0:0:0:0:
450,113,54184,1,8,0:0:0:0:
489,185,54361,6,0,L|494:284,1,75,8|0,3:0|0:0,0:0:0:0:
498,300,54625,1,0,3:0:0:0:
498,300,54713,1,2,0:0:0:0:
426,341,54890,2,0,P|390:350|353:344,1,75,8|0,3:0|0:0,0:0:0:0:
312,334,55155,1,0,3:0:0:0:
312,334,55243,1,0,0:0:0:0:
295,251,55419,2,0,L|300:152,1,75,8|0,3:0|0:0,0:0:0:0:
308,93,55772,5,2,0:0:0:0:
231,62,55949,2,0,P|156:59|135:71,1,75,8|2,0:0|0:0,0:0:0:0:
99,116,56302,2,0,L|105:208,1,75,8|2,0:0|0:0,0:0:0:0:
117,272,56655,1,0,3:0:0:0:
117,272,56831,1,0,3:0:0:0:
189,237,57008,1,0,3:0:0:0:
257,282,57184,6,0,P|309:288|338:279,1,75,6|2,0:0|0:0,0:0:0:0:
404,245,57537,2,0,L|406:153,1,75,8|2,0:0|0:0,0:0:0:0:
388,132,57802,1,0,3:0:0:0:
388,132,57890,2,0,P|336:126|307:135,1,75,2|2,0:0|0:0,0:0:0:0:
236,157,58243,2,0,P|184:163|155:154,1,75,8|0,0:0|0:0,0:0:0:0:
89,119,58596,6,0,L|85:33,1,75,2|2,0:0|0:0,0:0:0:0:
158,4,58949,2,0,P|210:-2|239:7,1,75,8|2,0:0|0:0,0:0:0:0:
269,18,59213,1,0,3:0:0:0:
269,18,59302,2,0,L|265:92,1,75,2|2,0:0|0:0,0:0:0:0:
250,174,59655,2,0,L|253:248,1,75,8|0,0:0|0:0,0:0:0:0:
312,306,60008,6,0,P|364:312|393:303,1,75,2|2,0:0|0:0,0:0:0:0:
453,259,60361,2,0,L|456:184,1,75,8|2,0:0|0:0,0:0:0:0:
436,147,60625,1,0,3:0:0:0:
436,147,60713,2,0,P|384:141|355:150,1,75,2|2,0:0|0:0,0:0:0:0:
292,190,61066,2,0,L|295:264,1,75,8|0,0:0|0:0,0:0:0:0:
253,336,61419,6,0,P|170:361|102:342,1,150,2|8,0:0|0:0,0:0:0:0:
34,313,61949,1,2,0:0:0:0:
53,233,62125,2,0,L|48:151,1,75,6|2,0:0|0:0,0:0:0:0:
78,80,62478,2,0,L|81:22,3,37.5,8|8|8|8,0:0|0:0|0:0|0:0,0:0:0:0:
108,109,62831,5,6,0:0:0:0:
368,261,64066,1,0,3:0:0:0:
368,261,64243,1,2,0:0:0:0:
114,368,65655,6,0,L|118:218,1,150,8|10,3:0|0:0,0:0:0:0:
121,135,66184,1,8,0:0:0:0:
194,172,66361,2,0,P|257:177|282:165,1,75,10|8,0:0|0:0,0:0:0:0:
333,124,66713,2,0,L|339:33,1,75,10|8,0:0|0:0,0:0:0:0:
264,10,67066,5,10,0:0:0:0:
264,10,67243,1,8,0:0:0:0:
185,33,67419,1,10,0:0:0:0:
185,33,67596,1,8,0:0:0:0:
106,8,67772,1,0,0:0:0:0:
173,331,68478,6,0,L|272:326,1,75,8|0,3:0|0:0,0:0:0:0:
317,282,68831,2,0,P|321:229|312:207,1,75,8|0,0:0|0:0,0:0:0:0:
242,166,69184,2,0,L|143:161,1,75,2|0,0:0|0:0,0:0:0:0:
108,103,69537,2,0,P|104:50|113:28,1,75,8|0,0:0|0:0,0:0:0:0:
190,5,69890,6,0,L|352:1,1,150,2|8,0:0|0:0,0:0:0:0:
415,33,70419,1,0,0:0:0:0:
419,115,70596,2,0,L|423:204,1,75,2|0,0:0|0:0,0:0:0:0:
378,260,70949,2,0,P|326:270|287:257,1,75,8|0,0:0|0:0,0:0:0:0:
229,232,71302,6,0,P|161:201|89:215,1,150,2|8,0:0|0:0,0:0:0:0:
34,277,71831,1,0,0:0:0:0:
99,327,72008,2,0,L|270:318,1,150,2|8,0:0|0:0,0:0:0:0:
320,277,72537,1,0,0:0:0:0:
264,216,72713,6,0,P|239:166|271:64,1,150,2|8,0:0|0:0,0:0:0:0:
304,8,73243,1,0,0:0:0:0:
221,6,73419,2,0,L|114:3,1,75,2|2,0:0|0:0,0:0:0:0:
111,27,73684,1,8,0:0:0:0:
111,27,73772,2,0,P|104:87|113:109,1,75,2|8,0:0|0:0,0:0:0:0:
129,135,74037,1,8,0:0:0:0:
129,135,74125,6,0,L|238:130,1,75,6|0,0:0|0:0,0:0:0:0:
277,168,74478,2,0,L|357:173,1,75,8|0,0:0|0:0,0:0:0:0:
421,232,74831,1,2,0:0:0:0:
421,232,75008,1,0,0:0:0:0:
381,304,75184,2,0,L|303:308,1,75,8|0,0:0|0:0,0:0:0:0:
226,286,75537,6,0,P|200:221|215:144,1,150,2|8,0:0|0:0,0:0:0:0:
267,81,76066,1,0,0:0:0:0:
331,132,76243,2,0,L|410:135,1,75,2|0,0:0|0:0,0:0:0:0:
478,92,76596,2,0,P|487:50|480:14,1,75,8|0,0:0|0:0,0:0:0:0:
400,1,76949,6,0,L|321:4,1,75,2|0,0:0|0:0,0:0:0:0:
256,49,77302,2,0,P|247:85|252:122,1,75,8|0,0:0|0:0,0:0:0:0:
321,167,77655,2,0,L|395:164,1,75,2|0,0:0|0:0,0:0:0:0:
464,210,78008,2,0,P|472:246|467:283,1,75,8|0,0:0|0:0,0:0:0:0:
419,350,78361,6,0,L|266:344,1,150,2|8,0:0|0:0,0:0:0:0:
193,309,78890,1,0,0:0:0:0:
226,239,79066,1,8,0:0:0:0:
226,239,79155,1,0,3:0:0:0:
226,239,79243,1,2,0:0:0:0:
195,156,79419,2,0,L|192:80,1,75,8|2,0:0|0:0,0:0:0:0:
214,45,79684,1,8,0:0:0:0:
214,45,79772,6,0,P|268:35|304:50,1,75,6|0,0:0|0:0,0:0:0:0:
338,104,80125,2,0,L|335:178,1,75,8|0,0:0|0:0,0:0:0:0:
351,260,80478,2,0,L|353:334,1,75,2|0,0:0|0:0,0:0:0:0:
281,375,80831,2,0,P|227:385|191:370,1,75,8|0,0:0|0:0,0:0:0:0:
142,330,81184,6,0,L|148:178,1,150,2|8,0:0|0:0,0:0:0:0:
156,97,81713,1,0,0:0:0:0:
226,139,81890,2,0,P|280:149|316:134,1,75,2|0,0:0|0:0,0:0:0:0:
363,92,82243,2,0,L|368:13,1,75,8|0,0:0|0:0,0:0:0:0:
285,5,82596,6,0,P|231:-5|195:10,1,75,2|0,0:0|0:0,0:0:0:0:
144,47,82949,2,0,L|148:121,1,75,8|0,0:0|0:0,0:0:0:0:
114,197,83302,2,0,L|109:271,1,75,2|0,0:0|0:0,0:0:0:0:
143,347,83655,1,8,0:0:0:0:
143,347,83831,1,0,0:0:0:0:
200,287,84008,6,0,P|266:257|347:292,1,150,2|8,0:0|0:0,0:0:0:0:
401,331,84537,1,0,0:0:0:0:
448,263,84713,2,0,P|456:207|441:173,1,75,2|8,0:0|0:0,0:0:0:0:
432,153,84978,1,8,0:0:0:0:
432,153,85066,2,0,L|346:147,1,75,2|8,0:0|0:0,0:0:0:0:
321,126,85331,1,8,0:0:0:0:
321,126,85419,6,0,L|164:133,1,150,6|8,0:0|0:0,0:0:0:0:
101,86,85949,1,0,0:0:0:0:
153,22,86125,2,0,L|227:27,1,75,2|0,0:0|0:0,0:0:0:0:
296,73,86478,2,0,P|302:110|294:146,1,75,8|0,0:0|0:0,0:0:0:0:
233,203,86831,6,0,P|175:179|79:207,1,150,2|8,0:0|0:0,0:0:0:0:
21,240,87361,1,0,0:0:0:0:
54,315,87537,2,0,L|135:319,1,75,2|0,0:0|0:0,0:0:0:0:
203,283,87890,2,0,L|295:271,1,75,8|0,0:0|0:0,0:0:0:0:
340,220,88243,6,0,P|349:187|343:146,1,75,2|2,0:0|0:0,0:0:0:0:
272,104,88596,2,0,P|256:151|274:201,1,75,8|0,3:0|0:0,0:0:0:0:
340,220,88949,2,0,L|396:217,2,50,2|2|2,0:0|0:0|0:0,0:0:0:0:
312,257,89302,2,0,L|262:259,2,50,0|0|0,3:0|3:0|3:0,0:0:0:0:
346,283,89655,6,0,P|395:312|487:135,1,314.999990386963,6|8,0:0|0:0,0:0:0:0:
476,127,90978,1,8,0:0:0:0:
476,127,91066,1,2,0:0:0:0:
276,357,92478,6,0,L|366:351,1,75,10|8,0:0|0:0,0:0:0:0:
406,291,92831,2,0,P|414:245|404:212,1,75,10|8,0:0|0:0,0:0:0:0:
341,167,93184,1,10,0:0:0:0:
341,167,93361,1,8,0:0:0:0:
265,134,93537,1,10,0:0:0:0:
265,134,93713,1,8,0:0:0:0:
188,102,93890,6,0,P|179:56|189:23,1,75,6|0,0:0|0:0,0:0:0:0:
265,5,94243,2,0,L|425:12,2,150,8|2|8,0:0|0:0|0:0,0:0:0:0:
198,54,95125,1,0,0:0:0:0:
261,106,95302,6,0,L|410:99,1,150,2|8,0:0|0:0,0:0:0:0:
470,156,95831,1,0,0:0:0:0:
410,213,96008,2,0,L|260:206,1,150,2|8,0:0|0:0,0:0:0:0:
192,253,96537,1,0,0:0:0:0:
186,170,96713,6,0,L|183:95,1,75,2|0,0:0|0:0,0:0:0:0:
129,31,97066,2,0,P|58:8|-5:53,2,150,8|2|8,0:0|0:0|0:0,0:0:0:0:
183,95,97949,1,0,0:0:0:0:
162,174,98125,6,0,L|1:163,1,150,2|8,0:0|0:0,0:0:0:0:
6,246,98655,1,0,0:0:0:0:
6,246,98743,1,8,0:0:0:0:
6,246,98831,2,0,L|1:333,1,75,2|8,0:0|0:0,0:0:0:0:
71,365,99184,2,0,P|120:374|151:366,1,75,2|8,0:0|0:0,0:0:0:0:
203,311,99537,6,0,L|198:224,1,75,6|0,0:0|0:0,0:0:0:0:
145,172,99890,2,0,P|120:97|157:24,2,150,8|2|8,0:0|0:0|0:0,0:0:0:0:
184,244,100772,1,0,0:0:0:0:
255,201,100949,6,0,L|416:191,1,150,2|8,0:0|0:0,0:0:0:0:
464,134,101478,1,0,0:0:0:0:
406,74,101655,2,0,L|332:69,1,75,2|0,0:0|0:0,0:0:0:0:
264,20,102008,2,0,L|190:24,1,75,8|0,0:0|0:0,0:0:0:0:
126,78,102361,6,0,P|116:124|128:163,1,75,2|0,0:0|0:0,0:0:0:0:
196,185,102713,2,0,L|270:181,1,75,8|0,0:0|0:0,0:0:0:0:
329,235,103066,2,0,P|340:271|334:308,1,75,2|0,0:0|0:0,0:0:0:0:
267,356,103419,2,0,L|192:352,1,75,8|0,0:0|0:0,0:0:0:0:
118,314,103772,6,0,L|125:164,1,150,2|8,0:0|3:0,0:0:0:0:
187,109,104302,1,0,0:0:0:0:
263,138,104478,2,0,L|319:135,2,50,2|2|2,0:0|0:0|0:0,0:0:0:0:
254,183,104831,2,0,L|204:185,2,50,2|2|2,0:0|0:0|0:0,0:0:0:0:
290,214,105184,6,0,P|336:235|203:310,1,337.499989700318
188,290,106596,5,8,3:0:0:0:
256,192,106684,12,0,112243,0:0:0:0:
