osu file format v14

[General]
AudioFilename: audio.mp3
AudioLeadIn: 0
PreviewTime: 68125
Countdown: 0
SampleSet: Soft
StackLeniency: 0.4
Mode: 0
LetterboxInBreaks: 0
WidescreenStoryboard: 0

[Editor]
Bookmarks: 714,6361,14831,28949,40243,51537,62831,68478,91066,93890,106596,112243
DistanceSpacing: 1.3
BeatDivisor: 4
GridSize: 4
TimelineZoom: 3.6

[Metadata]
Title:Ima Suki ni Naru.
TitleUnicode:今好きになる。
Artist:HoneyWorks feat. sana
ArtistUnicode:HoneyWorks feat. sana
Creator:Serizawa Haruki
Version:Elcheer's Insane
Source:今好きになる。ショートストーリー
Tags:ハニワ 鎖那 さな Short Story 好きになるその瞬間を。 Suki ni Naru Sono Shunkan o. 告白実行委員会〜恋愛シリーズ〜 Kokuhaku Jikkou Iinkai Renai Series Confession Executive Committee Love 初音ミク Hatsune Miku ボーカロイド ボカロ Vocaloid ゴム Gom フェルナンドP Fernando-P シト shito チョリスP Chorisu-P オジ Oji 海賊王 Kaizoku Ou ケイキ cake Jack J_a_c_k Shunao ShogunMoon Nikakis Elcheer Irohas MugiwaraSekai Yudragen ChaoticRed William K William_K Affirmation Neoskylove
BeatmapID:1750461
BeatmapSetID:828753

[Difficulty]
HPDrainRate:5.5
CircleSize:3.5
OverallDifficulty:7.5
ApproachRate:8.5
SliderMultiplier:1.5
SliderTickRate:1

[Events]
//Background and Video events
0,0,"bg.jpg",0,0
//Break Periods
2,16443,28274
2,34796,36744
//Storyboard Layer 0 (Background)
//Storyboard Layer 1 (Fail)
//Storyboard Layer 2 (Pass)
//Storyboard Layer 3 (Foreground)
//Storyboard Layer 4 (Overlay)
//Storyboard Sound Samples

[TimingPoints]
714,352.941176470588,4,2,1,40,1,0
714,-125,4,2,1,40,0,0
6361,-111.111111111111,4,2,1,60,0,0
9184,-142.857142857143,4,2,1,40,0,0
11302,-111.111111111111,4,2,1,60,0,0
12008,-166.666666666667,4,2,1,40,0,0
13331,-166.666666666667,4,2,1,5,0,0
13419,-111.111111111111,4,2,1,60,0,0
14831,-100,4,2,1,60,0,0
28949,-111.111111111111,4,2,1,50,0,0
34596,-125,4,2,1,40,0,0
37419,-111.111111111111,4,2,1,60,0,0
40243,-100,4,2,1,60,0,0
51537,-111.111111111111,4,2,1,60,0,0
62831,-125,4,2,1,40,0,0
65655,-100,4,2,1,60,0,0
68478,-86.9565217391304,4,2,1,75,0,1
89655,-250,4,2,1,75,0,1
91066,-250,4,2,1,75,0,0
92478,-86.9565217391304,4,2,1,75,0,1
93890,-100,4,2,1,60,0,0
106243,-100,4,2,1,5,0,0
106596,-100,4,2,1,60,0,0
112243,-100,4,2,1,5,0,0

[Colours]
Combo1 : 214,235,163
Combo2 : 250,128,90
Combo3 : 255,128,192
Combo4 : 185,125,251

[HitObjects]
170,233,714,6,0,P|199:195|227:181,1,60,6|0,0:0|0:0,0:0:0:0:
329,144,1066,2,0,P|300:182|272:196,1,60,2|0,0:0|0:0,0:0:0:0:
145,227,1419,2,0,P|174:189|202:175,1,60,2|0,0:0|0:0,0:0:0:0:
350,142,1772,2,0,P|321:180|293:194,1,60,2|0,0:0|0:0,0:0:0:0:
107,219,2125,6,0,P|149:172|205:141,1,120,2|2,0:0|0:0,0:0:0:0:
274,111,2655,1,0,0:0:0:0:
311,186,2831,2,0,P|313:224|325:265,1,60,2|0,0:0|0:0,0:0:0:0:
229,331,3184,2,0,P|234:301|235:271,1,60,2|0,0:0|0:0,0:0:0:0:
318,331,3537,6,0,P|376:344|444:337,1,120,2|2,0:0|0:0,0:0:0:0:
492,276,4066,1,0,0:0:0:0:
421,229,4243,2,0,P|417:199|417:169,1,60,2|0,0:0|0:0,0:0:0:0:
471,105,4596,2,0,P|474:75|474:45,1,60,2|0,0:0|0:0,0:0:0:0:
400,5,4949,6,0,L|270:13,1,120,2|2,0:0|0:0,0:0:0:0:
280,12,5655,2,0,P|286:58|279:86,1,60,2|0,0:0|0:0,0:0:0:0:
209,110,6008,2,0,P|203:156|210:184,1,60,6|0,0:0|0:0,0:0:0:0:
314,240,6361,6,0,P|250:233|252:295,1,134.999995880127,8|10,3:0|0:0,0:0:0:0:
325,341,6890,1,8,0:0:0:0:
161,331,7066,1,10,0:0:0:0:
246,289,7243,1,8,0:0:0:0:
82,279,7419,1,10,0:0:0:0:
240,383,7596,1,8,0:0:0:0:
166,236,7772,6,0,P|128:199|87:184,1,67.4999979400635,10|8,0:0|0:0,0:0:0:0:
12,177,8125,1,8,3:0:0:0:
12,177,8478,6,0,P|7:142|11:114,2,44.999998626709,2|2|2,0:0|0:0|0:0,0:0:0:0:
73,227,8831,2,0,P|78:262|74:290,2,44.999998626709,2|0|0,0:0|3:0|3:0,0:0:0:0:
115,157,9184,6,0,P|140:115|277:141,2,209.999993591309
115,157,11302,6,0,P|77:150|53:153,2,44.999998626709,2|2|2,3:0|3:0|3:0,0:0:0:0:
173,219,11655,2,0,P|211:226|235:223,2,44.999998626709,2|2|2,3:0|3:0|3:0,0:0:0:0:
101,262,12008,6,0,L|95:359,1,89.9999972534181
217,225,12713,2,0,L|223:322,1,89.9999972534181
134,180,13419,5,10,0:0:0:0:
217,225,13596,1,8,0:0:0:0:
54,230,13772,1,10,0:0:0:0:
215,131,13949,1,8,0:0:0:0:
137,275,14125,6,0,P|124:329|130:367,1,67.4999979400635,8|0,3:0|0:0,0:0:0:0:
162,373,14390,1,8,0:0:0:0:
162,373,14478,1,2,0:0:0:0:
299,304,14655,1,8,0:0:0:0:
299,304,14743,1,8,0:0:0:0:
299,304,14831,5,6,0:0:0:0:
256,192,14919,12,2,16243,0:0:0:0:
292,162,28949,6,0,L|298:243,1,67.4999979400635,6|0,0:0|0:0,0:0:0:0:
189,123,29302,2,0,L|183:204,1,67.4999979400635,2|0,0:0|0:0,0:0:0:0:
275,54,29655,2,0,P|222:17|129:31,1,134.999995880127,2|2,0:0|0:0,0:0:0:0:
153,18,30361,5,2,0:0:0:0:
107,84,30537,1,0,0:0:0:0:
73,12,30713,1,2,0:0:0:0:
188,91,30890,1,0,0:0:0:0:
61,150,31066,2,0,L|46:299,1,134.999995880127,2|2,0:0|0:0,0:0:0:0:
47,284,31772,6,0,L|121:277,1,67.4999979400635,2|0,0:0|0:0,0:0:0:0:
177,226,32125,2,0,L|251:233,1,67.4999979400635,2|0,0:0|0:0,0:0:0:0:
308,281,32478,2,0,L|330:203,1,67.4999979400635,2|0,0:0|0:0,0:0:0:0:
390,166,32831,2,0,L|408:230,1,67.4999979400635,2|0,0:0|0:0,0:0:0:0:
315,136,33184,6,0,L|174:122,1,134.999995880127,2|2,0:0|0:0,0:0:0:0:
110,164,33713,1,0,0:0:0:0:
110,164,33802,1,0,0:0:0:0:
110,164,33890,2,0,P|100:210|101:244,1,67.4999979400635,2|0,0:0|0:0,0:0:0:0:
190,296,34243,2,0,P|200:250|199:216,1,67.4999979400635,6|0,0:0|0:0,0:0:0:0:
95,311,34596,5,2,0:0:0:0:
274,223,37419,5,10,0:0:0:0:
257,143,37596,1,8,0:0:0:0:
213,277,37772,1,10,0:0:0:0:
290,302,37949,1,8,0:0:0:0:
197,198,38125,5,10,0:0:0:0:
136,252,38302,1,8,0:0:0:0:
181,119,38478,1,10,0:0:0:0:
213,277,38655,1,8,0:0:0:0:
120,173,38831,5,2,3:0:0:0:
76,307,39008,1,8,0:0:0:0:
197,198,39184,2,0,P|242:198|280:227,1,67.4999979400635,8|0,3:0|0:0,0:0:0:0:
336,251,39537,2,0,P|345:220|342:172,1,67.4999979400635,2|8,0:0|0:0,0:0:0:0:
280,59,39890,1,2,0:0:0:0:
181,119,40066,1,2,0:0:0:0:
181,119,40155,1,8,0:0:0:0:
181,119,40243,6,0,P|126:123|94:115,1,75,6|0,0:0|0:0,0:0:0:0:
27,203,40596,2,0,P|64:198|101:203,1,75,8|0,0:0|0:0,0:0:0:0:
152,277,40949,1,2,0:0:0:0:
190,195,41125,1,0,0:0:0:0:
62,284,41302,2,0,P|45:341|47:371,1,75,8|0,0:0|0:0,0:0:0:0:
152,277,41655,5,2,0:0:0:0:
101,203,41831,1,0,0:0:0:0:
242,270,42008,2,0,P|284:304|298:335,1,75,8|0,0:0|0:0,0:0:0:0:
306,357,42272,1,8,0:0:0:0:
306,357,42361,2,0,L|388:336,1,75,2|8,0:0|0:0,0:0:0:0:
444,247,42713,1,8,0:0:0:0:
444,247,43066,6,0,P|438:191|443:167,1,75,2|0,0:0|0:0,0:0:0:0:
349,112,43419,2,0,P|353:149|346:185,1,75,8|0,0:0|0:0,0:0:0:0:
463,260,43772,2,0,P|457:204|462:180,1,75,2|0,0:0|0:0,0:0:0:0:
327,99,44125,2,0,P|331:136|324:172,1,75,8|0,0:0|0:0,0:0:0:0:
196,107,44478,6,0,P|232:78|340:118,1,150,2|8,0:0|0:0,0:0:0:0:
373,202,45008,1,0,0:0:0:0:
373,202,45096,1,8,0:0:0:0:
373,202,45184,1,2,0:0:0:0:
408,118,45361,1,8,0:0:0:0:
263,156,45537,2,0,L|246:250,1,75,8|0,0:0|0:0,0:0:0:0:
149,312,45890,6,0,B|122:272|122:272|137:154,1,150,2|8,0:0|0:0,0:0:0:0:
147,81,46419,1,0,0:0:0:0:
263,156,46596,2,0,L|352:145,1,75,2|0,0:0|0:0,0:0:0:0:
406,90,46949,2,0,L|495:101,1,75,8|0,0:0|0:0,0:0:0:0:
406,233,47302,6,0,B|384:146|384:146|408:87,1,150,2|8,0:0|0:0,0:0:0:0:
458,12,47831,1,0,0:0:0:0:
458,12,47919,1,8,0:0:0:0:
458,12,48008,1,2,0:0:0:0:
480,99,48184,1,8,0:0:0:0:
319,68,48361,1,8,0:0:0:0:
319,68,48713,6,0,B|277:85|277:85|225:85,1,75,2|0,0:0|0:0,0:0:0:0:
100,44,49066,2,0,B|127:32|127:32|173:33,1,75,8|0,0:0|0:0,0:0:0:0:
335,85,49419,2,0,B|293:102|293:102|241:102,1,75,2|0,0:0|0:0,0:0:0:0:
87,25,49772,2,0,B|114:13|114:13|159:13,1,75,8|0,0:0|0:0,0:0:0:0:
263,102,50125,6,0,B|286:146|286:146|272:276,1,150,2|8,0:0|0:0,0:0:0:0:
257,334,50655,1,0,0:0:0:0:
188,273,50831,5,2,0:0:0:0:
151,263,50919,1,2,0:0:0:0:
114,265,51008,1,2,0:0:0:0:
79,279,51096,1,2,0:0:0:0:
46,296,51184,1,8,0:0:0:0:
51,259,51272,1,2,0:0:0:0:
56,222,51361,1,2,0:0:0:0:
62,184,51449,1,2,0:0:0:0:
68,150,51537,6,0,P|148:160|207:142,1,134.999995880127,6|2,0:0|0:0,0:0:0:0:
260,81,52066,1,0,3:0:0:0:
328,156,52243,2,0,L|339:228,1,67.4999979400635,2|0,0:0|3:0,0:0:0:0:
360,168,52596,2,0,L|371:240,1,67.4999979400635,2|0,0:0|0:0,0:0:0:0:
327,311,52949,5,6,0:0:0:0:
306,298,53037,1,2,0:0:0:0:
284,291,53125,1,2,0:0:0:0:
261,289,53213,1,2,0:0:0:0:
237,292,53302,1,2,0:0:0:0:
173,351,53478,1,8,0:0:0:0:
155,266,53655,1,2,0:0:0:0:
90,324,53831,1,8,0:0:0:0:
119,180,54008,1,2,0:0:0:0:
0,291,54184,1,8,0:0:0:0:
155,266,54361,6,0,P|195:228|208:178,1,101.249996910095,8|0,3:0|3:0,0:0:0:0:
205,148,54713,1,2,0:0:0:0:
47,127,54890,2,0,P|33:172|59:236,1,101.249996910095,8|0,3:0|3:0,0:0:0:0:
75,254,55243,1,2,0:0:0:0:
160,156,55419,2,0,L|151:75,1,67.4999979400635,8|0,3:0|0:0,0:0:0:0:
140,1,55772,5,2,0:0:0:0:
233,121,55949,1,8,0:0:0:0:
70,54,56125,1,2,0:0:0:0:
221,34,56302,1,8,0:0:0:0:
152,88,56478,5,2,0:0:0:0:
233,121,56655,1,0,3:0:0:0:
164,175,56831,1,0,3:0:0:0:
246,206,57008,1,0,3:0:0:0:
176,262,57184,5,6,0:0:0:0:
164,175,57361,1,2,0:0:0:0:
256,296,57537,2,0,L|337:304,1,67.4999979400635,8|2,0:0|0:0,0:0:0:0:
359,308,57802,1,0,3:0:0:0:
359,308,57890,5,2,0:0:0:0:
391,226,58066,1,2,0:0:0:0:
256,296,58243,2,0,L|159:287,1,67.4999979400635,8|0,0:0|0:0,0:0:0:0:
101,278,58596,5,2,0:0:0:0:
134,358,58772,1,2,0:0:0:0:
154,208,58949,2,0,L|147:124,1,67.4999979400635,8|2,0:0|0:0,0:0:0:0:
145,97,59213,1,0,3:0:0:0:
145,97,59302,5,2,0:0:0:0:
71,144,59478,1,2,0:0:0:0:
226,157,59655,2,0,L|293:161,1,67.4999979400635,8|0,0:0|0:0,0:0:0:0:
393,77,60008,5,2,0:0:0:0:
400,164,60184,1,2,0:0:0:0:
315,40,60361,2,0,P|259:29|231:36,1,67.4999979400635,8|2,0:0|0:0,0:0:0:0:
215,43,60625,1,0,3:0:0:0:
215,43,60713,5,2,0:0:0:0:
147,99,60890,1,2,0:0:0:0:
274,110,61066,2,0,P|283:157|274:190,1,67.4999979400635,8|0,0:0|0:0,0:0:0:0:
208,282,61419,5,2,0:0:0:0:
294,296,61596,1,2,0:0:0:0:
177,199,61772,1,8,0:0:0:0:
148,358,61949,2,0,L|106:352,2,22.4999993133545,2|2|2,0:0|0:0|0:0,0:0:0:0:
181,366,62125,1,6,0:0:0:0:
264,214,62302,1,2,0:0:0:0:
121,267,62478,5,8,0:0:0:0:
88,272,62566,1,8,0:0:0:0:
56,261,62655,1,8,0:0:0:0:
35,235,62743,1,8,0:0:0:0:
30,202,62831,1,6,0:0:0:0:
342,141,64066,5,0,3:0:0:0:
313,267,64243,1,2,0:0:0:0:
313,267,64949,6,0,P|283:240|190:233,1,120
206,227,65655,5,8,3:0:0:0:
228,132,65831,1,0,0:0:0:0:
112,255,66008,1,10,0:0:0:0:
300,199,66184,1,8,0:0:0:0:
184,323,66361,1,10,0:0:0:0:
134,160,66537,1,8,0:0:0:0:
278,295,66713,1,10,0:0:0:0:
81,257,66890,1,8,0:0:0:0:
237,104,67066,5,10,0:0:0:0:
184,323,67243,1,8,0:0:0:0:
120,115,67419,1,10,0:0:0:0:
332,192,67596,1,8,0:0:0:0:
61,265,67772,1,0,0:0:0:0:
61,265,68478,6,0,P|52:208|64:148,1,86.2500016450882,8|0,3:0|0:0,0:0:0:0:
172,113,68831,2,0,P|181:170|169:230,1,86.2500016450882,8|0,0:0|0:0,0:0:0:0:
41,279,69184,2,0,P|32:222|44:162,1,86.2500016450882,2|0,0:0|0:0,0:0:0:0:
194,102,69537,2,0,P|203:159|191:219,1,86.2500016450882,8|0,0:0|0:0,0:0:0:0:
112,59,69890,6,0,P|141:25|263:41,1,172.500003290176,2|8,0:0|0:0,0:0:0:0:
318,121,70419,1,0,0:0:0:0:
417,22,70596,2,0,P|406:81|415:135,1,86.2500016450882,2|0,0:0|0:0,0:0:0:0:
327,205,70949,2,0,P|328:162|317:120,1,86.2500016450882,8|0,0:0|0:0,0:0:0:0:
237,228,71302,6,0,P|267:273|391:275,1,172.500003290176,2|8,0:0|0:0,0:0:0:0:
450,210,71831,1,0,0:0:0:0:
317,120,72008,2,0,P|270:114|221:124,1,86.2500016450882,2|0,0:0|0:0,0:0:0:0:
139,189,72361,2,0,P|92:195|43:185,1,86.2500016450882,8|0,0:0|0:0,0:0:0:0:
121,34,72713,6,0,P|153:77|133:195,1,172.500003290176,2|8,0:0|0:0,0:0:0:0:
69,267,73243,1,0,0:0:0:0:
221,215,73419,2,0,P|268:199|314:197,1,86.2500016450882,2|2,0:0|0:0,0:0:0:0:
332,206,73684,1,8,0:0:0:0:
332,206,73772,1,2,0:0:0:0:
224,299,73949,1,8,0:0:0:0:
224,299,74037,1,8,0:0:0:0:
224,299,74125,6,0,P|215:239|225:202,1,86.2500016450882,6|0,0:0|0:0,0:0:0:0:
351,287,74478,2,0,P|356:329|347:371,1,86.2500016450882,8|0,0:0|0:0,0:0:0:0:
224,299,74831,1,2,0:0:0:0:
351,287,75008,1,0,0:0:0:0:
183,371,75184,2,0,P|144:329|143:284,1,86.2500016450882,8|0,0:0|0:0,0:0:0:0:
282,235,75537,6,0,L|217:306,1,86.2500016450882,2|0,0:0|0:0,0:0:0:0:
104,200,75890,2,0,L|188:218,1,86.2500016450882,8|0,0:0|0:0,0:0:0:0:
250,146,76243,1,2,0:0:0:0:
223,298,76419,1,0,0:0:0:0:
156,129,76596,2,0,P|177:85|211:61,1,86.2500016450882,8|0,0:0|0:0,0:0:0:0:
333,166,76949,6,0,L|249:145,1,86.2500016450882,2|0,0:0|0:0,0:0:0:0:
403,54,77302,2,0,L|319:74,1,86.2500016450882,8|0,0:0|0:0,0:0:0:0:
416,186,77655,2,0,L|333:166,1,86.2500016450882,2|0,0:0|0:0,0:0:0:0:
403,278,78008,2,0,L|486:257,1,86.2500016450882,8|0,0:0|0:0,0:0:0:0:
333,166,78361,6,0,B|303:209|303:209|314:352,1,172.500003290176,2|8,0:0|0:0,0:0:0:0:
403,278,78890,1,0,0:0:0:0:
227,240,79066,5,8,0:0:0:0:
198,230,79155,1,0,3:0:0:0:
168,227,79243,1,2,0:0:0:0:
138,231,79331,1,2,0:0:0:0:
110,241,79419,1,8,0:0:0:0:
26,325,79596,1,2,0:0:0:0:
26,325,79684,1,8,0:0:0:0:
26,325,79772,6,0,P|30:270|16:225,1,86.2500016450882,6|0,0:0|0:0,0:0:0:0:
113,156,80125,2,0,P|104:198|109:240,1,86.2500016450882,8|0,0:0|0:0,0:0:0:0:
16,72,80478,2,0,P|24:114|19:156,1,86.2500016450882,2|0,0:0|0:0,0:0:0:0:
186,78,80831,2,0,P|128:69|79:48,1,86.2500016450882,8|0,0:0|0:0,0:0:0:0:
203,177,81184,6,0,P|252:160|360:215,1,172.500003290176,2|8,0:0|0:0,0:0:0:0:
392,296,81713,1,0,0:0:0:0:
438,188,81890,2,0,P|372:207|332:206,1,86.2500016450882,2|0,0:0|0:0,0:0:0:0:
227,270,82243,2,0,P|269:274|310:289,1,86.2500016450882,8|0,0:0|0:0,0:0:0:0:
165,337,82596,6,0,P|138:293|191:187,1,172.500003290176,2|8,0:0|0:0,0:0:0:0:
276,173,83125,1,0,0:0:0:0:
182,85,83302,2,0,P|135:78|90:87,1,86.2500016450882,2|0,0:0|0:0,0:0:0:0:
1,173,83655,2,0,P|43:179|85:172,1,86.2500016450882,8|0,0:0|0:0,0:0:0:0:
28,17,84008,6,0,P|-7:63|7:182,1,172.500003290176,2|8,0:0|0:0,0:0:0:0:
50,253,84537,1,0,0:0:0:0:
155,151,84713,2,0,P|201:138|257:148,1,86.2500016450882,2|8,0:0|0:0,0:0:0:0:
265,156,84978,1,8,0:0:0:0:
265,156,85066,1,2,0:0:0:0:
165,236,85243,1,8,0:0:0:0:
165,236,85331,1,8,0:0:0:0:
165,236,85419,6,0,L|154:144,1,86.2500016450882,6|0,0:0|0:0,0:0:0:0:
277,243,85772,2,0,L|266:328,1,86.2500016450882,8|0,0:0|0:0,0:0:0:0:
165,236,86125,1,2,0:0:0:0:
277,243,86302,1,0,0:0:0:0:
131,315,86478,2,0,P|89:279|80:233,1,86.2500016450882,8|0,0:0|0:0,0:0:0:0:
175,150,86831,6,0,L|165:236,1,86.2500016450882,2|0,0:0|0:0,0:0:0:0:
53,78,87184,2,0,L|86:157,1,86.2500016450882,8|0,0:0|0:0,0:0:0:0:
144,78,87537,1,2,0:0:0:0:
12,190,87713,1,0,0:0:0:0:
175,150,87890,2,0,L|264:142,1,86.2500016450882,8|0,0:0|0:0,0:0:0:0:
372,224,88243,6,0,P|366:280|374:326,1,86.2500016450882,2|2,0:0|0:0,0:0:0:0:
263,227,88596,2,0,P|266:184|260:141,1,86.2500016450882,8|0,3:0|0:0,0:0:0:0:
372,224,88949,6,0,P|414:241|445:243,2,57.5000010967255,2|2|2,0:0|0:0|0:0,0:0:0:0:
326,298,89302,2,0,P|297:304|272:316,2,57.5000010967255,0|0|0,3:0|3:0|3:0,0:0:0:0:
372,224,89655,6,0,P|325:218|278:78,1,210,6|8,0:0|0:0,0:0:0:0:
288,54,90978,1,8,0:0:0:0:
288,54,91066,1,2,0:0:0:0:
288,54,92478,5,10,0:0:0:0:
139,200,92655,1,8,0:0:0:0:
187,27,92831,1,10,0:0:0:0:
314,154,93008,1,8,0:0:0:0:
113,100,93184,1,10,0:0:0:0:
307,31,93361,1,8,0:0:0:0:
89,109,93537,1,10,0:0:0:0:
345,164,93713,1,8,0:0:0:0:
213,295,93890,6,0,P|213:254|226:222,1,75,6|0,0:0|0:0,0:0:0:0:
345,164,94243,2,0,P|358:198|357:236,1,75,8|0,0:0|0:0,0:0:0:0:
259,137,94596,1,2,0:0:0:0:
411,103,94772,1,0,0:0:0:0:
357,236,94949,2,0,P|343:270|344:308,1,75,8|0,0:0|0:0,0:0:0:0:
512,251,95302,6,0,L|442:217,1,75,2|0,0:0|0:0,0:0:0:0:
289,203,95655,2,0,L|357:236,1,75,8|0,0:0|0:0,0:0:0:0:
444,218,96008,1,2,0:0:0:0:
416,302,96184,1,0,0:0:0:0:
384,151,96361,2,0,L|295:111,1,75,8|0,0:0|0:0,0:0:0:0:
217,206,96713,6,0,P|275:209|310:184,1,75,2|0,0:0|0:0,0:0:0:0:
222,63,97066,2,0,P|190:111|194:154,1,75,8|0,0:0|0:0,0:0:0:0:
303,77,97419,1,2,0:0:0:0:
288,202,97596,1,0,0:0:0:0:
189,127,97772,2,0,P|137:109|95:111,1,75,8|0,0:0|0:0,0:0:0:0:
54,227,98125,6,0,P|91:222|125:208,1,75,2|0,0:0|0:0,0:0:0:0:
231,305,98478,2,0,P|196:290|159:286,1,75,8|0,0:0|0:0,0:0:0:0:
136,300,98743,1,8,0:0:0:0:
136,300,98831,1,2,0:0:0:0:
209,214,99008,1,8,0:0:0:0:
179,369,99184,1,2,0:0:0:0:
123,212,99361,1,8,0:0:0:0:
231,305,99537,6,0,P|293:318|321:312,1,75,6|0,0:0|0:0,0:0:0:0:
427,220,99890,2,0,P|389:219|354:231,1,75,8|0,0:0|0:0,0:0:0:0:
451,302,100243,1,2,0:0:0:0:
485,154,100419,1,0,0:0:0:0:
353,231,100596,2,0,P|316:231|281:220,1,75,8|0,0:0|0:0,0:0:0:0:
212,136,100949,6,0,P|174:135|139:147,1,75,2|0,0:0|0:0,0:0:0:0:
161,291,101302,2,0,P|179:258|187:222,1,75,8|0,0:0|0:0,0:0:0:0:
52,169,101655,1,2,0:0:0:0:
35,268,101831,1,0,0:0:0:0:
139,147,102008,2,0,P|113:103|76:83,1,75,8|0,0:0|0:0,0:0:0:0:
115,232,102361,6,0,P|166:231|201:209,1,75,2|0,0:0|0:0,0:0:0:0:
260,136,102713,2,0,P|311:136|346:158,1,75,8|0,0:0|0:0,0:0:0:0:
383,230,103066,1,2,0:0:0:0:
413,145,103243,1,0,0:0:0:0:
288,212,103419,2,0,P|295:266|313:294,1,75,8|0,0:0|0:0,0:0:0:0:
382,329,103772,5,2,0:0:0:0:
223,298,103949,1,0,0:0:0:0:
383,230,104125,2,0,P|436:247|470:287,1,75,8|0,3:0|0:0,0:0:0:0:
309,265,104478,6,0,P|301:219|308:195,2,50,2|2|2,0:0|0:0|0:0,0:0:0:0:
382,329,104831,2,0,L|436:341,2,50,2|2|2,0:0|0:0|0:0,0:0:0:0:
295,363,105184,5,0,0:0:0:0:
256,192,105272,12,0,106243,0:0:0:0:
256,192,106596,5,8,3:0:0:0:
256,192,106684,12,0,112243,0:0:0:0:
