osu file format v14

[General]
AudioFilename: audio.mp3
AudioLeadIn: 0
PreviewTime: 68125
Countdown: 0
SampleSet: Soft
StackLeniency: 0.5
Mode: 0
LetterboxInBreaks: 0
WidescreenStoryboard: 0

[Editor]
Bookmarks: 714,6361,14831,28949,40243,51537,62831,68478,91066,93890,106596,112243
DistanceSpacing: 2.4
BeatDivisor: 2
GridSize: 4
TimelineZoom: 1

[Metadata]
Title:Ima Suki ni Naru.
TitleUnicode:今好きになる。
Artist:HoneyWorks feat. sana
ArtistUnicode:HoneyWorks feat. sana
Creator:Serizawa Haruki
Version:Easy
Source:今好きになる。ショートストーリー
Tags:ハニワ 鎖那 さな Short Story 好きになるその瞬間を。 Suki ni Naru Sono Shunkan o. 告白実行委員会〜恋愛シリーズ〜 Kokuhaku Jikkou Iinkai Renai Series Confession Executive Committee Love 初音ミク Hatsune Miku ボーカロイド ボカロ Vocaloid ゴム Gom フェルナンドP Fernando-P シト shito チョリスP Chorisu-P オジ Oji 海賊王 Kaizoku Ou ケイキ cake Jack J_a_c_k Shunao ShogunMoon Nikakis Elcheer Irohas MugiwaraSekai Yudragen ChaoticRed William K William_K Affirmation Neoskylove
BeatmapID:1736322
BeatmapSetID:828753

[Difficulty]
HPDrainRate:2
CircleSize:2.5
OverallDifficulty:2
ApproachRate:3
SliderMultiplier:0.8
SliderTickRate:1

[Events]
//Background and Video events
0,0,"bg.jpg",0,0
//Break Periods
//Storyboard Layer 0 (Background)
//Storyboard Layer 1 (Fail)
//Storyboard Layer 2 (Pass)
//Storyboard Layer 3 (Foreground)
//Storyboard Layer 4 (Overlay)
//Storyboard Sound Samples

[TimingPoints]
714,352.941176470588,4,2,1,40,1,0
6361,-100,4,2,1,60,0,0
9184,-100,4,2,1,40,0,0
11302,-100,4,2,1,60,0,0
12008,-100,4,2,1,40,0,0
13419,-100,4,2,1,60,0,0
13772,-100,4,2,1,60,0,0
28949,-100,4,2,1,50,0,0
34596,-100,4,2,1,40,0,0
37419,-100,4,2,1,60,0,0
52949,-100,4,2,1,60,0,0
53654,-100,4,2,1,60,0,0
62831,-100,4,2,1,40,0,0
65655,-100,4,2,1,60,0,0
68478,-100,4,2,1,75,0,1
73419,-100,4,2,1,75,0,1
73772,-100,4,2,1,75,0,1
82948,-100,4,2,1,75,0,1
83302,-100,4,2,1,75,0,1
86125,-100,4,2,1,75,0,1
86478,-100,4,2,1,75,0,1
91066,-100,4,2,1,75,0,0
93890,-100,4,2,1,60,0,0
112243,-100,4,2,1,5,0,0

[Colours]
Combo1 : 214,235,163
Combo2 : 250,128,90
Combo3 : 255,128,192
Combo4 : 185,125,251

[HitObjects]
256,130,714,6,0,L|249:209,1,80,6|2,0:0|0:0,0:0:0:0:
202,293,1419,2,0,P|240:304|279:299,1,80,2|2,0:0|0:0,0:0:0:0:
344,228,2125,2,0,L|350:148,1,80,2|2,0:0|0:0,0:0:0:0:
320,56,2831,2,0,P|284:37|244:33,1,80,2|2,0:0|0:0,0:0:0:0:
168,91,3537,6,0,L|88:97,1,80,2|2,0:0|0:0,0:0:0:0:
86,194,4243,2,0,L|166:188,1,80,2|2,0:0|0:0,0:0:0:0:
254,149,4949,2,0,P|262:188|254:227,1,80,2|2,0:0|0:0,0:0:0:0:
176,284,5655,1,2,0:0:0:0:
234,362,6008,1,6,0:0:0:0:
312,304,6361,6,0,L|391:310,1,80,8|10,3:0|0:0,0:0:0:0:
478,269,7066,1,10,0:0:0:0:
486,173,7419,1,10,0:0:0:0:
408,117,7772,2,0,P|369:109|330:117,1,80,10|8,0:0|3:0,0:0:0:0:
252,173,8478,1,2,0:0:0:0:
156,165,8831,1,2,0:0:0:0:
91,94,9184,6,0,P|60:165|91:236,2,160
266,13,11302,1,2,3:0:0:0:
362,22,11655,1,2,3:0:0:0:
403,109,12008,6,0,B|448:182|403:257|403:257|348:271|348:271|308:311|308:311|254:325,1,320,0|10,0:0|0:0,0:0:0:0:
166,348,13772,1,10,0:0:0:0:
87,292,14125,2,0,L|93:212,1,80,8|2,3:0|0:0,0:0:0:0:
54,124,14831,6,0,P|93:116|132:124,1,80,6|8,0:0|0:0,0:0:0:0:
189,201,15537,2,0,L|268:207,1,80,2|8,0:0|0:0,0:0:0:0:
307,120,16243,2,0,L|227:113,1,80,2|8,0:0|0:0,0:0:0:0:
170,36,16949,1,2,0:0:0:0:
259,0,17302,1,8,0:0:0:0:
348,36,17655,6,0,P|387:44|426:36,1,80,2|8,0:0|0:0,0:0:0:0:
512,79,18361,2,0,L|505:158,1,80,2|8,0:0|0:0,0:0:0:0:
496,254,19066,2,0,P|458:242|427:216,1,80,2|8,0:0|0:0,0:0:0:0:
380,133,19772,1,2,0:0:0:0:
332,216,20125,1,8,0:0:0:0:
236,224,20478,6,0,L|156:230,1,80,6|8,0:0|0:0,0:0:0:0:
68,269,21184,2,0,P|60:230|68:191,1,80,2|8,0:0|0:0,0:0:0:0:
145,135,21890,2,0,L|224:128,1,80,2|8,0:0|0:0,0:0:0:0:
313,166,22596,1,2,0:0:0:0:
325,261,22949,1,8,0:0:0:0:
410,305,23302,6,0,P|449:313|488:305,1,80,2|8,0:0|0:0,0:0:0:0:
449,217,24008,2,0,L|442:137,1,80,2|8,0:0|0:0,0:0:0:0:
374,70,24713,2,0,L|294:63,1,80,2|8,0:0|0:0,0:0:0:0:
198,54,25419,1,2,0:0:0:0:
143,133,25772,1,8,0:0:0:0:
184,220,26125,6,0,B|196:244|198:272|198:272|186:297|184:324|184:324|198:348|199:374,1,160,6|2,0:0|0:0,0:0:0:0:
103,380,27184,1,8,0:0:0:0:
26,323,27537,2,0,B|11:271|11:271|25:220|25:220|11:169,1,160,2|8,0:0|3:0,0:0:0:0:
120,10,28949,6,0,L|199:16,1,80,6|2,0:0|0:0,0:0:0:0:
296,26,29655,1,2,0:0:0:0:
337,113,30008,1,2,0:0:0:0:
282,192,30361,2,0,L|202:198,1,80,2|2,0:0|0:0,0:0:0:0:
106,208,31066,1,2,0:0:0:0:
65,295,31419,1,2,0:0:0:0:
121,374,31772,6,0,P|160:382|199:374,1,80,2|2,0:0|0:0,0:0:0:0:
285,331,32478,2,0,P|324:323|363:331,1,80,2|2,0:0|0:0,0:0:0:0:
449,374,33184,2,0,B|484:353|484:353|509:295|484:237,1,160,2|2,0:0|0:0,0:0:0:0:
440,152,34243,1,6,0:0:0:0:
355,108,34596,6,0,B|277:83|277:133|199:108,1,160,2|0,0:0|0:0,0:0:0:0:
10,69,36008,2,0,B|0:108|0:108|10:147|10:147|-5:186|10:225,1,160
176,320,37419,6,0,L|255:326,1,80,10|10,0:0|0:0,0:0:0:0:
264,231,38125,2,0,L|184:224,1,80,10|10,0:0|0:0,0:0:0:0:
106,168,38831,2,0,B|91:129|106:90|106:90|138:64|145:22,1,160,2|2,3:0|0:0,0:0:0:0:
337,10,40243,6,0,P|345:49|337:88,1,80,6|8,0:0|0:0,0:0:0:0:
289,171,40949,1,2,0:0:0:0:
385,171,41302,1,8,0:0:0:0:
433,254,41655,2,0,P|441:293|433:332,1,80,2|8,0:0|0:0,0:0:0:0:
350,380,42361,1,2,0:0:0:0:
266,332,42713,1,8,0:0:0:0:
170,340,43066,6,0,L|90:346,1,80,2|8,0:0|0:0,0:0:0:0:
36,268,43772,2,0,L|42:188,1,80,2|8,0:0|0:0,0:0:0:0:
111,120,44478,2,0,B|170:98|229:120|229:120|264:99,1,160,2|2,0:0|0:0,0:0:0:0:
346,51,45537,1,8,0:0:0:0:
434,90,45890,6,0,B|467:114|471:157|471:157|461:196|461:196|471:235,1,160,2|2,0:0|0:0,0:0:0:0:
496,328,46949,1,8,0:0:0:0:
403,352,47302,2,0,B|325:373|325:373|248:352,1,160,2|2,0:0|0:0,0:0:0:0:
157,328,48361,1,8,0:0:0:0:
101,250,48713,6,0,P|93:211|101:172,1,80,2|8,0:0|0:0,0:0:0:0:
165,100,49419,2,0,P|204:92|243:100,1,80,2|8,0:0|0:0,0:0:0:0:
322,155,50125,2,0,B|348:201|348:201|348:307,1,160,2|2,0:0|0:0,0:0:0:0:
265,356,51184,1,8,0:0:0:0:
181,308,51537,6,0,L|101:314,1,80,6|2,0:0|0:0,0:0:0:0:
93,219,52243,2,0,L|172:212,1,80,2|2,0:0|0:0,0:0:0:0:
252,157,52949,2,0,B|284:146|315:157|315:157|343:140|343:140|375:151|407:140,1,160,6|2,0:0|0:0,0:0:0:0:
492,100,54008,1,2,0:0:0:0:
479,4,54361,6,0,P|442:18|413:45,1,80,8|2,3:0|0:0,0:0:0:0:
405,141,55066,2,0,P|413:180|405:219,1,80,0|8,0:0|3:0,0:0:0:0:
317,180,55772,1,2,0:0:0:0:
221,188,56125,2,0,L|141:194,2,80,2|2|0,0:0|0:0|3:0,0:0:0:0:
262,101,57184,6,0,L|255:21,1,80,6|8,0:0|0:0,0:0:0:0:
159,29,57890,2,0,L|79:35,1,80,2|8,0:0|0:0,0:0:0:0:
11,103,58596,2,0,B|-19:132|-22:174|-22:174|6:249,1,160,2|2,0:0|0:0,0:0:0:0:
38,339,59655,1,8,0:0:0:0:
128,373,60008,6,0,P|167:381|206:373,1,80,2|8,0:0|0:0,0:0:0:0:
292,330,60713,2,0,P|331:322|370:330,1,80,2|8,0:0|0:0,0:0:0:0:
457,373,61419,2,0,P|506:321|450:277,1,160,2|6,0:0|0:0,0:0:0:0:
370,330,62478,1,8,0:0:0:0:
284,285,62831,5,6,0:0:0:0:
284,285,64066,2,0,L|287:245,1,40,0|2,3:0|0:0,0:0:0:0:
304,53,64949,1,0,0:0:0:0:
116,14,65655,6,0,P|108:53|116:92,1,80,8|10,3:0|0:0,0:0:0:0:
172,170,66361,2,0,L|165:249,1,80,10|10,0:0|0:0,0:0:0:0:
79,291,67066,2,0,P|137:341|214:332,1,160,10|0,0:0|0:0,0:0:0:0:
331,181,68478,6,0,P|370:173|409:181,1,80,8|8,3:0|0:0,0:0:0:0:
488,236,69184,1,2,0:0:0:0:
480,332,69537,1,8,0:0:0:0:
393,373,69890,2,0,L|313:366,1,80,2|8,0:0|0:0,0:0:0:0:
234,310,70596,1,2,0:0:0:0:
242,215,70949,1,8,0:0:0:0:
163,160,71302,6,0,P|124:152|85:160,1,80,2|8,0:0|0:0,0:0:0:0:
6,215,72008,1,2,0:0:0:0:
37,306,72361,1,8,0:0:0:0:
131,328,72713,2,0,L|124:248,1,80,2|8,0:0|0:0,0:0:0:0:
163,160,73419,1,2,0:0:0:0:
203,73,73772,1,2,0:0:0:0:
299,65,74125,6,0,L|378:58,1,80,6|8,0:0|0:0,0:0:0:0:
433,138,74831,1,2,0:0:0:0:
393,225,75184,1,8,0:0:0:0:
297,233,75537,2,0,L|217:239,1,80,2|8,0:0|0:0,0:0:0:0:
163,160,76243,1,2,0:0:0:0:
67,151,76596,1,8,0:0:0:0:
12,230,76949,6,0,P|4:269|12:308,1,80,2|8,0:0|0:0,0:0:0:0:
85,371,77655,2,0,P|124:379|163:371,1,80,2|8,0:0|0:0,0:0:0:0:
249,328,78361,2,0,P|288:320|327:328,1,80,2|8,0:0|0:0,0:0:0:0:
413,371,79066,1,8,0:0:0:0:
468,292,79419,1,8,0:0:0:0:
427,205,79772,6,0,L|433:125,1,80,6|8,0:0|0:0,0:0:0:0:
393,39,80478,1,2,0:0:0:0:
297,30,80831,1,8,0:0:0:0:
242,109,81184,2,0,P|234:147|242:186,1,80,2|8,0:0|0:0,0:0:0:0:
297,266,81890,1,2,0:0:0:0:
257,354,82243,1,8,0:0:0:0:
161,362,82596,6,0,L|81:368,1,80,2|8,0:0|0:0,0:0:0:0:
27,290,83302,1,2,0:0:0:0:
67,203,83655,1,8,0:0:0:0:
12,124,84008,2,0,P|4:85|12:46,1,80,2|8,0:0|0:0,0:0:0:0:
100,85,84713,1,2,0:0:0:0:
196,77,85066,1,2,0:0:0:0:
251,155,85419,6,0,L|330:161,1,80,6|8,0:0|0:0,0:0:0:0:
410,216,86125,1,2,0:0:0:0:
402,312,86478,1,8,0:0:0:0:
314,352,86831,2,0,L|234:345,1,80,2|8,0:0|0:0,0:0:0:0:
155,290,87537,1,2,0:0:0:0:
163,194,87890,1,8,0:0:0:0:
124,106,88243,6,0,P|163:98|202:106,1,80,2|8,0:0|3:0,0:0:0:0:
288,149,88949,2,0,P|327:157|366:149,1,80,2|0,0:0|3:0,0:0:0:0:
452,192,89655,2,0,B|503:263|484:345|484:345|455:295|386:300|365:243,1,320,6|2,0:0|0:0,0:0:0:0:
366,245,92478,6,0,L|286:238,1,80,10|10,0:0|0:0,0:0:0:0:
198,277,93184,2,0,P|190:238|198:199,1,80,10|10,0:0|0:0,0:0:0:0:
275,142,93890,6,0,L|354:148,1,80,6|8,0:0|0:0,0:0:0:0:
442,108,94596,2,0,P|457:71|456:31,1,80,2|8,0:0|0:0,0:0:0:0:
363,53,95302,2,0,L|283:46,1,80,2|8,0:0|0:0,0:0:0:0:
188,37,96008,1,2,0:0:0:0:
133,116,96361,1,8,0:0:0:0:
174,203,96713,6,0,P|181:241|173:280,1,80,2|8,0:0|0:0,0:0:0:0:
134,369,97419,2,0,P|173:377|212:369,1,80,2|8,0:0|0:0,0:0:0:0:
270,292,98125,2,0,L|349:298,1,80,2|8,0:0|0:0,0:0:0:0:
446,308,98831,1,2,0:0:0:0:
501,229,99184,1,2,0:0:0:0:
460,142,99537,6,0,L|466:62,2,80,6|8|2,0:0|0:0|0:0,0:0:0:0:
405,221,100596,1,8,0:0:0:0:
350,299,100949,2,0,P|311:307|272:299,1,80,2|8,0:0|0:0,0:0:0:0:
189,251,101655,1,2,0:0:0:0:
102,292,102008,1,8,0:0:0:0:
23,236,102361,6,0,L|29:156,1,80,2|8,0:0|0:0,0:0:0:0:
83,76,103066,2,0,P|122:68|161:76,1,80,2|8,0:0|0:0,0:0:0:0:
249,37,103772,2,0,P|257:76|249:115,1,80,2|8,0:0|3:0,0:0:0:0:
201,198,104478,1,2,0:0:0:0:
297,198,104831,1,2,0:0:0:0:
345,115,105184,6,0,B|345:55|395:15|395:15|435:45|470:124|410:124|435:203,1,320,0|8,0:0|3:0,0:0:0:0:
256,192,106772,12,0,112243,0:0:0:0:
