osu file format v14

[General]
AudioFilename: audio.mp3
AudioLeadIn: 0
PreviewTime: 77481
Countdown: 0
SampleSet: Soft
StackLeniency: 0.7
Mode: 0
LetterboxInBreaks: 0
WidescreenStoryboard: 1

[Editor]
Bookmarks: 174545
DistanceSpacing: 0.7
BeatDivisor: 16
GridSize: 4
TimelineZoom: 1

[Metadata]
Title:Ijiwaru na Deai
TitleUnicode:イジワルな出会い
Artist:HoneyWorks feat. sana
ArtistUnicode:HoneyWorks feat. sana
Creator:zyoi
Version:ZZHBOY's Normal
Source:
Tags:鎖那 Japanese J-pop Jpop pop ハニワ 初音ミク Hatsune Miku VOCALOID 好きになるその瞬間を。 Suki ni naru sono Shunkan o. 告白実行委員会 Kokuhaku Jikkou Iinkai -_E_n_j_u_- enju Enjoy wring Rizia Kawaiwkyik iMage-- Meg ZZHBOY
BeatmapID:2953125
BeatmapSetID:495222

[Difficulty]
HPDrainRate:4
CircleSize:3.5
OverallDifficulty:4
ApproachRate:5.5
SliderMultiplier:1.20000000596046
SliderTickRate:1

[Events]
//Background and Video events
0,0,"BG.png",0,0
//Break Periods
2,100094,109857
2,176838,186601
//Storyboard Layer 0 (Background)
//Storyboard Layer 1 (Fail)
//Storyboard Layer 2 (Pass)
//Storyboard Layer 3 (Foreground)
//Storyboard Layer 4 (Overlay)
//Storyboard Sound Samples

[TimingPoints]
825,348.837209302326,4,2,2,50,1,0
6406,-100,4,2,2,60,0,0
10592,-100,4,2,3,30,0,0
11290,-100,4,2,3,45,0,0
11987,-100,4,2,1,60,0,0
14255,-100,4,2,2,60,0,0
14778,-100,4,2,1,60,0,0
18441,-100,4,2,2,60,0,0
18964,-100,4,2,1,60,0,0
20359,-100,4,2,1,50,0,0
25592,-100,4,2,1,60,0,0
33790,-100,4,2,2,60,0,0
33964,-100,4,2,1,60,0,0
37104,-100,4,2,3,60,0,0
37452,-100,4,2,1,60,0,0
38499,-100,4,2,3,60,0,0
38848,-100,4,2,1,60,0,0
39894,-100,4,2,3,60,0,0
40243,-100,4,2,1,60,0,0
41290,-100,4,2,3,60,0,0
41464,-100,4,2,1,60,0,0
41638,-100,4,2,2,60,0,0
41987,-100,4,2,1,60,0,0
52801,-100,4,2,2,60,0,0
52976,-100,4,2,1,60,0,0
53848,-100,4,2,3,60,0,0
54022,-100,4,2,1,60,0,0
55243,-100,4,2,3,60,0,0
55418,-100,4,2,1,60,0,0
56638,-100,4,2,3,60,0,0
56813,-100,4,2,1,60,0,0
58034,-100,4,2,3,60,0,0
58208,-100,4,2,1,60,0,0
64662,-100,4,2,2,60,0,0
65011,-100,4,2,1,60,0,0
66755,-100,4,2,2,60,0,0
67104,-100,4,2,1,60,0,0
67801,-100,4,2,1,60,0,0
72336,-100,4,2,2,60,0,0
72685,-100,4,2,1,60,0,0
75999,-100,4,2,2,60,0,0
77569,-100,4,2,1,70,0,1
88731,-100,4,2,1,60,0,0
98848,-100,4,2,2,60,0,0
99197,-100,4,2,1,60,0,0
99894,-100,4,2,1,50,0,0
111057,-100,4,2,1,60,0,0
123964,-100,4,2,2,60,0,0
124138,-100,4,2,1,60,0,0
129197,-100,4,2,2,60,0,0
129894,-100,4,2,1,60,0,0
133383,-100,4,2,2,40,0,0
134429,-100,4,2,1,55,0,0
134778,-100,4,2,1,70,0,1
145941,-100,4,2,2,60,0,0
152918,-100,4,2,1,60,0,0
176638,-100,4,2,2,50,0,0
187801,-100,4,2,1,80,0,1
196173,-100,4,3,1,60,0,0
197569,-100,4,3,3,60,0,0
197830,-100,4,3,1,60,0,0
198266,-100,4,2,1,80,0,0
198964,-100,4,2,1,80,0,1
208644,-100,4,2,1,40,0,0
210127,333.333333333333,4,2,2,50,1,0
210210,480,4,2,2,50,1,0
210690,545.454545454546,4,2,2,50,1,0
211235,487.80487804878,4,2,2,50,1,0
211722,560.747663551402,4,2,2,50,1,0
212282,582.52427184466,4,2,2,50,1,0
212864,545.454545454546,4,2,2,50,1,0
213136,600,4,2,2,50,1,0
213436,571.428571428571,4,2,2,50,1,0
214007,631.578947368421,4,2,2,50,1,0
214638,600,4,2,2,50,1,0
214938,530.973451327434,4,2,2,50,1,0
215203,600,4,2,2,50,1,0
215503,631.578947368421,4,2,2,50,1,0
215818,666.666666666667,4,2,2,50,1,0
216484,631.578947368421,4,2,2,50,1,0
216799,800,4,2,2,50,1,0
217199,769.230769230769,4,2,2,50,1,0
217968,937.5,4,2,2,50,1,0
218436,1363.63636363636,4,2,2,50,1,0

[Colours]
Combo1 : 128,255,255
Combo2 : 255,128,192
Combo3 : 255,255,128
Combo4 : 201,147,255

[HitObjects]
8,192,825,6,0,P|44:216|123:219,1,120.000000596046,2|0,0:0|0:0,0:0:0:0:
124,137,1522,2,0,P|160:113|239:110,1,120.000000596046,2|0,0:0|0:0,0:0:0:0:
270,133,2045,1,0,0:0:0:0:
303,160,2220,2,0,P|302:227|286:289,2,120.000000596046,2|0|2,0:0|0:0|0:0,0:0:0:0:
380,128,3266,2,0,L|441:129,1,60.000000298023,2|0,0:0|0:0,0:0:0:0:
470,158,3615,6,0,P|492:212|475:268,1,120.000000596046,2|2,0:0|0:0,0:0:0:0:
449,301,4138,1,0,0:0:0:0:
420,332,4313,2,0,P|369:301|311:312,1,120.000000596046,2|0,0:0|0:0,0:0:0:0:
236,349,5011,2,0,P|177:359|123:323,2,120.000000596046,2|0|2,0:0|0:0|0:0,0:0:0:0:
195,275,6057,2,0,L|194:210,1,60.000000298023,4|4,0:3|0:3,0:0:0:0:
183,174,6406,6,0,P|112:163|59:193,1,120.000000596046,2|4,0:0|0:3,0:0:0:0:
22,252,7104,2,0,P|8:152|8:112,1,120.000000596046,2|4,0:0|0:3,0:0:0:0:
20,92,7627,1,0,0:0:0:0:
35,52,7801,2,0,P|140:42|171:42,1,120.000000596046,2|4,0:0|0:3,0:0:0:0:
197,114,8499,2,0,P|302:124|333:124,1,120.000000596046,2|4,0:0|0:3,0:0:0:0:
349,98,9022,1,0,0:0:0:0:
377,66,9197,6,0,P|444:66|503:71,1,120.000000596046,2|4,0:0|0:3,0:0:0:0:
502,111,9720,1,0,0:3:0:0:
505,152,9894,2,0,P|508:250|508:286,1,120.000000596046,2|4,0:0|0:3,0:0:0:0:
342,240,10941,5,2,0:0:0:0:
339,323,11290,1,2,0:0:0:0:
172,345,11987,5,6,0:0:0:0:
93,316,12336,2,0,P|72:271|72:240,1,60.000000298023,2|0,0:0|0:0,0:0:0:0:
90,223,12685,2,0,P|159:204|240:223,1,120.000000596046,2|2,0:0|0:2,0:0:0:0:
274,259,13383,1,6,0:0:0:0:
341,209,13731,1,2,0:0:0:0:
320,127,14080,1,2,0:0:0:0:
235,126,14429,1,0,0:0:0:0:
206,209,14778,6,0,P|146:204|90:223,1,120.000000596046,6|12,0:0|0:3,0:0:0:0:
55,199,15301,1,4,0:3:0:0:
20,174,15476,2,0,P|10:129|29:51,1,120.000000596046,2|4,0:0|0:3,0:0:0:0:
107,74,16173,2,0,P|177:84|234:79,1,120.000000596046,6|2,0:0|0:0,0:0:0:0:
260,56,16697,1,0,0:0:0:0:
296,33,16871,2,0,P|349:10|405:28,1,120.000000596046,6|2,0:0|0:0,0:0:0:0:
354,96,17569,6,0,P|346:165|379:212,1,120.000000596046,6|2,0:0|0:0,0:0:0:0:
445,246,18266,2,0,L|507:246,2,60.000000298023,2|12|0,0:0|0:0|0:0,0:0:0:0:
375,294,18964,2,0,P|316:285|264:314,1,120.000000596046,2|2,0:0|0:0,0:0:0:0:
235,343,19487,2,0,P|177:329|138:285,1,120.000000596046,0|2,0:0|0:0,0:0:0:0:
133,244,20011,1,2,0:0:0:0:
256,192,20359,12,2,24545,0:0:0:0:
51,62,25941,6,0,P|113:36|197:49,1,120.000000596046,6|8,0:0|0:0,0:0:0:0:
203,112,26638,1,2,0:0:0:0:
285,129,26987,1,8,0:0:0:0:
353,80,27336,2,0,P|426:83|488:142,1,120.000000596046,2|8,0:0|0:0,0:0:0:0:
478,147,27859,1,0,0:0:0:0:
483,188,28034,2,0,L|485:310,1,120.000000596046,2|8,0:0|0:0,0:0:0:0:
452,334,28557,1,0,0:0:0:0:
415,355,28731,6,0,P|348:361|255:333,1,120.000000596046,2|8,0:0|0:0,0:0:0:0:
274,269,29429,2,0,P|207:263|114:291,1,120.000000596046,2|8,0:0|0:0,0:0:0:0:
91,329,30127,2,0,P|45:260|52:182,1,120.000000596046,2|8,0:0|0:0,0:0:0:0:
63,188,30650,2,0,L|204:159,1,120.000000596046,0|4,0:0|0:0,0:0:0:0:
219,179,31173,1,8,0:0:0:0:
293,216,31522,6,0,P|364:222|422:177,1,120.000000596046,4|8,0:1|0:0,0:0:0:0:
486,178,32220,2,0,L|481:46,1,120.000000596046,2|8,0:0|0:0,0:0:0:0:
401,83,32918,2,0,P|347:108|289:100,1,120.000000596046,2|8,0:0|0:0,0:0:0:0:
255,75,33441,1,0,0:0:0:0:
224,45,33615,2,0,P|190:37|141:49,2,60.000000298023,2|12|8,0:0|0:0|0:0,0:0:0:0:
187,120,34313,6,0,P|191:199|214:245,1,120.000000596046,2|8,0:0|0:0,0:0:0:0:
236,266,34836,2,0,L|354:247,1,120.000000596046,0|0,0:0|3:0,0:0:0:0:
396,242,35359,1,8,0:0:0:0:
443,311,35708,2,0,L|512:322,2,60.000000298023,2|2|8,0:0|0:0|0:0,0:0:0:0:
416,343,36231,2,0,L|297:361,1,120.000000596046,0|2,0:0|0:0,0:0:0:0:
257,348,36755,2,0,P|224:343|172:348,1,60.000000298023,8|8,0:0|0:0,0:0:0:0:
158,359,37104,6,0,P|86:358|45:296,1,120.000000596046,6|8,0:0|0:0,0:0:0:0:
40,244,37801,2,0,L|-25:251,2,60.000000298023,2|4|8,0:0|0:3|0:0,0:0:0:0:
108,195,38499,2,0,P|123:125|86:82,1,120.000000596046,2|8,0:0|0:0,0:0:0:0:
59,13,39197,2,0,L|-6:20,2,60.000000298023,2|4|8,0:0|0:3|0:0,0:0:0:0:
142,15,39894,6,0,P|223:33|282:17,1,120.000000596046,2|8,0:0|0:0,0:0:0:0:
336,57,40592,2,0,L|426:42,2,60.000000298023,2|4|8,0:0|0:3|0:0,0:0:0:0:
280,119,41290,2,0,P|286:197|323:244,1,120.000000596046,2|12,0:0|0:0,0:0:0:0:
378,274,41987,2,0,L|468:259,2,60.000000298023,0|2|8,0:0|0:0|0:0,0:0:0:0:
356,310,42511,1,8,0:0:0:0:
332,344,42685,6,0,P|270:370|186:357,1,120.000000596046,6|8,0:0|0:0,0:0:0:0:
243,288,43382,1,2,0:0:0:0:
187,224,43731,1,8,0:0:0:0:
161,304,44080,2,0,P|88:301|26:235,1,120.000000596046,2|8,0:0|0:0,0:0:0:0:
42,233,44604,1,0,0:0:0:0:
34,191,44778,2,0,L|32:69,1,120.000000596046,2|8,0:0|0:0,0:0:0:0:
64,44,45301,1,0,0:0:0:0:
101,25,45476,6,0,P|168:16|239:35,1,120.000000596046,2|8,0:0|0:0,0:0:0:0:
237,112,46173,2,0,P|304:118|397:90,1,120.000000596046,2|8,0:0|0:0,0:0:0:0:
421,55,46871,2,0,P|467:124|460:202,1,120.000000596046,2|8,0:0|0:0,0:0:0:0:
449,196,47394,2,0,L|308:225,1,120.000000596046,0|8,0:0|0:0,0:0:0:0:
293,205,47917,1,8,0:0:0:0:
219,168,48266,6,0,P|148:162|90:207,1,120.000000596046,6|8,0:0|0:0,0:0:0:0:
26,206,48964,2,0,L|31:338,1,120.000000596046,2|8,0:0|0:0,0:0:0:0:
111,301,49662,2,0,P|164:275|222:283,1,120.000000596046,2|8,0:0|0:0,0:0:0:0:
257,309,50185,1,0,0:0:0:0:
288,339,50359,2,0,P|322:347|371:335,2,60.000000298023,2|8|8,0:0|0:0|0:0,0:0:0:0:
325,264,51057,6,0,P|321:185|298:139,1,120.000000596046,2|12,0:0|0:0,0:0:0:0:
276,118,51580,2,0,L|158:137,1,120.000000596046,0|0,0:0|3:0,0:0:0:0:
116,142,52103,1,12,0:0:0:0:
70,71,52452,2,0,L|1:60,2,60.000000298023,2|2|12,0:0|0:0|0:0,0:0:0:0:
110,56,52976,2,0,L|231:36,1,120.000000596046,0|2,0:0|0:0,0:0:0:0:
268,50,53499,2,0,P|301:55|353:50,1,60.000000298023,12|4,0:0|0:3,0:0:0:0:
357,24,53848,6,0,P|429:25|470:87,1,120.000000596046,6|8,0:0|0:0,0:0:0:0:
472,140,54545,2,0,L|537:133,2,60.000000298023,2|4|8,0:0|0:3|0:0,0:0:0:0:
404,189,55243,2,0,P|389:259|426:302,1,120.000000596046,2|8,0:0|0:0,0:0:0:0:
453,371,55941,2,0,L|518:364,2,60.000000298023,2|4|8,0:0|0:3|0:0,0:0:0:0:
370,369,56638,6,0,P|289:351|230:367,1,120.000000596046,2|8,0:0|0:0,0:0:0:0:
176,327,57336,2,0,L|86:342,2,60.000000298023,2|4|8,0:0|0:3|0:0,0:0:0:0:
232,265,58034,2,0,P|226:187|189:140,1,120.000000596046,2|12,0:0|0:0,0:0:0:0:
134,110,58731,2,0,L|44:125,2,60.000000298023,4|8|8,0:3|0:0|0:0,0:0:0:0:
182,41,59429,6,0,L|329:62,1,120.000000596046,6|8,0:0|0:0,0:0:0:0:
340,44,59952,1,0,0:0:0:0:
380,30,60127,2,0,P|431:98|410:152,1,120.000000596046,2|8,0:0|0:0,0:0:0:0:
353,169,60825,2,0,L|348:304,1,120.000000596046,2|8,0:0|0:0,0:0:0:0:
307,299,61348,1,0,0:0:0:0:
266,311,61522,2,0,L|275:370,2,60.000000298023,2|2|8,0:0|0:0|0:0,0:0:0:0:
181,310,62220,5,2,0:0:0:0:
111,263,62569,1,10,0:0:0:0:
89,181,62918,1,2,0:0:0:0:
114,101,63266,1,8,0:0:0:0:
182,52,63615,2,0,P|271:76|334:49,1,120.000000596046,2|8,0:0|0:0,0:0:0:0:
370,29,64313,2,0,P|424:6|483:11,1,120.000000596046,0|12,0:0|0:0,0:0:0:0:
497,94,65011,5,4,0:0:0:0:
472,174,65359,1,8,0:0:0:0:
486,256,65708,2,0,L|486:324,1,60.000000298023,2|2,0:0|0:0,0:0:0:0:
451,340,66057,2,0,P|421:350|383:346,1,60.000000298023,8|0,0:0|0:0,0:0:0:0:
381,308,66406,2,0,P|317:294|239:307,1,120.000000596046,2|12,0:0|0:0,0:0:0:0:
224,283,66929,1,0,0:0:0:0:
182,291,67104,2,0,L|175:373,2,60.000000298023,4|0|4,0:3|0:0|0:3,0:0:0:0:
140,217,67801,6,0,P|74:232|12:232,2,120.000000596046,6|2|8,0:0|0:0|0:0,0:0:0:0:
164,136,68848,1,0,3:0:0:0:
194,57,69197,2,0,P|257:54|284:62,1,60.000000298023,2|8,0:0|0:0,0:0:0:0:
284,81,69545,2,0,P|357:98|427:87,1,120.000000596046,2|8,3:2|0:0,0:0:0:0:
453,27,70243,1,0,3:0:0:0:
497,99,70592,6,0,P|507:190|487:229,1,120.000000596046,6|0,0:0|0:0,0:0:0:0:
456,226,71115,1,0,0:0:0:0:
414,235,71290,2,0,L|342:231,2,60.000000298023,6|0|0,0:0|0:0|0:0,0:0:0:0:
429,317,71987,1,12,0:0:0:0:
354,356,72336,1,12,0:0:0:0:
296,294,72685,2,0,P|230:278|167:298,1,120.000000596046,12|4,0:0|0:3,0:0:0:0:
117,346,73383,5,6,0:0:0:0:
43,306,73731,1,8,0:0:0:0:
50,222,74080,1,8,0:0:0:0:
133,218,74429,1,8,0:0:0:0:
196,163,74778,2,0,P|181:91|142:66,1,120.000000596046,6|8,0:0|0:0,0:0:0:0:
81,121,75476,2,0,L|14:122,2,60.000000298023,8|0|4,0:0|0:0|0:0,0:0:0:0:
117,143,75999,1,0,3:0:0:0:
492,227,77569,6,0,P|440:197|381:198,1,120.000000596046,12|8,0:0|0:0,0:0:0:0:
404,280,78266,2,0,P|368:304|289:307,1,120.000000596046,8|8,0:0|0:0,0:0:0:0:
279,268,78789,1,0,0:0:0:0:
266,227,78964,1,8,0:0:0:0:
202,173,79313,1,8,0:0:0:0:
224,91,79662,2,0,P|162:75|95:102,1,120.000000596046,8|8,0:0|0:0,0:0:0:0:
80,120,80185,1,0,0:0:0:0:
58,156,80359,6,0,L|67:285,1,120.000000596046,8|8,0:0|0:0,0:0:0:0:
125,335,81057,2,0,P|176:304|234:315,1,120.000000596046,8|8,0:0|0:0,0:0:0:0:
269,335,81580,1,0,0:0:0:0:
304,357,81755,2,0,P|363:367|417:331,2,120.000000596046,8|8|8,0:0|0:0|0:0,0:0:0:0:
346,284,82801,2,0,L|347:219,1,60.000000298023,8|0,0:0|0:0,0:0:0:0:
322,189,83150,5,12,0:0:0:0:
404,172,83499,1,8,0:0:0:0:
451,241,83848,2,0,P|487:160|456:108,1,120.000000596046,8|8,0:0|0:0,0:0:0:0:
460,97,84371,1,0,0:0:0:0:
442,58,84545,1,8,0:0:0:0:
358,45,84894,1,8,0:0:0:0:
317,117,85243,2,0,P|212:127|181:127,1,120.000000596046,8|8,0:0|0:0,0:0:0:0:
165,100,85766,1,0,0:0:0:0:
140,65,85941,6,0,P|78:38|26:74,1,120.000000596046,8|8,0:0|0:0,0:0:0:0:
32,102,86464,1,4,0:3:0:0:
31,143,86638,2,0,P|41:243|43:277,1,120.000000596046,4|8,0:3|0:0,0:0:0:0:
119,295,87336,1,8,0:0:0:0:
160,222,87685,2,0,P|227:220|281:285,1,120.000000596046,12|8,0:0|0:0,0:0:0:0:
197,299,88383,2,0,L|203:367,2,60.000000298023,8|0|6,0:0|0:0|0:0,0:0:0:0:
160,222,89080,6,0,P|166:177|160:150,1,60.000000298023,8|0,0:0|0:0,0:0:0:0:
132,134,89429,2,0,P|199:137|242:108,1,120.000000596046,0|8,0:0|0:0,0:0:0:0:
268,28,90127,1,2,0:0:0:0:
351,32,90476,1,8,0:0:0:0:
380,110,90825,1,2,0:0:0:0:
310,156,91173,1,8,0:0:0:0:
241,108,91522,6,0,P|190:139|73:100,1,180.000000894069,12|2,0:0|0:0,0:0:0:0:
63,70,92220,2,0,L|77:211,1,120.000000596046,4|4,0:3|0:3,0:0:0:0:
129,253,92918,2,0,P|118:324|89:375,2,120.000000596046,8|8|8,0:3|0:0|0:0,0:0:0:0:
155,173,93964,2,0,L|228:187,1,60.000000298023,2|2,0:0|0:0,0:0:0:0:
255,181,94313,5,6,0:0:0:0:
268,263,94662,1,8,0:0:0:0:
333,210,95011,1,8,0:0:0:0:
346,292,95360,1,8,0:0:0:0:
362,374,95708,2,0,P|417:336|417:249,1,120.000000596046,8|8,0:0|0:0,0:0:0:0:
414,204,96406,1,8,0:0:0:0:
493,231,96755,1,8,0:0:0:0:
476,148,97104,6,0,P|412:120|352:259,1,240.000001192092,8|8,0:0|0:0,0:0:0:0:
262,273,98150,1,8,0:0:0:0:
224,198,98499,2,0,P|235:120|296:65,2,120.000000596046,6|12|4,0:0|0:0|0:3,0:0:0:0:
305,344,99894,5,6,0:0:0:0:
74,174,111057,6,0,P|151:134|228:152,1,120.000000596046,4|8,0:0|0:0,0:0:0:0:
253,179,111755,2,0,L|236:299,1,120.000000596046,2|8,0:0|0:0,0:0:0:0:
257,334,112278,1,0,0:0:0:0:
281,368,112452,2,0,P|340:362|389:328,1,120.000000596046,2|8,0:0|0:0,0:0:0:0:
470,306,113150,2,0,L|451:158,1,120.000000596046,2|8,0:0|0:0,0:0:0:0:
434,150,113673,1,4,0:3:0:0:
414,112,113848,6,0,P|343:120|281:94,1,120.000000596046,2|8,0:0|0:0,0:0:0:0:
261,29,114545,2,0,P|190:21|128:47,1,120.000000596046,2|4,0:0|0:0,0:0:0:0:
120,70,115069,1,4,0:0:0:0:
99,106,115243,2,0,P|91:176|128:227,1,120.000000596046,2|8,0:0|0:0,0:0:0:0:
176,274,115941,2,0,P|255:241|308:258,1,120.000000596046,8|4,0:0|0:3,0:0:0:0:
328,319,116638,6,0,P|376:353|435:355,1,120.000000596046,6|8,0:0|0:0,0:0:0:0:
474,339,117162,1,0,0:0:0:0:
494,303,117336,2,0,P|494:207|492:142,1,120.000000596046,2|8,0:0|0:0,0:0:0:0:
437,120,118034,2,0,P|359:145|296:120,1,120.000000596046,2|8,0:0|0:0,0:0:0:0:
291,109,118557,1,0,0:0:0:0:
266,74,118731,2,0,L|274:11,2,60.000000298023,2|2|8,0:0|0:0|0:0,0:0:0:0:
183,91,119429,6,0,P|188:165|206:222,1,120.000000596046,2|8,0:0|0:0,0:0:0:0:
276,244,120127,2,0,P|212:291|154:277,1,120.000000596046,2|8,0:0|0:0,0:0:0:0:
91,274,120825,1,2,0:0:0:0:
76,191,121173,1,8,0:0:0:0:
146,145,121522,2,0,P|150:104|137:67,2,60.000000298023,2|0|12,0:0|0:0|0:0,0:0:0:0:
200,208,122220,6,0,P|269:212|336:185,1,120.000000596046,6|8,0:0|0:0,0:0:0:0:
360,123,122918,2,0,P|363:79|376:58,1,60.000000298023,2|2,0:0|0:0,0:0:0:0:
408,47,123266,2,0,L|477:46,1,60.000000298023,8|0,0:0|0:0,0:0:0:0:
493,79,123615,2,0,P|497:155|475:246,1,120.000000596046,2|12,0:0|0:0,0:0:0:0:
472,236,124138,2,0,P|392:234|332:257,1,120.000000596046
328,279,124662,1,4,0:3:0:0:
259,327,125011,5,4,0:0:0:0:
200,266,125359,1,2,0:0:0:0:
265,213,125708,2,0,P|273:128|269:82,1,120.000000596046,8|0,0:0|3:0,0:0:0:0:
190,66,126406,2,0,P|116:75|54:62,2,120.000000596046,2|2|8,0:0|3:2|0:0,0:0:0:0:
256,14,127452,1,0,3:0:0:0:
333,47,127801,6,0,P|407:56|469:43,1,120.000000596046,8|4,0:0|0:3,0:0:0:0:
491,33,128325,2,0,P|507:126|489:201,1,120.000000596046,0|4,3:0|0:3,0:0:0:0:
452,217,129022,1,4,0:3:0:0:
424,249,129197,2,0,P|339:274|276:267,1,120.000000596046,12|12,0:0|0:0,0:0:0:0:
290,235,129720,2,0,P|205:210|142:217,1,120.000000596046,0|4,0:0|0:3,0:0:0:0:
121,276,130418,1,8,0:0:0:0:
79,269,130592,6,0,P|27:192|31:154,1,120.000000596046,6|8,0:0|0:0,0:0:0:0:
63,92,131290,1,8,0:0:0:0:
133,137,131638,1,8,0:0:0:0:
192,77,131987,1,6,0:0:0:0:
258,127,132336,1,8,0:0:0:0:
322,73,132685,2,0,L|315:7,2,60.000000298023,8|0|8,0:0|0:0|0:0,0:0:0:0:
343,109,133208,1,0,3:0:0:0:
0,143,134778,6,0,P|44:144|115:170,1,120.000000596046,12|8,0:0|0:0,0:0:0:0:
123,86,135476,2,0,P|174:87|239:58,1,120.000000596046,8|8,0:0|0:0,0:0:0:0:
248,101,135998,1,0,0:0:0:0:
261,142,136173,1,8,0:0:0:0:
310,211,136522,1,8,0:0:0:0:
288,293,136871,2,0,P|350:309|417:282,1,120.000000596046,8|8,0:0|0:0,0:0:0:0:
432,264,137394,1,0,0:0:0:0:
454,228,137569,6,0,L|445:102,1,120.000000596046,8|8,0:0|0:0,0:0:0:0:
387,49,138266,2,0,P|336:80|278:69,1,120.000000596046,8|8,0:0|0:0,0:0:0:0:
243,49,138789,1,0,0:0:0:0:
208,27,138964,2,0,P|149:17|95:53,2,120.000000596046,8|8|8,0:0|0:0|0:0,0:0:0:0:
166,100,140010,2,0,L|167:166,1,60.000000298023,8|0,0:0|0:0,0:0:0:0:
190,195,140359,5,12,0:0:0:0:
108,212,140708,1,8,0:0:0:0:
61,143,141057,2,0,P|25:224|56:276,1,120.000000596046,8|8,0:0|0:0,0:0:0:0:
52,287,141580,1,0,0:0:0:0:
70,326,141754,1,8,0:0:0:0:
154,339,142103,1,8,0:0:0:0:
195,267,142452,2,0,P|300:257|331:257,1,120.000000596046,8|8,0:0|0:0,0:0:0:0:
347,284,142975,1,4,0:3:0:0:
372,319,143150,6,0,P|434:346|486:310,1,120.000000596046,8|8,0:0|0:0,0:0:0:0:
480,282,143673,1,4,0:3:0:0:
481,241,143848,2,0,P|471:141|470:107,1,120.000000596046,4|8,0:3|0:0,0:0:0:0:
424,50,144545,1,8,0:0:0:0:
340,46,144894,2,0,P|306:43|253:26,2,60.000000298023,12|0|8,0:0|0:0|0:0,0:0:0:0:
345,130,145592,2,0,P|259:119|190:89,1,120.000000596046,8|4,0:0|0:0,0:0:0:0:
160,162,146289,6,0,P|166:207|160:234,1,60.000000298023,2|0,0:0|0:0,0:0:0:0:
132,250,146638,2,0,P|199:247|242:276,1,120.000000596046,2|2,0:0|0:0,0:0:0:0:
268,356,147336,1,4,0:0:0:0:
351,352,147685,1,2,0:0:0:0:
380,274,148034,1,2,0:0:0:0:
310,228,148382,1,2,0:0:0:0:
241,276,148731,6,0,P|190:245|109:269,1,120.000000596046,4|2,0:0|0:0,0:0:0:0:
100,280,149255,1,0,0:0:0:0:
68,307,149429,2,0,L|82:166,1,120.000000596046,2|2,0:0|0:0,0:0:0:0:
51,108,150127,1,4,0:0:0:0:
105,44,150476,1,2,0:0:0:0:
132,123,150825,1,4,0:0:0:0:
190,62,151173,1,2,0:0:0:0:
215,142,151522,6,0,P|292:156|400:120,1,180.000000894069,4|2,0:0|0:0,0:0:0:0:
424,148,152220,2,0,L|523:134,2,90.0000004470345,2|2|0,0:0|0:0|0:0,0:0:0:0:
409,187,152918,2,0,P|408:265|426:301,1,120.000000596046,12|4,0:0|0:3,0:0:0:0:
358,351,153615,2,0,P|310:315|220:309,1,120.000000596046,12|8,0:0|0:0,0:0:0:0:
210,310,154138,1,8,0:0:0:0:
169,322,154313,6,0,B|163:263|163:263|177:202,1,120.000000596046,14|8,0:0|0:0,0:0:0:0:
261,211,155011,2,0,B|275:151|275:151|269:93,1,120.000000596046,8|8,0:0|0:0,0:0:0:0:
318,24,155708,2,0,B|386:12|386:12|459:24,1,120.000000596046,12|8,0:0|0:0,0:0:0:0:
474,37,156231,1,0,0:0:0:0:
477,78,156406,2,0,L|484:225,1,120.000000596046,8|8,0:0|0:0,0:0:0:0:
486,282,157104,5,12,0:0:0:0:
443,354,157452,1,8,0:0:0:0:
402,280,157801,1,8,0:0:0:0:
364,355,158150,1,8,0:0:0:0:
321,282,158499,2,0,B|321:223|321:223|360:161,1,120.000000596046,12|8,0:0|0:0,0:0:0:0:
390,94,159197,2,0,B|344:53|344:53|279:53,1,120.000000596046,8|8,0:0|0:0,0:0:0:0:
234,119,159894,6,0,B|175:123|175:123|116:112,1,120.000000596046,12|8,0:0|0:0,0:0:0:0:
76,99,160418,1,0,0:0:0:0:
37,81,160592,2,0,L|43:234,1,120.000000596046,8|8,0:0|0:0,0:0:0:0:
77,277,161290,2,0,B|136:272|136:272|195:283,1,120.000000596046,12|8,0:0|0:0,0:0:0:0:
235,297,161814,1,2,0:0:0:0:
274,315,161988,2,0,L|268:162,1,120.000000596046,8|8,0:0|0:0,0:0:0:0:
318,126,162685,6,0,L|460:131,1,120.000000596046,12|8,0:0|0:0,0:0:0:0:
464,162,163208,1,0,0:0:0:0:
489,195,163383,2,0,L|484:314,1,120.000000596046,12|8,0:0|0:0,0:0:0:0:
451,341,163906,1,0,0:0:0:0:
414,362,164080,2,0,L|271:356,1,120.000000596046,12|12,0:0|0:0,0:0:0:0:
245,287,164778,1,12,0:3:0:0:
294,219,165127,2,0,L|360:225,2,60.000000298023,12|12|14,0:0|0:0|0:0,0:0:0:0:
233,160,165825,5,8,0:0:0:0:
265,82,166173,1,8,0:0:0:0:
210,18,166522,1,8,0:0:0:0:
137,61,166871,1,8,0:0:0:0:
143,144,167220,2,0,L|156:208,1,60.000000298023,8|2,0:0|0:0,0:0:0:0:
148,244,167569,2,0,P|77:258|9:238,1,120.000000596046,8|8,0:0|0:0,0:0:0:0:
20,207,168092,1,0,0:0:0:0:
10,166,168266,6,0,L|19:38,1,120.000000596046,8|8,0:0|0:0,0:0:0:0:
60,40,168790,1,2,0:0:0:0:
101,37,168964,2,0,P|181:64|217:44,1,120.000000596046,8|8,0:0|0:0,0:0:0:0:
283,11,169662,1,8,0:0:0:0:
357,49,170011,1,8,0:0:0:0:
286,94,170359,2,0,P|286:129|294:160,1,60.000000298023,8|2,0:0|0:0,0:0:0:0:
328,174,170708,2,0,P|327:209|320:240,1,60.000000298023,8|2,0:0|0:0,0:0:0:0:
289,259,171057,6,0,P|379:269|419:317,1,120.000000596046,12|8,0:0|0:0,0:0:0:0:
398,327,171580,2,0,P|488:317|528:269,1,120.000000596046,2|2,0:0|0:0,0:0:0:0:
510,257,172104,1,8,0:0:0:0:
462,187,172452,1,8,0:0:0:0:
512,114,172801,1,8,0:0:0:0:
462,45,173150,2,0,P|374:52|322:75,1,120.000000596046,8|12,0:0|0:0,0:0:0:0:
309,86,173673,1,0,0:0:0:0:
276,112,173848,6,0,L|286:296,1,180.000000894069,12|2,0:0|0:0,0:0:0:0:
252,312,174545,2,0,P|198:314|132:283,1,120.000000596046,8|8,0:0|0:0,0:0:0:0:
116,251,175069,1,2,0:0:0:0:
99,212,175243,1,12,0:0:0:0:
76,130,175592,2,0,B|120:136|120:136|146:126|146:126|203:133,1,120.000000596046,12|8,0:0|0:3,0:0:0:0:
276,112,176290,2,0,P|302:168|271:232,1,120.000000596046,4|2,0:3|0:0,0:0:0:0:
113,79,187801,5,12,0:0:0:0:
137,159,188150,1,8,0:0:0:0:
192,96,188499,2,0,P|260:81|320:90,1,120.000000596046,8|8,0:0|0:0,0:0:0:0:
337,118,189022,1,0,0:0:0:0:
361,152,189197,1,8,0:0:0:0:
409,220,189545,1,8,0:0:0:0:
457,288,189894,2,0,P|401:336|337:328,1,120.000000596046,8|8,0:0|0:0,0:0:0:0:
323,311,190418,1,0,0:0:0:0:
287,288,190592,6,0,P|231:267|173:279,1,120.000000596046,8|8,0:0|0:0,0:0:0:0:
103,326,191290,2,0,P|68:277|64:218,1,120.000000596046,8|8,0:0|0:0,0:0:0:0:
86,182,191813,1,0,0:0:0:0:
111,148,191987,2,0,P|131:92|120:34,2,120.000000596046,8|8|8,0:0|0:0|0:0,0:0:0:0:
180,196,193034,2,0,L|242:196,1,60.000000298023,8|0,0:0|0:0,0:0:0:0:
282,196,193383,5,12,0:0:0:0:
353,152,193731,1,8,0:0:0:0:
403,219,194080,2,0,P|434:171|426:111,1,120.000000596046,8|8,0:0|0:0,0:0:0:0:
402,76,194604,1,4,0:3:0:0:
376,43,194778,1,8,0:0:0:0:
305,88,195127,1,8,0:0:0:0:
228,53,195476,2,0,P|158:74|128:118,1,120.000000596046,8|8,0:0|0:0,0:0:0:0:
118,150,195999,1,0,0:0:0:0:
110,191,196173,6,0,L|99:311,1,120.000000596046,4|8,0:0|0:3,0:0:0:0:
125,343,196697,1,2,0:0:0:0:
166,348,196871,2,0,P|224:338|286:352,1,120.000000596046,8|8,0:0|0:0,0:0:0:0:
357,312,197569,1,2,0:2:0:0:
431,350,197918,2,0,P|446:304|454:262,1,60.000000298023,8|0,0:2|0:0,0:0:0:0:
420,262,198266,2,0,P|406:170|417:114,1,120.000000596046,2|8,0:0|0:0,0:0:0:0:
454,71,198964,5,12,0:0:0:0:
374,43,199313,1,8,0:0:0:0:
328,113,199662,2,0,P|260:98|200:107,1,120.000000596046,8|8,0:0|0:0,0:0:0:0:
178,131,200185,1,2,0:0:0:0:
147,159,200360,1,8,0:0:0:0:
76,204,200708,1,8,0:0:0:0:
74,287,201057,2,0,P|127:331|193:333,1,120.000000596046,8|8,0:0|0:0,0:0:0:0:
248,289,201755,5,12,0:0:0:0:
325,324,202104,1,8,0:0:0:0:
403,355,202453,1,8,0:0:0:0:
440,279,202801,1,8,0:0:0:0:
470,200,203150,2,0,P|458:117|413:57,1,120.000000596046,8|8,0:0|0:0,0:0:0:0:
361,116,203848,1,8,0:0:0:0:
281,143,204197,1,8,0:0:0:0:
286,226,204545,6,0,P|216:198|196:136,1,120.000000596046,12|8,0:0|0:0,0:0:0:0:
139,99,205243,1,8,0:0:0:0:
191,33,205593,1,8,0:0:0:0:
232,42,205767,1,2,0:0:0:0:
273,51,205941,2,0,P|360:45|397:24,1,120.000000596046,8|8,0:0|0:0,0:0:0:0:
456,80,206638,2,0,P|434:157|442:202,1,120.000000596046,8|12,0:0|0:0,0:0:0:0:
468,227,207161,1,0,0:0:0:0:
499,255,207336,6,0,P|428:239|371:267,1,120.000000596046,4|8,0:0|0:0,0:0:0:0:
368,294,207859,1,2,0:0:0:0:
350,333,208034,2,0,P|281:355|221:333,1,120.000000596046,8|8,0:0|0:0,0:0:0:0:
199,324,208557,1,8,0:2:0:0:
