osu file format v14

[General]
AudioFilename: audio.mp3
AudioLeadIn: 0
PreviewTime: 190529
Countdown: 1
SampleSet: None
StackLeniency: 0.7
Mode: 0
LetterboxInBreaks: 0
WidescreenStoryboard: 0

[Editor]
DistanceSpacing: 1.2
BeatDivisor: 4
GridSize: 4
TimelineZoom: 1

[Metadata]
Title:Byoumei Koiwazurai
TitleUnicode:Byoumei Koiwazurai
Artist:HoneyWorks feat. Sana
ArtistUnicode:HoneyWorks feat. Sana
Creator:Dubledo
Version:Exerted Love
Source:
Tags:
BeatmapID:1173762
BeatmapSetID:554416

[Difficulty]
HPDrainRate:7
CircleSize:4
OverallDifficulty:8
ApproachRate:9
SliderMultiplier:1
SliderTickRate:1

[Events]
//Background and Video events
0,0,"sana.png",0,0
//Break Periods
2,88729,90929
2,106729,114929
2,169729,171929
2,190354,195179
//Storyboard Layer 0 (Background)
//Storyboard Layer 1 (Fail)
//Storyboard Layer 2 (Pass)
//Storyboard Layer 3 (Foreground)
//Storyboard Sound Samples

[TimingPoints]
1529.35724921887,375,4,1,0,30,1,0
7529,-100,4,1,0,20,0,0
10529,-100,4,1,0,30,0,0
11841,-200,4,1,0,60,0,0
13154,-76.9230769230769,4,1,0,60,0,0
57029,-90.9090909090909,4,1,0,60,0,0
57404,-100,4,1,0,60,0,0
57779,-111.111111111111,4,1,0,60,0,0
58154,-125,4,1,0,60,0,0
58435,-76.9230769230769,4,1,0,60,0,0
63029,-76.9230769230769,4,1,0,70,0,0
64529,-71.4285714285714,4,1,0,70,0,1
87029,-71.4285714285714,4,1,0,60,0,1
88529,-71.4285714285714,4,1,0,60,0,0
94529,-166.666666666667,4,1,0,60,0,0
94904,-76.9230769230769,4,1,0,60,0,0
133529,-76.9230769230769,4,1,0,60,0,1
136529,-76.9230769230769,4,1,0,60,0,0
144029,-76.9230769230769,4,1,0,60,0,1
145529,-71.4285714285714,4,1,0,70,0,1
169529,-71.4285714285714,4,1,0,70,0,0
172529,-133.333333333333,4,1,0,40,0,0
184529,-133.333333333333,4,1,0,20,0,0
195779,-100,4,1,0,50,0,0
202529,-71.4285714285714,4,1,0,70,0,1
226529,-125,4,1,0,40,0,0
229529,-76.9230769230769,4,1,0,60,0,0

[HitObjects]
168,224,1529,6,0,L|204:280,1,50,2|0,0:3|0:0,0:0:0:0:
300,208,1904,1,0,0:0:0:0:
300,208,2091,1,0,0:0:0:0:
212,140,2279,2,0,P|172:132|140:136,2,50,2|0|0,0:3|0:3|0:3,0:0:0:0:
368,176,2841,2,0,P|424:184|484:172,1,100,2|0,0:3|0:0,0:0:0:0:
284,112,3404,5,0,0:0:0:0:
284,112,3591,1,0,0:0:0:0:
204,200,3779,2,0,P|196:248|200:264,1,50
276,344,4154,2,0,P|296:304|296:276,1,50
284,112,4529,6,0,P|252:104|216:100,1,50,2|0,0:3|0:0,0:0:0:0:
108,100,4904,1,0,0:0:0:0:
112,104,5091,1,0,0:0:0:0:
124,200,5279,5,2,0:3:0:0:
244,136,5466,1,0,0:3:0:0:
124,200,5654,1,0,0:3:0:0:
244,136,5841,2,0,L|356:180,1,100,2|0,0:3|0:0,0:0:0:0:
248,256,6404,6,0,L|196:280,1,50
112,312,6779,1,0,0:0:0:0:
92,144,6967,1,0,0:0:0:0:
200,176,7154,1,0,0:0:0:0:
52,232,7342,1,0,0:0:0:0:
224,272,7529,6,0,B|264:280|296:280,1,50,0|4,2:0|2:3,2:0:0:0:
368,244,7904,1,0,2:0:0:0:
272,160,8091,1,0,2:0:0:0:
272,160,8185,1,0,2:0:0:0:
272,160,8279,2,0,L|216:116,1,50,0|0,2:0|2:0,2:0:0:0:
148,104,8654,1,0,2:0:0:0:
336,112,8841,6,0,P|368:132|392:172,1,75,0|0,2:0|2:0,2:0:0:0:
396,188,9216,1,0,2:0:0:0:
240,168,9404,1,0,2:0:0:0:
296,304,9592,5,0,2:0:0:0:
296,304,9685,1,0,2:0:0:0:
296,304,9779,2,0,L|304:344,1,25,0|0,2:0|2:0,2:0:0:0:
224,256,9967,2,0,L|208:300,1,25,0|0,2:0|2:0,2:0:0:0:
172,184,10154,1,0,2:0:0:0:
124,332,10341,1,0,2:0:0:0:
76,184,10529,6,0,L|56:116,1,50,2|0,0:3|0:0,0:0:0:0:
188,100,10904,1,0,0:0:0:0:
160,216,11091,1,0,0:0:0:0:
272,124,11279,2,0,P|276:72|272:56,2,50,2|0|0,0:3|0:0|0:3,0:0:0:0:
160,216,11841,6,0,B|124:256|152:312|200:304|200:304|220:340,1,162.5,2|0,0:3|0:0,0:0:0:0:
236,344,13154,5,0,3:0:0:0:
252,304,13248,1,0,3:0:0:0:
280,272,13341,1,0,3:0:0:0:
320,252,13435,1,0,3:0:0:0:
364,252,13529,6,0,P|388:280|448:296,1,97.4999955368044,0|0,3:0|3:0,0:0:0:0:
476,288,13904,1,8,0:3:0:0:
424,148,14091,2,0,P|392:120|352:108,1,64.9999970245363,0|0,3:0|0:0,0:0:0:0:
228,92,14466,1,0,3:0:0:0:
272,264,14654,1,8,0:3:0:0:
352,184,14841,1,0,0:0:0:0:
184,216,15029,6,0,P|168:272|184:328,1,97.4999955368044,0|0,3:0|3:0,0:0:0:0:
188,336,15404,1,8,0:3:0:0:
296,240,15591,1,0,3:0:0:0:
96,264,15779,1,0,0:0:0:0:
232,104,15966,1,0,3:0:0:0:
368,200,16154,2,0,P|380:236|368:276,1,64.9999970245363,8|0,0:3|3:0,0:0:0:0:
288,220,16435,5,0,3:0:0:0:
288,220,16529,2,0,P|288:172|320:124,1,97.4999955368044,0|0,3:0|3:0,0:0:0:0:
344,104,16904,2,0,L|276:60,1,64.9999970245363,8|0,0:3|3:0,0:0:0:0:
188,104,17279,1,0,0:0:0:0:
384,32,17466,5,10,0:3:0:0:
428,116,17654,1,10,0:3:0:0:
424,204,17841,1,2,0:3:0:0:
268,164,18029,6,0,P|220:144|176:144,1,97.4999955368044,0|0,3:0|3:0,0:0:0:0:
140,152,18404,1,8,0:3:0:0:
212,284,18591,1,0,3:0:0:0:
212,284,18685,1,0,3:0:0:0:
212,284,18779,1,0,3:0:0:0:
68,240,18966,1,0,0:0:0:0:
268,164,19154,1,8,0:3:0:0:
304,328,19341,2,0,P|300:304|308:280,1,32.4999985122681,0|0,3:0|3:0,3:0:0:0:
348,184,19529,6,0,P|340:132|304:92,1,97.4999955368044,0|0,3:0|3:0,0:0:0:0:
296,76,19904,2,0,L|372:32,1,64.9999970245363,8|0,0:3|3:0,0:0:0:0:
440,88,20279,1,0,0:0:0:0:
264,176,20466,2,0,P|260:228|272:264,1,64.9999970245363,0|8,3:0|0:3,0:0:0:0:
296,328,20841,1,0,0:0:0:0:
364,168,21029,6,0,P|336:112|284:80,1,97.4999955368044,0|0,3:0|3:0,3:0:0:0:
280,72,21404,1,8,0:3:0:0:
240,236,21591,1,0,3:0:0:0:
240,236,21685,1,0,3:0:0:0:
240,236,21779,1,0,3:0:0:0:
184,152,21966,1,0,3:0:0:0:
324,208,22154,1,8,0:3:0:0:
180,288,22341,1,0,0:0:0:0:
324,208,22529,6,0,P|364:188|416:200,1,97.4999955368044,0|0,3:0|3:0,3:0:0:0:
448,224,22904,2,0,P|448:172|432:144,1,64.9999970245363,8|0,0:3|3:0,0:0:0:0:
380,84,23279,1,0,0:0:0:0:
212,148,23466,5,2,3:0:0:0:
208,244,23654,1,10,0:3:0:0:
248,328,23841,1,2,0:3:0:0:
368,208,24029,6,0,L|380:176,1,32.4999985122681,8|0,3:3|0:0,0:0:0:0:
192,48,24310,2,0,L|200:80,1,32.4999985122681,8|0,3:3|0:0,0:0:0:0:
112,252,24591,1,8,3:3:0:0:
124,236,24685,1,8,3:3:0:0:
136,220,24779,1,8,3:3:0:0:
308,228,24966,5,0,3:3:0:0:
368,56,25154,6,0,L|348:104,1,32.4999985122681,8|8,3:0|3:0,3:0:0:0:
296,252,25341,1,0,3:0:0:0:
240,108,25529,6,0,P|204:112|144:92,1,97.4999955368044,0|0,3:0|3:0,0:0:0:0:
120,68,25904,1,8,0:3:0:0:
192,188,26091,2,0,P|192:228|180:256,1,64.9999970245363,0|0,3:0|0:0,0:0:0:0:
312,216,26466,2,0,L|384:192,2,64.9999970245363,2|10|2,0:3|0:3|0:3,0:0:0:0:
216,308,27029,6,0,L|116:272,1,97.4999955368044,0|0,3:0|3:0,0:0:0:0:
96,260,27404,1,8,0:3:0:0:
164,128,27591,1,0,3:0:0:0:
288,224,27779,1,0,0:0:0:0:
72,176,27966,1,0,3:0:0:0:
264,124,28154,1,8,0:3:0:0:
192,264,28341,5,0,3:0:0:0:
192,264,28435,1,0,3:0:0:0:
192,264,28529,2,0,L|260:280,1,64.9999970245363,0|0,3:0|0:0,0:0:0:0:
200,348,28904,1,8,0:3:0:0:
268,188,29091,2,0,L|336:204,1,64.9999970245363,0|0,3:0|0:0,0:0:0:0:
216,72,29466,5,2,3:3:0:0:
168,148,29654,1,10,0:3:0:0:
176,240,29841,1,2,0:3:0:0:
296,112,30029,6,0,P|304:76|296:40,1,64.9999970245363,2|0,3:3|0:0,0:0:0:0:
168,148,30404,5,10,0:3:0:0:
176,240,30591,1,0,0:3:0:0:
384,132,30779,5,2,0:3:0:0:
304,84,30966,1,2,0:3:0:0:
272,292,31154,5,10,0:3:0:0:
368,264,31341,1,0,3:0:0:0:
368,264,31435,1,0,3:0:0:0:
368,264,31529,2,0,L|464:236,1,97.4999955368044,0|0,3:0|0:0,0:0:0:0:
480,208,31904,1,8,3:3:0:0:
280,200,32091,2,0,P|268:244|272:288,1,64.9999970245363,0|0,0:0|3:0,0:0:0:0:
360,232,32466,5,0,0:0:0:0:
208,160,32654,1,8,3:3:0:0:
336,96,32841,1,0,0:0:0:0:
448,172,33029,2,0,B|472:224|444:280|444:280|460:304,1,129.999994049073,0|8,3:0|3:3,0:0:0:0:
316,320,33591,1,0,0:0:0:0:
216,232,33779,2,0,B|144:164|144:164|172:148,1,129.999994049073,0|8,3:0|3:3,0:0:0:0:
272,72,34341,5,0,0:0:0:0:
328,192,34529,2,0,P|332:236|320:268,1,64.9999970245363,0|0,3:0|0:0,0:0:0:0:
216,232,34904,1,8,3:3:0:0:
344,96,35091,2,0,P|384:112|408:136,1,64.9999970245363,0|0,0:0|3:0,0:0:0:0:
416,272,35466,1,0,0:0:0:0:
304,180,35654,1,8,0:3:0:0:
480,104,35841,1,0,0:0:0:0:
344,248,36029,6,0,P|336:288|344:320,2,64.9999970245363,0|0|8,3:0|0:0|3:3,0:0:0:0:
408,136,36591,1,2,0:3:0:0:
400,112,36685,1,2,0:3:0:0:
388,92,36779,1,2,0:3:0:0:
312,24,36966,1,2,0:3:0:0:
272,200,37154,1,10,3:3:0:0:
220,96,37341,1,2,0:3:0:0:
360,192,37529,6,0,P|360:248|336:292,1,97.4999955368044,0|0,3:0|3:0,0:0:0:0:
320,312,37904,1,8,3:3:0:0:
204,192,38091,2,0,L|148:144,1,64.9999970245363,0|0,3:0|0:0,0:0:0:0:
240,112,38466,5,2,3:3:0:0:
300,248,38654,1,10,0:3:0:0:
348,64,38841,5,2,0:3:0:0:
436,232,39029,2,0,L|484:320,1,97.4999955368044,0|0,3:0|3:0,0:0:0:0:
496,348,39404,1,8,3:3:0:0:
360,280,39591,1,0,3:0:0:0:
504,172,39779,1,0,0:0:0:0:
288,192,39966,5,0,3:0:0:0:
440,236,40154,1,8,0:3:0:0:
292,336,40341,1,0,3:0:0:0:
292,336,40435,1,0,3:0:0:0:
292,336,40529,2,0,L|220:336,1,64.9999970245363,0|0,3:0|0:0,0:0:0:0:
124,168,40904,1,8,3:3:0:0:
236,200,41091,2,0,P|276:228|300:256,1,64.9999970245363,0|0,3:0|0:0,0:0:0:0:
148,272,41466,5,0,3:0:0:0:
200,116,41654,1,10,0:3:0:0:
280,268,41841,5,2,0:3:0:0:
340,84,42029,2,0,L|412:156,1,97.4999955368044,0|0,3:0|3:0,0:0:0:0:
436,180,42404,1,8,3:3:0:0:
260,164,42591,2,0,B|200:168|160:124|160:124|128:152,1,129.999994049073,0|0,3:0|3:0,0:0:0:0:
80,208,43154,1,8,0:3:0:0:
284,296,43341,6,0,L|240:256,1,32.4999985122681,0|0,3:0|3:0,3:0:0:0:
148,172,43529,2,0,P|140:224|148:272,1,97.4999955368044,0|0,3:0|3:0,0:0:0:0:
160,304,43904,1,8,3:3:0:0:
264,212,44091,2,0,P|336:196|400:228,1,129.999994049073,0|0,3:0|3:0,0:0:0:0:
324,296,44654,1,8,0:3:0:0:
176,216,44841,1,0,0:0:0:0:
296,128,45029,6,0,P|336:112|392:112,1,97.4999955368044,0|0,3:0|3:0,0:0:0:0:
424,116,45404,2,0,L|440:188,1,64.9999970245363,8|0,3:3|3:0,0:0:0:0:
308,288,45779,2,0,L|316:216,1,64.9999970245363,0|0,0:0|3:0,0:0:0:0:
164,112,46154,2,0,L|192:188,1,64.9999970245363,8|0,0:3|0:0,0:0:0:0:
308,288,46529,6,0,P|364:296|400:276,1,97.4999955368044,0|0,3:0|3:0,0:0:0:0:
420,256,46904,1,8,3:3:0:0:
320,156,47091,2,0,P|296:140|248:132,1,64.9999970245363,0|0,3:0|0:0,0:0:0:0:
176,240,47466,5,2,3:3:0:0:
120,108,47654,1,10,0:3:0:0:
56,236,47841,5,2,0:3:0:0:
0,84,48029,2,0,L|108:44,1,97.4999955368044,0|0,3:0|3:0,0:0:0:0:
124,36,48404,5,8,3:3:0:0:
100,168,48591,1,0,3:0:0:0:
212,136,48779,5,0,0:0:0:0:
144,260,48966,1,0,3:0:0:0:
256,264,49154,5,8,0:3:0:0:
148,356,49341,1,0,0:0:0:0:
284,184,49529,6,0,P|320:208|336:240,1,64.9999970245363,0|0,3:0|0:0,0:0:0:0:
100,288,49904,2,0,P|112:240|140:212,1,64.9999970245363,8|0,0:3|0:0,0:0:0:0:
200,136,50279,1,0,3:0:0:0:
208,268,50466,1,0,0:0:0:0:
288,176,50654,1,8,0:3:0:0:
104,232,50841,1,0,0:0:0:0:
304,220,51029,5,0,0:0:0:0:
88,184,51216,1,0,0:0:0:0:
336,176,51404,5,8,0:3:0:0:
56,232,51591,1,0,0:0:0:0:
284,96,51779,5,0,3:0:0:0:
88,184,51966,1,0,3:0:0:0:
288,308,52154,1,8,3:3:0:0:
152,100,52529,5,0,3:0:0:0:
196,208,52716,1,0,3:0:0:0:
280,136,52904,1,0,3:0:0:0:
376,200,53091,1,0,3:0:0:0:
376,200,53185,1,0,3:0:0:0:
376,200,53279,2,0,L|432:240,1,64.9999970245363,0|0,3:0|3:0,3:0:0:0:
184,200,53654,5,0,3:0:0:0:
280,136,53841,1,0,3:0:0:0:
280,136,53935,1,0,3:0:0:0:
280,136,54029,1,8,3:0:0:0:
288,288,54216,1,8,3:0:0:0:
192,120,54404,1,8,3:0:0:0:
120,320,54591,1,8,3:0:0:0:
224,212,54779,5,8,3:0:0:0:
268,320,54966,1,0,3:0:0:0:
268,320,55060,1,0,3:0:0:0:
268,320,55154,1,0,3:0:0:0:
352,248,55341,1,0,3:0:0:0:
448,312,55529,2,0,L|504:352,1,64.9999970245363,0|0,3:0|0:0,3:0:0:0:
320,168,55904,2,0,P|292:188|272:220,1,64.9999970245363,8|0,3:3|0:0,0:0:0:0:
444,200,56279,2,0,P|456:152|452:120,1,64.9999970245363,0|0,3:0|0:0,0:0:0:0:
212,240,56654,2,0,L|136:272,1,64.9999970245363,8|0,0:3|0:0,0:0:0:0:
304,124,57029,6,0,P|332:160|344:188,1,55.0000016784668,0|0,3:0|0:0,0:0:0:0:
176,316,57404,2,0,P|148:288|132:260,1,50,8|0,0:3|0:0,0:0:0:0:
192,80,57779,2,0,L|216:136,1,44.999998626709,0|0,3:0|0:0,0:0:0:0:
60,276,58154,2,0,L|44:224,1,40,8|0,0:3|0:0,0:0:0:0:
128,192,58435,5,0,3:0:0:0:
128,192,58529,2,0,L|204:212,1,64.9999970245363,0|0,3:0|3:0,3:0:0:0:
344,80,58904,2,0,L|272:108,1,64.9999970245363,0|0,3:0|3:0,3:0:0:0:
244,260,59279,5,0,3:0:0:0:
176,136,59466,1,0,3:0:0:0:
176,136,59560,1,0,3:0:0:0:
176,136,59654,1,0,3:0:0:0:
136,240,59841,1,0,3:0:0:0:
324,188,60029,6,0,P|356:216|372:252,1,64.9999970245363,0|0,3:0|3:0,3:0:0:0:
129,302,60404,2,0,P|129:254|153:218,1,64.9999970245363,0|0,3:0|3:0,3:0:0:0:
260,280,60779,1,0,3:0:0:0:
136,68,60966,2,0,L|148:112,1,32.4999985122681,0|0,3:0|3:0,3:0:0:0:
168,184,61154,1,0,3:0:0:0:
264,72,61341,5,0,3:0:0:0:
264,72,61435,1,0,3:0:0:0:
264,72,61529,2,0,L|336:64,1,64.9999970245363,0|0,3:0|3:0,0:0:0:0:
300,252,61904,1,0,3:0:0:0:
256,152,62091,1,0,3:0:0:0:
160,292,62279,1,8,3:0:0:0:
340,176,62466,1,8,3:0:0:0:
140,188,62654,1,8,3:0:0:0:
296,320,62841,1,8,3:0:0:0:
268,108,63029,5,10,3:0:0:0:
336,256,63216,1,10,3:0:0:0:
396,104,63404,5,10,3:0:0:0:
448,272,63591,1,10,3:0:0:0:
332,168,63779,5,10,3:0:0:0:
264,300,63966,1,10,3:0:0:0:
200,144,64154,5,10,3:0:0:0:
108,312,64341,1,10,3:0:0:0:
256,216,64529,6,0,L|324:244,1,69.9999978637696,2|8,3:0|0:3,0:0:0:0:
356,152,64904,1,2,3:0:0:0:
408,332,65091,1,8,0:3:0:0:
284,304,65279,1,2,3:0:0:0:
436,172,65466,1,10,0:3:0:0:
436,172,65560,1,0,0:0:0:0:
436,172,65654,2,0,L|448:216,1,34.9999989318848,2|0,3:0|3:0,0:0:0:0:
300,164,65841,2,0,L|288:120,1,34.9999989318848,10|0,0:3|3:0,0:0:0:0:
368,248,66029,6,0,P|380:296|376:324,1,69.9999978637696,2|8,3:0|0:3,0:0:0:0:
144,232,66404,2,8,P|144:184|164:148,1,69.9999978637696,2|8,3:0|0:3,3:0:0:0:
368,128,66779,1,2,3:0:0:0:
368,128,66873,1,0,3:0:0:0:
368,128,66966,1,8,3:3:0:0:
224,272,67154,1,2,3:0:0:0:
224,272,67248,1,0,3:0:0:0:
224,272,67341,1,8,3:3:0:0:
228,124,67529,5,2,3:0:0:0:
320,248,67716,1,8,0:3:0:0:
132,192,67904,1,2,3:0:0:0:
312,136,68091,1,8,0:3:0:0:
248,292,68279,1,2,3:0:0:0:
192,96,68466,6,0,L|168:140,1,34.9999989318848,10|0,0:3|0:0,0:0:0:0:
100,248,68654,1,2,3:0:0:0:
48,112,68841,1,10,0:3:0:0:
36,328,69029,5,0,3:0:0:0:
150,159,69216,2,0,L|159:208,1,34.9999989318848,10|0,0:3|0:0,0:0:0:0:
191,332,69404,1,2,3:0:0:0:
282,219,69591,1,10,0:3:0:0:
72,168,69779,6,0,L|0:184,1,69.9999978637696,2|8,0:3|0:3,0:0:0:0:
304,296,70154,2,0,L|372:280,1,69.9999978637696,2|8,3:0|0:3,0:0:0:0:
248,228,70435,5,0,3:0:0:0:
248,228,70529,2,0,P|216:276|216:312,1,69.9999978637696,2|8,3:0|0:3,0:0:0:0:
424,216,70904,2,0,P|460:184|480:140,1,69.9999978637696,2|8,3:0|0:3,0:0:0:0:
220,144,71279,1,2,3:0:0:0:
300,256,71466,1,10,3:3:0:0:
312,272,71559,1,0,3:0:0:0:
324,288,71653,1,2,3:0:0:0:
336,168,71841,5,10,0:3:0:0:
208,292,72029,2,0,L|156:344,1,69.9999978637696,2|8,3:0|0:3,0:0:0:0:
336,168,72404,2,0,L|392:220,1,69.9999978637696,2|8,3:0|0:3,0:0:0:0:
184,192,72779,1,2,3:0:0:0:
184,192,72873,1,0,3:0:0:0:
184,192,72966,1,8,3:3:0:0:
412,112,73154,1,2,3:0:0:0:
412,112,73248,1,0,3:0:0:0:
412,112,73341,1,8,3:3:0:0:
272,280,73529,5,2,3:0:0:0:
272,112,73716,1,8,0:3:0:0:
348,248,73904,2,0,P|356:288|352:324,1,69.9999978637696,2|8,3:0|0:3,0:0:0:0:
128,280,74279,1,2,3:0:0:0:
192,176,74466,1,10,0:3:0:0:
192,356,74654,1,2,3:0:0:0:
276,152,74841,1,10,0:3:0:0:
104,196,75029,5,8,3:0:0:0:
248,240,75216,1,8,0:3:0:0:
144,300,75404,1,8,3:0:0:0:
196,132,75591,1,8,0:3:0:0:
236,340,75779,5,10,3:0:0:0:
108,196,75966,1,10,0:3:0:0:
292,144,76154,1,10,3:0:0:0:
112,328,76341,1,10,0:3:0:0:
304,248,76529,6,0,P|352:236|400:244,1,69.9999978637696,2|8,3:0|0:3,0:0:0:0:
440,324,76904,1,2,3:0:0:0:
324,144,77091,2,0,P|308:116|316:64,2,69.9999978637696,8|2|10,0:3|3:0|0:3,0:0:0:0:
340,168,77560,1,0,3:0:0:0:
352,196,77654,1,2,3:0:0:0:
320,320,77841,1,10,0:3:0:0:
456,204,78029,6,0,P|448:156|424:116,1,69.9999978637696,2|8,3:0|0:3,0:0:0:0:
220,292,78404,2,0,P|244:248|280:224,1,69.9999978637696,2|8,3:0|0:3,0:0:0:0:
384,356,78779,1,2,3:0:0:0:
384,356,78873,1,0,3:0:0:0:
384,356,78966,1,8,3:3:0:0:
184,188,79154,1,2,3:0:0:0:
184,188,79248,1,0,3:0:0:0:
184,188,79341,1,8,3:3:0:0:
340,108,79529,5,2,3:0:0:0:
280,300,79716,1,8,0:3:0:0:
244,136,79904,1,2,3:0:0:0:
376,236,80091,1,8,0:3:0:0:
284,44,80279,5,2,3:0:0:0:
292,248,80466,1,10,3:3:0:0:
292,248,80559,1,0,3:0:0:0:
292,248,80653,1,2,3:0:0:0:
360,120,80841,1,10,0:3:0:0:
164,152,81029,5,2,3:0:0:0:
204,340,81216,1,10,3:3:0:0:
204,340,81310,1,0,3:0:0:0:
204,340,81404,1,2,3:0:0:0:
292,248,81591,1,10,0:3:0:0:
96,244,81779,6,0,P|44:260|32:268,1,69.9999978637696,2|8,3:0|0:3,0:0:0:0:
292,248,82154,2,0,P|344:240|376:224,1,69.9999978637696,2|8,3:0|0:3,0:0:0:0:
136,104,82529,5,2,3:0:0:0:
184,316,82716,1,8,0:3:0:0:
240,148,82904,1,2,3:0:0:0:
104,200,83091,1,8,0:3:0:0:
256,184,83279,5,2,3:0:0:0:
36,136,83466,1,10,0:3:0:0:
172,280,83654,1,2,3:0:0:0:
144,44,83841,1,10,0:3:0:0:
80,224,84029,6,0,L|64:296,1,69.9999978637696,2|8,3:0|0:3,0:0:0:0:
308,176,84404,2,0,L|324:108,1,69.9999978637696,2|8,3:0|0:3,0:0:0:0:
136,264,84779,1,2,3:0:0:0:
136,264,84873,1,0,3:0:0:0:
136,264,84966,1,8,3:3:0:0:
400,180,85154,1,2,3:0:0:0:
400,180,85248,1,0,3:0:0:0:
400,180,85341,1,8,3:3:0:0:
208,120,85529,5,2,3:0:0:0:
232,276,85716,1,8,0:3:0:0:
292,200,85904,1,2,3:0:0:0:
132,288,86091,1,8,0:3:0:0:
252,120,86279,2,0,P|296:112|336:120,1,69.9999978637696,2|8,3:0|0:3,0:0:0:0:
424,140,86654,1,2,3:0:0:0:
424,140,86841,1,10,0:3:0:0:
276,280,87029,5,0,3:0:0:0:
184,104,87216,1,8,3:3:0:0:
152,348,87404,1,0,3:0:0:0:
272,176,87591,1,0,3:0:0:0:
52,252,87779,5,10,3:0:0:0:
296,184,87966,1,10,3:0:0:0:
104,100,88154,5,10,3:0:0:0:
328,200,88341,1,10,3:0:0:0:
36,160,88529,5,10,3:0:0:0:
40,160,91529,5,0,3:0:0:0:
40,160,91904,5,0,3:0:0:0:
148,256,92091,1,0,3:0:0:0:
132,140,92279,1,0,3:0:0:0:
72,332,92466,1,0,3:0:0:0:
264,232,92654,1,0,3:0:0:0:
36,212,92841,1,0,3:0:0:0:
216,144,93029,5,8,3:0:0:0:
168,324,93216,1,8,3:0:0:0:
288,80,93404,5,8,3:0:0:0:
184,272,93591,1,8,3:0:0:0:
368,48,93779,5,10,3:0:0:0:
208,220,93966,1,10,3:0:0:0:
452,36,94154,5,10,3:0:0:0:
248,176,94341,1,10,3:0:0:0:
428,192,94529,6,0,P|416:228|416:248,1,44.999998626709,0|0,3:0|3:0,0:0:0:0:
424,272,94904,6,0,P|376:264|344:268,1,64.9999970245363,8|0,0:3|3:0,0:0:0:0:
272,316,95279,1,0,0:0:0:0:
508,248,95466,2,0,P|480:208|448:192,1,64.9999970245363,0|8,3:0|0:3,0:0:0:0:
284,188,95841,5,0,0:0:0:0:
256,204,95935,1,0,0:0:0:0:
228,220,96029,2,0,P|176:232|132:220,1,97.4999955368044,0|0,3:0|3:0,0:0:0:0:
104,196,96404,1,8,0:3:0:0:
192,124,96591,1,0,3:0:0:0:
124,292,96779,1,0,0:0:0:0:
76,80,96966,1,0,3:0:0:0:
20,184,97154,1,8,0:3:0:0:
196,84,97341,5,0,0:0:0:0:
196,84,97435,1,0,0:0:0:0:
196,84,97529,2,0,P|252:84|296:112,1,97.4999955368044,0|0,3:0|3:0,0:0:0:0:
308,120,97904,2,0,L|328:56,1,64.9999970245363,8|0,0:3|3:0,0:0:0:0:
212,172,98279,1,0,0:0:0:0:
404,60,98466,5,2,3:0:0:0:
376,156,98654,1,10,0:3:0:0:
348,248,98841,1,2,0:3:0:0:
244,116,99029,6,0,P|192:104|144:116,1,97.4999955368044,0|0,3:0|3:0,0:0:0:0:
120,128,99404,1,8,0:3:0:0:
164,260,99591,1,0,3:0:0:0:
164,260,99685,1,0,3:0:0:0:
164,260,99779,1,0,3:0:0:0:
64,216,99966,1,0,3:0:0:0:
260,120,100154,1,8,0:3:0:0:
304,256,100341,6,0,P|304:232|300:212,1,32.4999985122681,0|0,3:0|3:0,3:0:0:0:
260,120,100529,2,0,P|240:72|252:24,1,97.4999955368044,0|0,3:0|3:0,0:0:0:0:
256,12,100904,2,0,L|188:40,1,64.9999970245363,8|0,0:3|3:0,0:0:0:0:
112,108,101279,1,0,0:0:0:0:
336,96,101466,2,0,P|380:96|404:108,2,64.9999970245363,0|8|0,3:0|0:3|0:0,0:0:0:0:
200,200,102029,6,0,L|128:280,1,97.4999955368044,0|0,3:0|3:0,0:0:0:0:
116,300,102404,1,8,0:3:0:0:
96,152,102591,2,0,L|88:112,2,32.4999985122681,0|0|0,3:0|3:0|3:0,3:0:0:0:
192,284,102966,5,0,3:0:0:0:
40,232,103154,1,8,0:3:0:0:
216,160,103341,1,0,3:0:0:0:
216,160,103435,1,0,3:0:0:0:
216,160,103529,2,0,P|256:144|312:152,1,97.4999955368044,0|0,3:0|3:0,0:0:0:0:
336,168,103904,2,0,P|344:204|364:228,1,64.9999970245363,8|0,0:3|3:0,0:0:0:0:
440,152,104279,1,0,0:0:0:0:
216,92,104466,5,2,3:0:0:0:
240,180,104654,1,10,0:3:0:0:
264,264,104841,1,2,0:3:0:0:
104,284,105029,6,0,L|124:248,1,32.4999985122681,8|0,0:3|0:3,0:0:0:0:
216,92,105310,2,0,L|232:128,1,32.4999985122681,8|0,0:3|0:0,0:0:0:0:
320,296,105591,5,8,0:3:0:0:
327,281,105684,1,8,0:3:0:0:
335,267,105778,1,8,0:3:0:0:
204,172,105966,6,0,L|176:200,1,32.4999985122681,8|0,0:3|0:0,0:0:0:0:
80,288,106154,2,0,L|140:292,1,32.4999985122681,0|0,3:0|3:0,3:0:0:0:
240,296,106341,1,0,3:0:0:0:
64,148,106529,5,0,3:0:0:0:
256,192,115529,12,0,117029,0:0:0:0:
120,168,117591,6,4,L|88:148,2,32.4999985122681,4|4|4,0:2|0:2|0:2,0:2:0:0:
208,128,117966,1,4,0:2:0:0:
276,196,118154,1,4,0:2:0:0:
368,176,118341,1,4,0:2:0:0:
204,248,118529,6,0,L|168:312,1,64.9999970245363,0|0,3:0|0:0,0:0:0:0:
156,336,118810,1,0,3:0:0:0:
156,336,118904,1,8,3:3:0:0:
108,176,119091,2,0,P|140:144|168:128,1,64.9999970245363,0|0,3:0|0:0,0:0:0:0:
312,248,119466,1,2,3:3:0:0:
184,208,119654,1,10,0:3:0:0:
312,248,119841,1,2,0:3:0:0:
192,120,120029,6,0,P|144:132|108:184,1,97.4999955368044,0|0,3:0|3:0,0:0:0:0:
100,192,120404,1,8,3:3:0:0:
208,268,120591,1,0,3:0:0:0:
264,188,120779,5,0,0:0:0:0:
112,288,120966,1,0,3:0:0:0:
264,352,121154,1,8,0:3:0:0:
344,224,121341,5,0,3:0:0:0:
344,224,121435,1,0,3:0:0:0:
344,224,121529,2,0,P|340:176|320:144,1,64.9999970245363,0|0,3:0|0:0,0:0:0:0:
272,84,121904,1,8,3:3:0:0:
260,272,122091,2,0,L|304:336,1,64.9999970245363,0|0,3:0|0:0,0:0:0:0:
160,156,122466,5,2,3:3:0:0:
200,336,122654,1,10,0:3:0:0:
120,264,122841,1,2,0:3:0:0:
276,136,123029,6,0,P|296:168|304:236,1,97.4999955368044,0|0,3:0|3:0,0:0:0:0:
308,260,123404,2,0,L|376:232,1,64.9999970245363,8|0,0:3|3:0,0:0:0:0:
220,236,123779,1,0,0:0:0:0:
288,352,123966,1,0,3:0:0:0:
440,208,124154,1,8,0:3:0:0:
244,152,124341,5,0,3:0:0:0:
220,152,124435,1,0,3:0:0:0:
200,160,124529,2,0,P|164:172|120:216,1,97.4999955368044,0|0,3:0|3:0,0:0:0:0:
112,244,124904,1,8,0:3:0:0:
236,296,125091,2,0,L|312:328,1,64.9999970245363,0|0,3:0|0:0,0:0:0:0:
280,192,125466,1,0,3:0:0:0:
112,244,125654,2,0,L|39:267,1,64.9999970245363,8|0,0:3|0:0,0:0:0:0:
280,192,126029,6,0,P|292:232|280:296,1,97.4999955368044,0|0,3:0|3:0,0:0:0:0:
272,312,126404,1,8,0:3:0:0:
184,236,126591,1,0,3:0:0:0:
384,216,126779,1,0,0:0:0:0:
176,132,126966,5,0,3:0:0:0:
104,208,127154,2,0,P|92:252|96:288,1,64.9999970245363,8|0,0:3|0:0,0:0:0:0:
260,164,127529,6,0,P|260:112|228:60,1,97.4999955368044,0|0,3:0|3:0,0:0:0:0:
224,48,127904,1,8,0:3:0:0:
168,208,128091,2,0,L|192:272,1,64.9999970245363,0|0,3:0|0:0,0:0:0:0:
228,140,128466,5,2,3:3:0:0:
124,316,128654,1,10,0:3:0:0:
120,108,128841,5,2,0:3:0:0:
176,264,129029,2,0,L|252:336,1,97.4999955368044,0|0,3:0|3:0,0:0:0:0:
264,348,129404,5,8,0:3:0:0:
292,192,129591,1,0,3:0:0:0:
348,268,129779,5,0,0:0:0:0:
268,104,129966,1,0,3:0:0:0:
208,180,130154,5,8,0:3:0:0:
356,80,130341,1,0,0:0:0:0:
356,80,130435,1,0,0:0:0:0:
356,80,130529,2,0,P|368:132|360:160,1,64.9999970245363,0|0,3:0|0:0,0:0:0:0:
292,216,130810,1,0,0:0:0:0:
292,216,130904,2,0,L|236:252,1,64.9999970245363,8|0,0:3|0:0,0:0:0:0:
160,240,131185,1,0,0:0:0:0:
160,240,131279,1,0,3:0:0:0:
188,80,131466,6,0,L|176:36,2,32.4999985122681,0|0|8,0:0|0:0|0:3,0:0:0:0:
76,208,131841,5,0,0:0:0:0:
76,208,131935,1,0,0:0:0:0:
76,208,132029,2,0,L|104:184,1,32.4999985122681,0|0,3:0|0:0,0:0:0:0:
172,252,132216,2,0,L|200:280,1,32.4999985122681
244,160,132404,2,0,L|280:136,1,32.4999985122681,8|0,0:3|0:0,0:0:0:0:
348,84,132591,1,0,0:0:0:0:
332,268,132779,5,0,3:0:0:0:
260,72,132966,1,0,3:0:0:0:
120,228,133154,1,0,3:0:0:0:
336,264,133529,5,0,0:0:0:0:
176,152,133716,1,0,0:3:0:0:
176,152,133810,1,8,0:3:0:0:
176,152,133904,1,8,0:3:0:0:
368,176,134091,5,0,0:3:0:0:
392,200,134185,1,8,0:3:0:0:
412,232,134279,1,8,0:3:0:0:
416,260,134373,1,0,0:3:0:0:
404,292,134466,2,0,P|392:316|380:328,1,32.4999985122681,0|8,0:3|0:3,0:0:0:0:
320,368,134654,1,8,0:3:0:0:
292,176,134841,5,0,0:0:0:0:
304,156,134935,1,8,0:3:0:0:
316,140,135029,1,8,0:3:0:0:
208,92,135216,1,0,3:0:0:0:
240,284,135404,1,0,3:0:0:0:
184,196,135591,1,0,3:0:0:0:
368,220,135779,1,0,3:0:0:0:
240,80,135966,5,0,3:0:0:0:
204,68,136060,1,0,3:0:0:0:
164,68,136154,1,0,3:0:0:0:
128,80,136248,1,8,3:3:0:0:
100,104,136341,1,8,3:3:0:0:
80,136,136435,1,8,3:3:0:0:
72,176,136529,2,8,P|60:216|36:248,1,64.9999970245363,8|0,3:3|0:3,0:3:0:0:
220,152,136904,2,0,P|228:112|244:80,1,64.9999970245363,8|0,0:3|0:0,0:0:0:0:
300,284,137279,6,0,P|264:304|228:312,1,64.9999970245363,0|0,3:0|0:0,0:0:0:0:
376,124,137654,2,0,P|416:116|448:120,1,64.9999970245363,8|0,0:3|0:0,0:0:0:0:
256,280,138029,6,0,L|204:356,1,64.9999970245363,0|0,3:0|0:0,0:0:0:0:
264,120,138404,2,0,L|312:52,1,64.9999970245363,8|0,0:3|0:0,0:0:0:0:
344,276,138779,1,0,3:0:0:0:
384,144,138966,1,0,0:0:0:0:
248,288,139154,1,8,0:3:0:0:
244,108,139341,5,0,3:0:0:0:
244,108,139435,1,0,3:0:0:0:
244,108,139529,2,0,P|220:76|188:56,1,64.9999970245363,0|0,3:0|3:0,3:0:0:0:
154,250,139904,2,0,L|190:322,1,64.9999970245363,0|0,3:0|3:0,3:0:0:0:
218,170,140279,5,0,3:0:0:0:
102,322,140466,1,0,3:0:0:0:
102,322,140560,1,0,3:0:0:0:
102,322,140654,1,0,3:0:0:0:
58,210,140841,1,0,3:0:0:0:
262,266,141029,6,0,L|346:290,1,64.9999970245363,0|0,3:0|3:0,3:0:0:0:
282,178,141404,1,0,3:0:0:0:
186,226,141591,1,0,3:0:0:0:
186,122,141779,1,0,3:0:0:0:
226,322,141966,1,0,3:0:0:0:
226,322,142060,1,0,3:0:0:0:
226,322,142154,1,0,3:0:0:0:
70,194,142341,6,0,L|106:170,1,32.4999985122681,0|0,3:0|3:0,3:0:0:0:
222,50,142529,2,0,P|254:74|274:102,1,64.9999970245363,0|0,3:0|3:0,3:0:0:0:
194,282,142904,1,0,3:0:0:0:
218,190,143091,1,0,3:0:0:0:
306,278,143279,1,8,3:0:0:0:
122,214,143466,1,8,3:0:0:0:
306,122,143654,1,8,3:0:0:0:
222,330,143841,1,8,3:0:0:0:
126,126,144029,5,8,3:3:0:0:
66,262,144216,1,8,3:3:0:0:
226,182,144404,5,8,3:3:0:0:
154,362,144591,1,8,3:3:0:0:
246,90,144779,5,10,3:3:0:0:
322,258,144966,1,10,3:3:0:0:
146,146,145154,5,10,3:3:0:0:
234,362,145341,1,10,3:3:0:0:
225,167,145529,6,0,P|225:121|202:80,1,69.9999978637696,2|8,3:0|0:3,0:0:0:0:
135,290,145904,1,2,3:0:0:0:
123,185,146091,1,8,0:3:0:0:
249,296,146279,2,0,L|289:326,1,34.9999989318848,2|0,3:0|3:0,3:0:0:0:
333,235,146466,2,0,L|386:227,1,34.9999989318848,10|0,0:3|3:0,0:0:0:0:
392,127,146654,1,2,3:0:0:0:
459,340,146841,1,10,0:3:0:0:
278,137,147029,6,0,P|278:89|288:52,1,69.9999978637696,2|8,3:0|0:3,0:0:0:0:
184,275,147404,2,0,P|172:339|156:361,1,69.9999978637696,2|8,3:0|0:3,0:0:0:0:
61,136,147779,1,2,3:0:0:0:
61,136,147873,1,0,3:0:0:0:
61,136,147966,1,8,3:3:0:0:
284,233,148154,1,2,3:0:0:0:
284,233,148248,1,0,3:0:0:0:
284,233,148341,1,8,3:3:0:0:
103,252,148529,5,2,3:0:0:0:
162,166,148716,1,8,0:3:0:0:
195,313,148904,1,2,3:0:0:0:
72,166,149091,1,8,0:3:0:0:
247,221,149279,5,2,3:0:0:0:
314,93,149466,2,0,L|336:138,1,34.9999989318848,10|0,0:3|0:0,0:0:0:0:
386,238,149654,1,2,3:0:0:0:
448,114,149841,1,10,0:3:0:0:
200,115,150029,5,2,3:0:0:0:
257,218,150216,1,10,0:3:0:0:
260,243,150309,1,2,0:3:0:0:
257,269,150403,1,2,3:3:0:0:
248,294,150497,1,2,0:3:0:0:
233,315,150591,1,10,0:3:0:0:
125,159,150779,6,0,P|151:117|188:94,1,69.9999978637696,2|8,3:0|0:3,0:0:0:0:
364,283,151154,2,0,P|340:324|313:349,1,69.9999978637696,2|8,3:0|0:3,0:0:0:0:
281,256,151435,5,0,3:0:0:0:
281,256,151529,2,0,L|316:169,1,69.9999978637696,2|8,3:0|0:3,0:0:0:0:
173,53,151904,2,0,L|200:126,1,69.9999978637696,2|8,3:0|0:3,0:0:0:0:
140,292,152279,1,2,3:0:0:0:
256,191,152466,1,10,3:3:0:0:
272,178,152560,1,0,3:0:0:0:
289,165,152654,1,2,3:0:0:0:
389,191,152841,1,10,0:3:0:0:
140,293,153029,6,0,P|124:246|126:215,1,69.9999978637696,2|8,3:0|0:3,0:0:0:0:
273,60,153404,2,0,P|289:99|294:134,1,69.9999978637696,2|8,3:0|0:3,0:0:0:0:
93,132,153779,1,2,3:0:0:0:
93,132,153873,1,0,3:0:0:0:
93,132,153966,1,8,3:3:0:0:
276,275,154154,1,2,3:0:0:0:
276,275,154248,1,0,3:0:0:0:
276,275,154341,1,8,3:3:0:0:
41,221,154529,5,2,3:0:0:0:
107,327,154716,1,10,0:3:0:0:
133,174,154904,2,0,P|107:138|60:111,1,69.9999978637696,2|8,3:0|0:3,0:0:0:0:
41,221,155279,1,2,3:0:0:0:
204,250,155466,1,10,0:3:0:0:
110,308,155654,1,2,3:0:0:0:
174,152,155841,1,10,0:3:0:0:
207,311,156029,5,0,3:0:0:0:
279,157,156216,1,0,0:3:0:0:
315,270,156404,1,0,3:0:0:0:
145,234,156591,1,0,0:3:0:0:
181,139,156779,5,8,3:3:0:0:
266,342,156966,1,8,0:3:0:0:
357,195,157154,1,8,3:3:0:0:
145,234,157341,1,8,0:3:0:0:
373,100,157529,6,0,P|421:130|442:162,1,69.9999978637696,2|8,3:0|0:3,0:0:0:0:
470,240,157904,1,2,3:0:0:0:
275,255,158091,2,0,P|244:280|225:329,2,69.9999978637696,8|2|10,0:3|3:0|3:3,0:0:0:0:
297,241,158560,1,0,3:0:0:0:
314,222,158654,1,2,3:0:0:0:
322,98,158841,1,10,0:3:0:0:
173,232,159029,6,2,P|150:275|148:320,1,69.9999978637696,2|8,3:0|0:3,0:0:0:0:
322,98,159404,2,0,P|297:67|273:48,1,69.9999978637696,2|8,3:0|0:3,0:0:0:0:
137,208,159779,5,2,3:0:0:0:
126,229,159873,1,0,3:0:0:0:
116,250,159966,1,8,3:3:0:0:
414,190,160154,1,2,3:0:0:0:
396,171,160248,1,0,3:0:0:0:
378,154,160341,1,8,3:3:0:0:
158,155,160529,5,2,3:0:0:0:
196,305,160716,1,8,0:3:0:0:
269,218,160904,1,2,3:0:0:0:
73,322,161091,1,8,0:3:0:0:
71,118,161279,5,2,3:0:0:0:
192,186,161466,1,10,0:3:0:0:
192,186,161560,1,0,0:0:0:0:
192,186,161654,1,2,3:0:0:0:
30,278,161841,1,10,0:3:0:0:
177,82,162029,5,2,3:0:0:0:
298,150,162216,2,0,L|259:174,1,34.9999989318848,10|0,0:3|0:0,0:0:0:0:
136,242,162404,1,2,3:0:0:0:
177,82,162591,1,10,0:3:0:0:
299,254,162779,6,0,L|332:324,1,69.9999978637696,2|8,3:0|0:3,0:0:0:0:
132,135,163154,2,0,L|188:68,1,69.9999978637696,2|8,3:0|0:3,0:0:0:0:
302,150,163529,5,2,3:0:0:0:
271,313,163716,1,8,0:3:0:0:
185,199,163904,1,2,3:0:0:0:
366,269,164091,1,8,0:3:0:0:
190,157,164279,5,2,3:0:0:0:
353,306,164466,1,10,0:3:0:0:
390,177,164654,1,2,3:0:0:0:
144,312,164841,1,10,0:3:0:0:
281,161,165029,6,0,L|343:108,2,69.9999978637696,2|8|2,3:0|0:3|3:0,0:0:0:0:
174,248,165591,1,8,0:3:0:0:
118,122,165779,1,2,3:0:0:0:
118,122,165873,1,0,3:0:0:0:
118,122,165966,1,8,3:3:0:0:
47,333,166154,1,2,3:0:0:0:
47,333,166248,1,0,3:0:0:0:
47,333,166341,1,8,3:3:0:0:
235,168,166529,5,2,3:0:0:0:
273,308,166716,1,8,0:3:0:0:
133,199,166904,1,2,3:0:0:0:
336,230,167091,1,8,0:3:0:0:
151,316,167279,2,0,L|73:346,1,69.9999978637696,2|10,3:0|0:3,0:0:0:0:
14,229,167654,1,2,3:0:0:0:
14,229,167841,1,10,0:3:0:0:
136,117,168029,5,0,3:0:0:0:
192,306,168216,1,0,3:3:0:0:
253,156,168404,1,0,3:0:0:0:
192,306,168591,1,0,3:3:0:0:
91,182,168779,5,8,3:0:0:0:
286,252,168966,1,8,0:3:0:0:
138,70,169154,5,8,3:0:0:0:
255,290,169341,1,8,0:3:0:0:
54,99,169529,5,10,3:0:0:0:
360,130,172529,6,0,L|357:171,1,37.5000014305115,0|0,3:0|0:0,0:0:0:0:
267,242,172904,2,0,L|237:282,1,37.5000014305115,0|0,3:0|0:0,0:0:0:0:
238,137,173279,2,0,P|261:132|283:132,2,37.5000014305115,0|0|0,3:0|0:0|3:0,0:0:0:0:
147,188,173841,1,0,0:0:0:0:
262,56,174029,6,0,P|291:59|311:69,1,37.5000014305115,0|0,3:0|0:0,0:0:0:0:
383,105,174404,1,0,3:0:0:0:
383,105,174779,5,0,3:0:0:0:
311,153,174966,1,0,0:0:0:0:
416,207,175154,1,0,3:0:0:0:
262,233,175341,1,0,0:0:0:0:
414,313,175529,2,0,L|450:328,2,37.5000014305115,0|0|0,3:0|0:0|3:0,0:0:0:0:
413,313,176279,5,0,3:0:0:0:
288,244,176466,1,0,0:0:0:0:
378,187,176653,1,0,3:0:0:0:
327,348,176841,1,0,0:0:0:0:
209,208,177029,6,0,L|181:171,1,37.5000014305115,0|0,3:0|0:0,0:0:0:0:
114,302,177404,2,0,L|122:347,1,37.5000014305115,0|0,3:0|0:0,0:0:0:0:
131,123,177779,2,0,L|91:148,1,37.5000014305115,0|0,3:0|0:0,0:0:0:0:
247,266,178154,2,0,L|292:278,1,37.5000014305115,0|0,3:0|0:0,0:0:0:0:
131,124,178529,6,0,P|101:162|93:193,1,75.0000028610231,0|0,3:0|3:0,0:0:0:0:
220,325,179279,2,0,P|244:297|257:262,1,75.0000028610231,0|0,3:0|3:0,0:0:0:0:
209,172,179841,1,0,0:0:0:0:
325,288,180029,2,0,L|359:320,2,37.5000014305115,0|0|0,3:0|0:0|3:0,0:0:0:0:
209,172,180591,5,0,0:0:0:0:
351,178,180779,2,0,L|392:175,1,37.5000014305115,0|0,3:0|0:0,0:0:0:0:
281,73,181154,2,0,L|317:45,1,37.5000014305115,0|0,3:0|0:0,0:0:0:0:
166,189,181529,6,0,P|161:221|166:242,1,37.5000014305115,0|0,3:0|0:0,0:0:0:0:
266,346,181904,2,0,P|267:313|262:301,1,37.5000014305115,0|0,3:0|0:0,0:0:0:0:
225,222,182279,1,0,3:0:0:0:
225,222,182466,1,0,0:0:0:0:
349,265,182654,2,0,P|370:270|403:273,1,37.5000014305115,0|0,3:0|0:0,0:0:0:0:
173,163,183029,6,0,P|151:191|148:207,2,37.5000014305115,0|0|0,3:0|0:0|3:0,0:0:0:0:
277,106,183591,2,0,L|316:108,1,37.5000014305115,0|0,0:0|3:0,0:0:0:0:
194,241,183966,2,0,L|149:238,1,37.5000014305115,0|0,0:0|3:0,0:0:0:0:
69,158,184341,1,0,0:0:0:0:
117,279,184529,6,0,B|118:307|153:330|153:330|141:347,2,75.0000028610231
162,152,185654,1,0,0:0:0:0:
327,234,186029,2,0,B|345:253|345:253|333:286|338:308,2,75.0000028610231
241,142,186966,1,0,0:0:0:0:
229,263,187154,2,0,P|221:293|215:303,1,37.5000014305115
112,167,187529,6,0,L|133:133,1,37.5000014305115
153,258,187904,1,0,0:0:0:0:
46,94,188091,2,0,L|17:58,1,37.5000014305115
94,199,188466,2,0,L|114:162,1,37.5000014305115
43,277,188841,1,0,0:0:0:0:
208,226,189029,6,0,L|286:207,1,75.0000028610231
145,322,189779,2,0,L|106:301,2,37.5000014305115
250,154,195779,5,0,3:0:0:0:
146,267,195966,2,0,L|118:291,1,25,0|0,3:0|0:0,0:0:0:0:
330,218,196248,2,0,L|354:253,1,25,0|0,3:0|0:0,0:0:0:0:
192,90,196529,6,0,L|164:147,1,50,0|0,3:0|0:0,0:0:0:0:
226,300,196904,2,0,L|257:244,1,50,0|0,3:0|0:0,0:0:0:0:
106,197,197279,1,0,3:0:0:0:
144,320,197466,1,0,0:0:0:0:
32,184,197654,1,0,3:0:0:0:
206,159,197841,5,4,0:2:0:0:
206,159,197935,1,4,0:2:0:0:
206,159,198029,2,0,L|267:139,1,50,4|0,3:2|0:0,0:0:0:0:
265,283,198404,2,0,P|265:317|261:339,1,50,0|0,3:0|0:0,0:0:0:0:
101,206,198779,2,0,L|86:182,2,25,4|0|0,3:2|0:2|0:2,0:2:0:0:
253,189,199154,2,0,L|274:216,2,25,4|0|0,3:2|0:2|0:2,0:2:0:0:
220,64,199529,5,0,3:0:0:0:
220,64,199716,1,0,0:0:0:0:
304,128,199904,2,0,P|332:164|336:184,1,50,0|0,3:0|0:0,0:0:0:0:
208,320,200279,1,0,3:0:0:0:
208,320,200466,1,0,0:0:0:0:
232,220,200654,2,0,P|252:188|272:172,1,50,0|0,3:0|0:0,0:0:0:0:
344,96,201029,5,2,0:2:0:0:
368,136,201404,1,2,0:2:0:0:
392,176,201779,1,2,0:2:0:0:
256,48,202154,5,6,0:2:0:0:
80,176,202529,6,0,L|120:104,1,69.9999978637696,2|8,3:0|0:3,0:0:0:0:
204,284,202904,1,2,3:0:0:0:
180,152,203091,1,8,0:3:0:0:
72,272,203279,1,2,3:0:0:0:
280,236,203466,1,10,0:3:0:0:
280,236,203560,1,0,3:0:0:0:
280,236,203654,1,2,3:0:0:0:
228,336,203841,1,10,0:3:0:0:
368,256,204029,6,0,P|360:208|344:176,1,69.9999978637696,2|8,3:0|0:3,0:0:0:0:
184,282,204404,2,0,P|208:318|244:346,1,69.9999978637696,2|8,3:0|0:3,0:0:0:0:
264,124,204779,1,2,3:0:0:0:
264,124,204873,1,0,3:0:0:0:
264,124,204966,1,8,0:3:0:0:
108,284,205154,1,2,3:0:0:0:
108,284,205248,1,0,3:0:0:0:
108,284,205341,1,8,0:3:0:0:
188,96,205529,6,0,P|220:56|252:44,2,69.9999978637696,2|8|2,3:0|0:3|3:0,0:0:0:0:
152,224,206091,1,8,0:3:0:0:
300,148,206279,2,0,L|380:144,1,69.9999978637696,2|10,3:0|0:3,0:0:0:0:
400,232,206560,1,0,3:0:0:0:
400,232,206654,2,0,P|388:268|396:300,1,69.9999978637696,2|10,3:0|0:3,0:0:0:0:
480,184,207029,5,2,3:0:0:0:
292,224,207216,1,10,0:3:0:0:
272,232,207310,1,0,3:0:0:0:
252,240,207404,1,2,3:0:0:0:
392,136,207591,1,10,0:3:0:0:
324,296,207779,2,0,L|292:364,1,69.9999978637696,2|8,3:0|0:3,0:0:0:0:
200,160,208154,2,0,L|184:88,1,69.9999978637696,2|8,3:0|0:3,0:0:0:0:
148,324,208529,5,2,3:0:0:0:
96,152,208716,1,8,0:3:0:0:
252,252,208904,1,2,3:0:0:0:
44,240,209091,1,8,0:3:0:0:
228,116,209279,5,2,3:0:0:0:
100,284,209466,1,10,0:3:0:0:
100,284,209560,1,0,3:0:0:0:
100,284,209654,1,2,3:0:0:0:
120,144,209841,1,10,0:3:0:0:
288,284,210029,6,0,L|364:312,1,69.9999978637696,2|8,3:0|0:3,0:0:0:0:
167,92,210404,2,0,L|107:156,1,69.9999978637696,2|8,3:0|0:3,0:0:0:0:
312,200,210779,1,2,3:0:0:0:
328,184,210873,1,0,3:0:0:0:
344,168,210966,1,8,0:3:0:0:
196,320,211154,1,2,3:0:0:0:
185,299,211248,1,0,3:0:0:0:
175,279,211341,1,8,0:3:0:0:
240,148,211529,5,2,3:0:0:0:
84,272,211716,1,8,0:3:0:0:
240,148,211904,2,0,L|324:148,1,69.9999978637696,2|8,3:0|0:3,0:0:0:0:
264,288,212279,1,2,3:0:0:0:
144,112,212466,1,10,0:3:0:0:
264,288,212654,1,2,3:0:0:0:
328,144,212841,5,8,0:3:0:0:
328,144,212935,1,0,3:0:0:0:
328,144,213029,1,0,3:0:0:0:
188,228,213216,1,8,0:3:0:0:
248,72,213404,5,0,3:0:0:0:
268,304,213591,1,8,0:3:0:0:
136,124,213779,5,2,3:0:0:0:
200,336,213966,1,10,0:3:0:0:
48,192,214154,5,2,3:3:0:0:
124,336,214341,1,10,3:3:0:0:
124,336,214435,1,2,3:3:0:0:
124,336,214529,2,0,P|136:296|168:264,1,69.9999978637696,2|8,3:3|0:3,0:0:0:0:
316,220,214904,2,0,P|296:176|268:148,1,69.9999978637696,2|8,3:0|0:3,0:0:0:0:
172,88,215279,1,2,3:0:0:0:
148,236,215466,1,8,0:3:0:0:
72,160,215654,1,2,3:0:0:0:
232,276,215841,5,8,0:3:0:0:
232,276,215935,1,0,3:0:0:0:
232,276,216029,2,0,P|284:272|316:280,1,69.9999978637696,2|8,3:0|0:3,0:0:0:0:
368,336,216310,1,2,3:0:0:0:
368,336,216404,2,0,L|412:268,1,69.9999978637696,2|8,3:0|0:3,0:0:0:0:
268,72,216779,6,2,L|284:108,1,34.9999989318848,2|2,3:0|0:3,0:0:0:0:
328,204,216966,1,10,0:3:0:0:
156,104,217154,6,2,L|148:172,1,34.9999989318848,2|2,3:0|0:3,0:0:0:0:
132,296,217341,1,10,0:3:0:0:
240,180,217529,5,2,3:0:0:0:
80,200,217716,1,10,0:3:0:0:
60,220,217810,1,2,3:0:0:0:
44,248,217904,2,0,P|40:292|52:320,1,69.9999978637696,2|8,3:0|0:3,0:0:0:0:
220,168,218279,1,2,3:0:0:0:
180,320,218466,1,10,0:3:0:0:
132,128,218654,1,2,3:0:0:0:
264,252,218841,1,10,0:3:0:0:
80,200,219029,5,2,3:0:0:0:
272,120,219216,1,8,0:3:0:0:
264,252,219404,1,2,3:0:0:0:
264,252,219498,1,0,3:0:0:0:
264,252,219591,1,8,0:3:0:0:
168,76,219779,5,2,3:0:0:0:
368,192,219966,1,8,0:3:0:0:
260,256,220154,1,2,3:0:0:0:
360,96,220341,5,8,0:3:0:0:
380,80,220435,1,0,3:0:0:0:
396,64,220529,1,2,3:0:0:0:
448,216,220716,1,10,0:3:0:0:
460,124,220904,5,2,3:0:0:0:
388,292,221091,1,10,0:3:0:0:
320,168,221279,2,0,P|272:152|248:156,1,69.9999978637696,0|8,3:0|0:3,0:0:0:0:
36,116,221654,5,2,3:0:0:0:
120,248,221841,1,8,0:3:0:0:
108,156,222029,5,2,3:0:0:0:
60,328,222216,1,10,0:3:0:0:
216,208,222404,2,0,P|280:196|300:200,1,69.9999978637696,0|8,3:0|0:3,0:0:0:0:
456,312,222779,6,0,L|408:300,1,34.9999989318848,2|0,3:0|3:0,3:0:0:0:
316,284,222966,1,10,3:3:0:0:
408,176,223154,6,0,L|368:192,1,34.9999989318848,2|0,3:0|3:0,3:0:0:0:
208,256,223341,1,10,3:3:0:0:
312,96,223529,5,0,3:0:0:0:
312,336,223716,1,8,0:3:0:0:
312,336,223810,1,0,3:0:0:0:
312,336,223904,1,2,3:0:0:0:
244,192,224091,1,10,0:3:0:0:
400,280,224279,1,2,3:0:0:0:
200,344,224466,1,10,0:3:0:0:
348,136,224654,1,2,3:0:0:0:
336,352,224841,1,10,0:3:0:0:
244,124,225029,5,0,3:0:0:0:
288,280,225216,1,0,3:3:0:0:
168,184,225404,1,0,3:0:0:0:
396,228,225591,1,0,3:3:0:0:
280,72,225779,5,8,3:3:0:0:
264,296,225966,1,8,3:3:0:0:
368,152,226154,1,8,3:0:0:0:
140,236,226341,1,8,3:3:0:0:
364,252,226529,6,0,P|376:276|380:304,2,40,2|0|2,0:2|0:0|0:2,0:0:0:0:
300,164,227091,1,0,0:0:0:0:
232,248,227279,2,0,P|216:276|212:300,2,40,2|0|2,0:2|0:0|0:2,0:0:0:0:
300,164,227841,1,0,0:0:0:0:
120,152,228029,5,2,0:2:0:0:
120,152,228216,1,2,0:2:0:0:
216,168,228404,5,2,0:2:0:0:
212,200,228591,1,2,0:2:0:0:
320,132,228779,5,2,0:2:0:0:
336,176,228966,1,2,0:2:0:0:
352,216,229154,1,2,0:2:0:0:
172,336,229529,6,0,B|200:260|200:260|168:264,1,97.4999955368044,0|0,3:0|3:0,0:0:0:0:
152,264,229904,1,8,0:3:0:0:
276,196,230091,2,0,L|344:188,1,64.9999970245363,0|0,3:0|0:0,0:0:0:0:
252,88,230466,1,0,3:0:0:0:
180,224,230654,2,0,P|184:272|200:296,1,64.9999970245363,8|0,0:3|0:0,0:0:0:0:
252,88,231029,6,0,P|192:92|152:76,1,97.4999955368044,0|0,3:0|3:0,0:0:0:0:
132,64,231404,1,8,0:3:0:0:
104,232,231591,1,0,3:0:0:0:
64,128,231779,1,0,0:0:0:0:
208,224,231966,1,0,3:0:0:0:
104,328,232154,1,8,0:3:0:0:
284,268,232341,5,0,3:0:0:0:
300,244,232435,1,0,3:0:0:0:
308,216,232529,2,0,P|312:184|284:124,1,97.4999955368044,0|0,3:0|3:0,0:0:0:0:
256,104,232904,2,0,L|320:84,1,64.9999970245363,8|0,3:3|3:0,0:0:0:0:
376,168,233279,1,0,0:0:0:0:
148,128,233466,5,2,0:3:0:0:
200,204,233654,1,10,0:3:0:0:
152,288,233841,1,2,0:3:0:0:
72,164,234029,6,0,P|72:104|100:56,1,97.4999955368044,0|0,3:0|3:0,0:0:0:0:
104,44,234404,1,8,0:3:0:0:
160,232,234591,1,0,3:0:0:0:
160,232,234685,1,0,3:0:0:0:
160,232,234779,1,0,3:0:0:0:
236,116,234966,1,0,3:0:0:0:
228,328,235154,1,8,0:3:0:0:
96,120,235341,6,0,L|120:176,1,32.4999985122681,0|0,3:0|3:0,3:0:0:0:
168,280,235529,2,0,P|208:256|268:264,1,97.4999955368044,0|0,3:0|3:0,0:0:0:0:
288,268,235904,1,8,0:3:0:0:
136,160,236091,2,0,P|100:196|96:224,1,64.9999970245363,0|0,3:0|0:0,0:0:0:0:
124,312,236466,1,0,3:0:0:0:
268,192,236654,2,0,L|340:172,1,64.9999970245363,8|0,0:3|0:0,0:0:0:0:
144,40,237029,6,0,P|120:92|136:152,1,97.4999955368044,0|0,3:0|3:0,3:0:0:0:
140,160,237404,2,0,L|56:176,1,64.9999970245363,8|0,3:3|3:0,0:0:0:0:
0,96,237779,1,0,0:0:0:0:
108,256,237966,1,0,3:0:0:0:
200,96,238154,1,8,0:3:0:0:
44,192,238341,5,0,3:0:0:0:
32,216,238435,1,0,3:0:0:0:
24,244,238529,2,0,P|20:288|40:344,1,97.4999955368044,0|0,3:0|3:0,3:0:0:0:
56,364,238904,1,8,0:3:0:0:
212,272,239091,2,0,P|256:260|292:264,1,64.9999970245363,0|0,3:0|0:0,0:0:0:0:
156,140,239466,5,2,3:0:0:0:
140,256,239654,1,10,0:3:0:0:
316,176,239841,1,2,0:3:0:0:
76,104,240029,6,0,L|124:128,1,32.4999985122681,8|0,3:3|0:0,0:0:0:0:
256,268,240310,2,0,L|216:288,1,32.4999985122681,8|0,3:0|0:0,0:0:0:0:
32,288,240591,2,0,L|72:240,1,32.4999985122681,8|8,3:0|3:0,0:0:0:0:
112,172,240779,1,8,3:0:0:0:
256,268,240966,5,8,3:0:0:0:
284,276,241060,1,8,3:0:0:0:
316,288,241154,2,0,L|352:296,2,32.4999985122681,8|0|0,3:0|3:0|3:0,0:0:0:0:
216,144,241529,1,2,3:2:0:0:
256,192,241716,12,4,244529,0:2:0:0:
