osu file format v14

[General]
AudioFilename: audio.mp3
AudioLeadIn: 0
PreviewTime: 47737
Countdown: 0
SampleSet: Soft
StackLeniency: 0.7
Mode: 0
LetterboxInBreaks: 0
WidescreenStoryboard: 1

[Editor]
DistanceSpacing: 0.3
BeatDivisor: 4
GridSize: 8
TimelineZoom: 1.6

[Metadata]
Title:Heroine wa Heikin Ika.
TitleUnicode:ヒロインは平均以下。
Artist:HoneyWorks feat. Minato Aqua
ArtistUnicode:HoneyWorks feat. 湊あくあ
Creator:aundy
Version:Ayesha's Insane
Source:
Tags:Serizawa Haruki Jack J_a_c_k -_Nilou_- Nilou Syndicate_ SayuMana Ayesha Altugle Shizuku- Kazato Asa Shikibe Mayu Matsuyuki Ame RK657 Amateurre Kyuuchie kowari leominexd leomine jpop j-pop japanese pop 告白実行委員会 -flying songs- 恋してる kokuhaku jikkou iinkai koishiteru Suzumi Hiyori 涼海ひより shito Minase Inori 水瀬 いのり Suki na Ko ni Uso Tsuita. 好きな子に噓ついた。confession executive committee The Heroine is Below Average.
BeatmapID:4190110
BeatmapSetID:2011740

[Difficulty]
HPDrainRate:5
CircleSize:3.8
OverallDifficulty:7.5
ApproachRate:8.5
SliderMultiplier:1.7
SliderTickRate:1

[Events]
//Background and Video events
0,0,"bg.jpg",0,0
Video,0,"VD.mp4"
//Break Periods
2,82812,90187
2,138012,146737
2,180012,183637
//Storyboard Layer 0 (Background)
//Storyboard Layer 1 (Fail)
//Storyboard Layer 2 (Pass)
//Storyboard Layer 3 (Foreground)
//Storyboard Layer 4 (Overlay)
//Storyboard Sound Samples

[TimingPoints]
1012,300,4,2,1,60,1,0
1012,-142.857142857143,4,2,1,60,0,0
5812,-100,4,2,1,60,0,0
6112,-100,4,2,1,63,0,0
6412,-100,4,2,1,66,0,0
6712,-100,4,2,1,69,0,0
7012,-100,4,2,1,72,0,0
7312,-100,4,2,1,75,0,0
7612,-100,4,2,1,78,0,0
7912,-100,4,2,1,81,0,0
8212,-100,4,2,1,50,0,0
9412,-100,4,2,1,80,0,0
19012,-100,4,2,1,75,0,0
38212,-111.111111111111,4,2,1,70,0,0
38362,-111.111111111111,4,2,2,70,0,0
43012,-100,4,2,1,78,0,0
45412,-100,4,2,1,65,0,0
46612,-100,4,2,1,70,0,0
46912,-100,4,2,1,72,0,0
47212,-100,4,2,1,74,0,0
47512,-100,4,2,1,76,0,0
47812,-100,4,2,1,78,0,0
49012,-100,4,2,1,85,0,1
71812,-100,4,2,1,65,0,1
72412,-100,4,2,1,78,0,1
73012,-100,4,2,1,80,0,0
82612,-100,4,2,1,60,0,0
91012,-100,4,2,1,78,0,0
92212,-100,4,2,1,75,0,0
101812,-111.111111111111,4,2,1,70,0,0
101962,-111.111111111111,4,2,2,70,0,0
106612,-100,4,2,1,78,0,0
109012,-100,4,2,1,65,0,0
110212,-100,4,2,1,70,0,0
110512,-100,4,2,1,72,0,0
110812,-100,4,2,1,74,0,0
111112,-100,4,2,1,76,0,0
111412,-100,4,2,1,78,0,0
112612,-100,4,2,1,85,0,1
135412,-100,4,2,1,65,0,0
137812,-100,4,2,1,50,0,0
147412,-142.857142857143,4,2,1,60,0,0
154612,-142.857142857143,4,2,1,70,0,0
155212,-100,4,2,1,70,0,0
158812,-100,4,2,1,78,0,0
159412,-100,4,2,1,85,0,0
169012,-111.111111111111,4,2,1,70,0,0
169162,-111.111111111111,4,2,2,70,0,0
173812,-100,4,2,1,78,0,0
176212,-100,4,2,1,65,0,0
177412,-100,4,2,1,70,0,0
177712,-100,4,2,1,72,0,0
178012,-100,4,2,1,74,0,0
178312,-100,4,2,1,76,0,0
178612,-100,4,2,1,78,0,0
179812,-100,4,2,1,60,0,0
184612,-100,4,2,1,70,0,0
187012,-100,4,2,1,70,0,0
188212,-100,4,2,1,78,0,0
189412,-100,4,2,1,85,0,1
209812,-100,4,2,1,60,0,0
210412,-100,4,2,1,78,0,0
211012,-100,4,2,1,80,0,0
220612,-166.666666666667,4,2,1,70,0,0
221812,-100,4,2,1,70,0,0
223012,-100,4,2,1,65,0,0

[Colours]
Combo1 : 250,180,240
Combo2 : 120,200,230
Combo3 : 255,230,130
Combo4 : 160,230,150

[HitObjects]
200,149,1012,6,0,P|113:169|24:181,1,178.499994552612,4|2,1:2|2:2,0:0:0:0:
141,262,1762,1,0,1:1:0:0:
141,262,1912,1,8,2:2:0:0:
304,176,2212,6,0,P|390:155|479:143,1,178.499994552612,4|2,1:2|3:2,0:0:0:0:
363,63,2962,1,0,3:3:0:0:
363,63,3112,1,0,3:3:0:0:
241,264,3412,6,0,P|253:175|260:86,2,178.499994552612,4|2|0,1:2|3:2|3:3,0:0:0:0:
416,376,4612,2,0,P|240:346|62:333,1,356.999989105225,4|2,1:2|0:0,0:0:0:0:
62,333,5812,6,0,P|54:286|44:246,1,85,4|2,1:2|2:2,0:0:0:0:
100,187,6112,1,2,3:2:0:0:
177,217,6262,1,2,3:2:0:0:
247,160,6412,2,0,P|239:113|229:73,1,85,2|2,3:2|3:2,0:0:0:0:
285,14,6712,1,2,3:2:0:0:
362,44,6862,1,10,2:2:0:0:
431,86,7012,2,0,P|477:75|523:58,1,85,10|10,2:2|2:2,0:0:0:0:
230,76,7312,5,10,2:2:0:0:
168,138,7462,1,10,2:2:0:0:
81,118,7612,2,0,P|73:166|61:215,1,85,10|8,2:2|2:2,0:0:0:0:
22,300,7912,5,10,2:2:0:0:
52,288,7987,1,8,2:2:0:0:
86,291,8062,1,8,2:2:0:0:
121,309,8137,1,8,2:2:0:0:
141,337,8212,1,2,2:2:0:0:
423,63,9262,5,2,2:2:0:0:
348,16,9412,2,0,P|266:38|182:51,1,170,4|10,1:2|2:2,0:0:0:0:
129,127,9862,1,2,2:2:0:0:
45,107,10012,2,0,P|39:65|29:20,1,85,2|0,1:2|1:1,0:0:0:0:
149,216,10312,1,8,2:2:0:0:
149,216,10462,1,2,2:2:0:0:
221,164,10612,6,0,P|229:120|232:68,1,85,2|2,1:2|2:2,0:0:0:0:
309,214,10912,1,10,2:2:0:0:
372,151,11062,1,2,2:2:0:0:
450,193,11212,2,0,P|435:267|423:380,1,170,2|8,1:2|2:2,0:0:0:0:
263,293,11662,1,2,2:2:0:0:
187,332,11812,6,0,P|141:349|96:356,1,85,2|2,1:2|2:2,0:0:0:0:
285,215,12112,1,10,2:2:0:0:
215,167,12262,2,0,P|198:92|194:-1,1,170,2|2,2:2|1:2,0:0:0:0:
290,127,12712,1,10,2:2:0:0:
208,254,12862,6,0,P|133:237|40:233,1,170,2|2,2:2|2:2,0:0:0:0:
96,135,13312,2,0,P|138:143|180:148,1,85,10|0,2:2|0:0,0:0:0:0:
252,79,13612,1,2,1:2:0:0:
252,79,13762,1,0,1:1:0:0:
368,176,13912,5,8,2:2:0:0:
388,181,13987,1,8,2:2:0:0:
408,186,14062,1,10,2:2:0:0:
428,191,14137,1,10,2:2:0:0:
448,195,14212,2,0,P|476:116|466:33,2,170,4|8|0,1:2|2:2|1:1,0:0:0:0:
341,383,15112,2,0,P|380:372|427:363,1,85,8|0,2:2|0:0,0:0:0:0:
336,216,15412,5,2,1:2:0:0:
261,194,15562,1,2,2:2:0:0:
193,242,15712,1,10,2:2:0:0:
182,324,15862,2,0,B|87:308|113:367|-6:340,1,170,2|2,2:2|1:2,0:0:0:0:
16,344,16312,1,10,2:2:0:0:
116,117,16612,5,2,1:2:0:0:
89,211,16762,1,2,2:2:0:0:
15,144,16912,1,10,2:2:0:0:
116,117,17062,6,0,P|161:129|216:135,1,85,2|0,2:2|1:1,0:0:0:0:
279,75,17362,1,2,1:2:0:0:
345,150,17512,1,14,2:2:0:0:
446,110,17662,6,0,P|459:191|483:282,1,170,2|2,2:2|3:2,0:0:0:0:
481,276,18037,1,8,2:2:0:0:
481,276,18112,1,10,2:2:0:0:
414,364,18262,1,0,1:1:0:0:
414,364,18337,1,0,1:0:0:0:
414,364,18412,2,0,P|371:352|331:345,1,85,10|8,2:2|2:2,0:0:0:0:
231,372,18712,2,0,P|240:330|246:288,1,85,10|8,2:2|2:2,0:0:0:0:
242,282,18937,1,8,2:2:0:0:
238,273,19012,5,4,1:2:0:0:
129,261,19162,2,0,P|52:255|8:170,1,170,2|2,2:2|2:2,0:0:0:0:
64,114,19612,1,2,1:2:0:0:
144,138,19762,1,0,1:1:0:0:
206,84,19912,2,0,P|214:46|219:-6,1,85,10|2,2:2|1:2,0:0:0:0:
321,227,20212,6,0,P|401:203|489:186,1,170,2|10,2:2|2:2,0:0:0:0:
424,102,20662,2,0,P|384:114|340:122,1,85,2|0,2:2|1:1,0:0:0:0:
266,147,20962,1,0,1:1:0:0:
206,84,21112,2,0,P|194:44|185:0,1,85,8|2,2:2|2:2,0:0:0:0:
266,147,21412,6,0,P|249:223|236:318,1,170,2|10,1:2|2:2,0:0:0:0:
236,314,21862,1,2,2:2:0:0:
320,363,22012,1,2,1:2:0:0:
320,363,22162,1,2,1:2:0:0:
369,290,22312,2,0,P|411:282|456:267,1,85,10|2,2:2|1:2,0:0:0:0:
155,343,22612,6,0,P|88:362|4:277,1,170,2|10,2:2|2:2,0:0:0:0:
85,187,23062,2,0,P|89:229|97:273,1,85,2|0,2:2|1:1,0:0:0:0:
157,116,23362,1,0,1:1:0:0:
157,116,23512,2,0,P|149:74|145:31,1,85,8|2,2:2|2:2,0:0:0:0:
282,143,23812,6,0,P|365:165|457:169,1,170,2|10,1:2|2:2,0:0:0:0:
448,169,24262,1,2,2:2:0:0:
504,252,24412,1,2,1:2:0:0:
504,252,24562,1,2,1:2:0:0:
432,376,24712,2,0,P|422:334|418:292,1,85,10|2,2:2|1:2,0:0:0:0:
246,134,25012,6,0,P|186:188|218:283,1,170,2|10,2:2|2:2,0:0:0:0:
220,361,25462,2,0,P|178:350|136:345,1,85,2|0,2:2|1:1,0:0:0:0:
264,211,25762,1,2,1:2:0:0:
337,251,25912,2,0,P|379:262|421:267,1,85,10|0,2:2|0:0,0:0:0:0:
172,179,26212,5,2,1:2:0:0:
119,251,26362,1,2,2:2:0:0:
36,235,26512,2,0,P|27:192|14:147,1,85,8|2,2:2|2:2,0:0:0:0:
172,179,26812,5,2,1:2:0:0:
254,200,26962,1,2,1:2:0:0:
343,223,27112,2,0,P|429:205|519:179,1,170,10|0,2:2|1:1,0:0:0:0:
507,182,27487,1,0,3:3:0:0:
507,182,27562,1,0,3:3:0:0:
425,162,27712,2,0,P|412:121|406:79,1,85,0|0,1:1|1:1,0:0:0:0:
215,196,28012,6,0,P|227:236|233:278,1,85,12|8,2:2|2:2,0:0:0:0:
303,384,28312,1,8,2:2:0:0:
318,373,28387,1,8,2:2:0:0:
331,351,28462,1,8,2:2:0:0:
336,327,28537,1,8,2:2:0:0:
330,303,28612,6,0,P|376:314|426:318,1,85,4|2,1:2|2:2,0:0:0:0:
233,278,28912,2,0,P|187:267|137:263,1,85,10|2,2:2|2:2,0:0:0:0:
149,263,29137,1,0,3:3:0:0:
149,263,29212,2,0,P|139:224|134:177,1,85,2|2,1:2|1:2,0:0:0:0:
205,126,29512,5,10,2:2:0:0:
284,150,29662,1,2,1:2:0:0:
365,177,29812,2,0,P|383:117|390:2,1,170,2|10,2:2|2:2,0:0:0:0:
302,237,30262,2,0,P|303:279|314:320,1,85,2|0,2:2|1:1,0:0:0:0:
391,352,30562,1,0,1:1:0:0:
456,300,30712,2,0,P|454:257|443:216,1,85,8|2,2:2|2:2,0:0:0:0:
246,383,31012,6,0,P|165:360|80:357,1,170,2|10,1:2|2:2,0:0:0:0:
17,298,31462,1,2,2:2:0:0:
83,190,31612,2,0,P|96:235|103:275,1,85,2|2,1:2|1:2,0:0:0:0:
203,215,31912,5,10,2:2:0:0:
276,269,32062,1,2,1:2:0:0:
354,221,32212,2,0,P|363:134|383:50,1,170,2|10,2:2|2:2,0:0:0:0:
199,19,32662,2,0,P|194:62|184:104,1,85,2|0,2:2|1:1,0:0:0:0:
267,163,32962,1,0,1:1:0:0:
267,163,33112,2,0,P|271:119|281:77,1,85,8|2,2:2|2:2,0:0:0:0:
89,62,33412,5,2,1:2:0:0:
0,102,33562,2,0,P|92:113|139:198,1,170,2|2,2:2|2:2,0:0:0:0:
183,257,34012,1,2,1:2:0:0:
183,257,34162,1,2,1:2:0:0:
248,190,34312,2,0,P|291:180|340:164,1,85,10|0,2:2|1:1,0:0:0:0:
466,308,34612,6,0,P|376:316|309:244,1,170,2|10,2:2|2:2,0:0:0:0:
245,301,35062,2,0,P|236:343|230:386,1,85,2|0,2:2|1:1,0:0:0:0:
164,240,35362,1,2,1:2:0:0:
164,240,35512,2,0,P|173:198|179:155,1,85,10|2,2:2|2:2,0:0:0:0:
412,240,35812,6,0,P|423:155|441:72,1,170,4|10,1:2|2:2,0:0:0:0:
170,12,36262,1,2,2:2:0:0:
170,12,36337,1,0,3:3:0:0:
170,12,36412,2,0,P|159:97|141:180,1,170,2|10,1:2|2:2,0:0:0:0:
232,240,36862,5,2,1:2:0:0:
232,240,36937,1,0,1:1:0:0:
232,240,37012,1,12,2:2:0:0:
401,203,37162,1,8,2:2:0:0:
242,133,37312,1,8,2:2:0:0:
329,283,37462,1,8,2:2:0:0:
346,110,37612,1,8,2:2:0:0:
346,110,37912,6,0,P|340:68|336:20,1,85,2|2,2:2|2:2,0:0:0:0:
231,239,38212,2,0,P|157:219|81:211,1,152.999995330811,4|10,1:2|2:2,0:0:0:0:
235,150,38662,1,8,2:2:0:0:
308,195,38812,2,0,P|344:204|382:208,1,76.4999976654053,2|0,1:2|1:1,0:0:0:0:
451,266,39112,1,10,2:2:0:0:
451,266,39262,1,2,2:2:0:0:
503,197,39412,6,0,P|485:122|479:46,1,152.999995330811,2|8,1:2|2:2,0:0:0:0:
399,16,39862,1,10,2:2:0:0:
345,86,40012,1,2,1:2:0:0:
122,27,40312,6,0,P|116:67|109:102,1,76.4999976654053,10|2,2:2|2:2,0:0:0:0:
258,209,40612,2,0,P|331:189|407:180,1,152.999995330811,2|10,1:2|2:2,0:0:0:0:
228,129,41062,1,8,2:2:0:0:
156,176,41212,2,0,P|119:185|81:190,1,76.4999976654053,2|0,1:2|1:1,0:0:0:0:
13,147,41512,1,10,2:2:0:0:
155,368,41812,5,2,1:2:0:0:
155,368,41962,2,0,P|161:331|166:288,1,76.4999976654053,2|8,2:2|2:2,0:0:0:0:
246,259,42262,1,10,2:2:0:0:
324,306,42412,2,0,P|332:227|345:154,1,152.999995330811,2|10,1:2|2:2,0:0:0:0:
130,23,42862,5,2,1:2:0:0:
130,23,42937,1,0,1:1:0:0:
130,23,43012,2,0,P|90:35|36:44,1,85,14|0,2:2|0:0,0:0:0:0:
8,117,43312,1,10,2:2:0:0:
63,175,43462,1,2,1:2:0:0:
138,131,43612,2,0,P|200:136|262:226,1,170,10|10,2:2|2:2,0:0:0:0:
475,384,44062,5,2,1:2:0:0:
475,384,44137,1,0,1:1:0:0:
475,384,44212,2,0,P|480:342|488:301,1,85,14|0,2:2|0:0,0:0:0:0:
377,183,44512,2,0,P|372:225|364:266,1,85,14|10,2:2|2:2,0:0:0:0:
363,266,44737,1,8,2:2:0:0:
363,266,44812,2,0,P|315:280|267:288,1,85,2|0,3:2|3:3,0:0:0:0:
209,239,45112,1,2,3:2:0:0:
148,351,45262,1,0,3:3:0:0:
30,302,45412,1,4,1:2:0:0:
30,302,46462,5,0,1:1:0:0:
30,302,46537,1,0,1:1:0:0:
30,302,46612,2,0,P|18:220|-4:123,1,170,12|0,2:2|3:3,0:0:0:0:
88,84,47062,1,0,3:3:0:0:
150,164,47212,1,0,3:3:0:0:
150,164,47362,1,8,2:2:0:0:
242,125,47512,2,0,P|251:84|256:41,1,85,8|8,2:2|2:2,0:0:0:0:
490,240,47812,6,0,P|409:254|322:278,1,170,10|2,2:2|1:2,0:0:0:0:
347,178,48262,1,8,2:2:0:0:
347,178,48337,1,0,3:3:0:0:
347,178,48412,2,0,P|387:171|431:159,1,85,2|0,3:2|1:1,0:0:0:0:
273,366,48712,5,8,2:2:0:0:
273,366,48787,1,8,2:2:0:0:
273,366,48862,1,8,2:2:0:0:
273,366,48937,1,8,2:2:0:0:
273,366,49012,2,0,P|193:348|103:338,1,170,4|10,1:2|2:2,0:0:0:0:
49,275,49462,1,2,2:2:0:0:
82,197,49612,2,0,P|75:154|55:94,1,85,2|0,1:2|1:1,0:0:0:0:
191,27,49912,2,0,P|198:70|218:130,1,85,8|2,2:2|2:2,0:0:0:0:
279,234,50212,6,0,P|345:214|456:202,1,170,2|10,1:2|2:2,0:0:0:0:
489,135,50662,1,2,2:2:0:0:
418,86,50812,2,0,P|408:43|406:-3,1,85,2|0,1:2|1:1,0:0:0:0:
352,184,51112,5,8,2:2:0:0:
417,237,51262,1,2,2:2:0:0:
392,315,51412,2,0,P|350:304|304:300,1,85,2|2,1:2|2:2,0:0:0:0:
224,267,51712,1,10,2:2:0:0:
182,348,51862,2,0,P|101:360|-5:384,1,170,2|2,2:2|1:2,0:0:0:0:
224,267,52312,5,8,2:2:0:0:
308,300,52462,2,0,P|389:288|495:264,1,170,2|2,2:2|2:2,0:0:0:0:
498,191,52912,2,0,P|504:145|506:104,1,85,10|0,2:2|0:0,0:0:0:0:
273,9,53212,2,0,P|261:101|257:183,1,170,2|8,1:2|2:2,0:0:0:0:
333,235,53662,5,0,0:0:0:0:
333,235,53737,1,0,0:0:0:0:
333,235,53812,2,0,P|375:223|429:215,1,85,4|2,1:2|2:2,0:0:0:0:
356,140,54112,1,10,2:2:0:0:
356,140,54262,1,2,2:2:0:0:
149,214,54412,6,0,P|107:202|53:194,1,85,2|2,1:2|1:2,0:0:0:0:
126,119,54712,1,10,2:2:0:0:
126,119,54862,1,2,2:2:0:0:
248,260,55012,6,0,P|254:303|265:348,1,85,2|2,1:2|2:2,0:0:0:0:
312,188,55312,1,10,2:2:0:0:
312,188,55462,1,2,2:2:0:0:
244,7,55612,2,0,P|232:92|214:175,2,170,2|10|2,1:2|2:2|1:2,0:0:0:0:
474,172,56512,5,10,2:2:0:0:
392,147,56662,1,2,2:2:0:0:
341,217,56812,1,2,1:2:0:0:
259,192,56962,1,2,1:2:0:0:
208,262,57112,2,0,P|202:306|194:347,1,85,10|0,2:2|0:0,0:0:0:0:
392,147,57412,6,0,P|398:103|406:62,1,85,12|0,2:2|1:1,0:0:0:0:
405,63,57637,1,0,1:1:0:0:
405,63,57712,1,0,1:1:0:0:
299,0,57862,2,0,P|217:20|133:31,1,170,12|12,2:2|2:2,0:0:0:0:
4,181,58312,5,8,2:2:0:0:
4,181,58387,1,8,2:2:0:0:
4,181,58462,1,10,2:2:0:0:
4,181,58537,1,8,2:2:0:0:
4,181,58612,2,0,P|45:170|87:165,1,85,4|2,1:2|2:2,0:0:0:0:
162,115,58912,1,10,2:2:0:0:
162,115,59062,1,2,2:2:0:0:
240,164,59212,2,0,P|263:237|275:334,1,170,2|8,1:2|2:2,0:0:0:0:
200,368,59662,1,2,2:2:0:0:
356,274,59812,6,0,P|399:287|450:294,1,85,2|2,1:2|2:2,0:0:0:0:
197,224,60112,1,10,2:2:0:0:
129,283,60262,1,2,2:2:0:0:
43,262,60412,2,0,P|33:181|9:88,1,170,2|8,1:2|2:2,0:0:0:0:
67,28,60862,1,2,2:2:0:0:
142,62,61012,2,0,P|182:74|232:79,1,85,2|2,1:2|2:2,0:0:0:0:
376,257,61312,5,10,2:2:0:0:
477,216,61462,2,0,P|392:206|311:182,1,170,2|2,2:2|1:2,0:0:0:0:
132,328,61912,5,10,2:2:0:0:
52,299,62062,2,0,P|38:216|16:134,1,170,2|2,2:2|2:2,0:0:0:0:
145,16,62512,2,0,P|138:57|128:100,1,85,10|0,2:2|0:0,0:0:0:0:
164,137,62737,1,0,0:0:0:0:
213,122,62812,2,0,P|220:81|230:38,1,85,2|0,1:2|1:1,0:0:0:0:
317,281,63112,6,0,P|374:263|440:251,1,127.5,8|0,2:2|0:0,0:0:0:0:
449,254,63412,6,0,P|458:208|458:167,1,85,4|2,1:2|2:2,0:0:0:0:
392,120,63712,1,10,2:2:0:0:
392,120,63862,1,2,2:2:0:0:
184,192,64012,6,0,P|175:145|175:104,1,85,2|2,1:2|1:2,0:0:0:0:
241,57,64312,1,10,2:2:0:0:
241,57,64462,1,2,2:2:0:0:
152,17,64612,2,0,P|111:29|69:36,1,85,2|0,1:2|0:0,0:0:0:0:
272,146,64912,2,0,P|313:134|355:127,1,85,10|0,2:2|0:0,0:0:0:0:
430,176,65212,6,0,P|447:92|450:8,2,170,2|10|2,1:2|2:2|1:2,0:0:0:0:
355,128,65962,1,2,2:2:0:0:
334,218,66112,2,0,P|294:232|249:241,1,85,10|2,2:2|2:2,0:0:0:0:
252,240,66337,1,0,0:0:0:0:
252,240,66412,2,0,P|243:281|239:325,1,85,2|0,1:2|1:1,0:0:0:0:
80,160,66712,2,0,P|93:99|99:33,1,127.5,10|0,2:2|0:0,0:0:0:0:
99,34,67012,6,0,L|55:43,2,42.5,14|8|8,2:2|2:2|2:2,0:0:0:0:
206,126,67312,2,0,P|268:110|331:101,1,127.5,2|0,1:2|3:3,0:0:0:0:
338,105,67612,2,0,P|346:57|350:11,1,85,2|0,1:2|3:3,0:0:0:0:
443,191,67912,1,10,2:2:0:0:
443,191,67987,1,8,2:2:0:0:
443,191,68062,1,8,2:2:0:0:
443,191,68137,1,8,2:2:0:0:
443,191,68212,2,0,P|434:238|430:284,1,85,4|2,1:2|2:2,0:0:0:0:
510,321,68512,6,0,P|439:315|378:392,1,170,8|2,2:2|1:2,0:0:0:0:
296,361,68962,1,2,1:2:0:0:
217,339,69112,1,10,2:2:0:0:
135,321,69262,6,0,P|124:239|106:152,1,170,2|2,2:2|2:2,0:0:0:0:
303,21,69712,2,0,P|311:82|324:147,1,127.5,10|0,2:2|0:0,0:0:0:0:
323,146,70012,2,0,P|364:150|406:161,1,85,2|0,1:2|1:1,0:0:0:0:
191,29,70312,1,10,2:2:0:0:
131,98,70462,5,2,1:2:0:0:
131,98,70612,2,0,P|150:177|161:267,1,170,12|10,2:2|2:2,0:0:0:0:
380,204,71062,1,0,3:3:0:0:
380,204,71137,1,0,3:3:0:0:
380,204,71212,2,0,P|370:164|365:119,1,85,10|0,2:2|3:3,0:0:0:0:
240,8,71512,6,0,P|254:67|262:134,1,127.5,2|0,3:2|0:0,0:0:0:0:
262,133,71812,1,4,1:2:0:0:
432,360,72262,5,0,1:1:0:0:
432,360,72337,1,0,0:0:0:0:
432,360,72412,2,0,P|439:314|450:267,1,85,8|8,2:2|2:2,0:0:0:0:
504,200,72712,5,8,2:2:0:0:
501,191,72787,1,8,2:2:0:0:
498,182,72862,1,10,2:2:0:0:
495,173,72937,1,8,2:2:0:0:
491,164,73012,2,0,P|407:155|325:134,1,170,4|10,1:2|2:2,0:0:0:0:
256,192,73462,1,2,2:2:0:0:
186,249,73612,2,0,P|145:239|103:234,1,85,2|0,1:2|1:1,0:0:0:0:
25,57,73912,5,8,2:2:0:0:
101,21,74062,1,2,2:2:0:0:
166,80,74212,2,0,P|171:124|181:170,1,85,2|2,1:2|2:2,0:0:0:0:
286,356,74512,1,10,2:2:0:0:
286,356,74662,1,2,2:2:0:0:
370,330,74812,2,0,P|383:252|408:161,1,170,2|8,1:2|2:2,0:0:0:0:
367,93,75262,1,2,2:2:0:0:
414,22,75412,6,0,P|457:13|500:-2,1,85,2|2,1:2|2:2,0:0:0:0:
315,159,75712,1,10,2:2:0:0:
236,124,75862,2,0,P|160:147|60:169,1,170,2|2,2:2|1:2,0:0:0:0:
158,61,76312,1,10,2:2:0:0:
242,209,76462,6,0,P|220:300|205:386,1,170,2|2,2:2|2:2,0:0:0:0:
311,349,76912,2,0,P|322:303|329:260,1,85,10|0,2:2|0:0,0:0:0:0:
496,104,77212,2,0,P|507:183|440:228,1,170,2|8,1:2|2:2,0:0:0:0:
372,164,77662,5,2,2:2:0:0:
372,164,77737,1,2,2:2:0:0:
372,164,77812,2,0,P|293:138|204:125,2,170,4|8|0,1:2|2:2|1:1,0:0:0:0:
244,39,78562,1,0,1:1:0:0:
138,206,78712,2,0,P|124:149|114:73,1,127.5,8|0,2:2|0:0,0:0:0:0:
114,80,79012,6,0,P|72:95|18:106,1,85,2|2,1:2|2:2,0:0:0:0:
211,163,79312,1,10,2:2:0:0:
283,117,79462,2,0,P|358:136|382:229,1,170,2|2,2:2|1:2,0:0:0:0:
355,289,79912,1,10,2:2:0:0:
156,214,80062,5,0,1:1:0:0:
156,214,80137,1,0,1:1:0:0:
156,214,80212,1,14,2:2:0:0:
58,232,80362,1,2,1:2:0:0:
76,330,80512,1,10,2:2:0:0:
174,312,80662,2,0,P|216:318|259:331,1,85,2|8,1:2|2:2,0:0:0:0:
365,112,80962,5,2,1:2:0:0:
317,39,81112,1,10,2:2:0:0:
239,78,81262,2,0,P|232:120|220:160,1,85,2|12,1:2|2:2,0:0:0:0:
365,369,81562,5,10,2:2:0:0:
365,369,81637,1,8,2:2:0:0:
365,369,81712,2,0,P|371:326|383:286,1,85,10|0,2:2|3:3,0:0:0:0:
301,176,82012,5,2,3:2:0:0:
186,286,82162,1,0,3:3:0:0:
186,286,82237,1,0,0:0:0:0:
186,286,82312,1,2,1:2:0:0:
141,131,82462,1,0,1:1:0:0:
209,198,82612,1,4,1:2:0:0:
256,232,90862,5,2,1:2:0:0:
256,232,90937,1,0,1:1:0:0:
256,232,91012,2,0,P|251:191|241:147,1,85,12|0,2:2|3:3,0:0:0:0:
266,66,91312,1,0,1:1:0:0:
241,148,91462,1,0,1:1:0:0:
335,189,91612,6,0,P|376:180|418:172,1,85,12|8,2:2|2:2,0:0:0:0:
484,281,91912,1,8,2:2:0:0:
484,281,91987,1,8,2:2:0:0:
484,281,92062,1,8,2:2:0:0:
484,281,92137,1,8,2:2:0:0:
484,281,92212,2,0,P|446:288|401:298,1,85,4|2,1:2|2:2,0:0:0:0:
176,282,92512,2,0,P|217:272|259:264,1,85,10|2,2:2|2:2,0:0:0:0:
259,264,92737,1,0,3:3:0:0:
259,264,92812,6,0,P|268:306|281:348,1,85,2|2,1:2|1:2,0:0:0:0:
331,215,93112,1,10,2:2:0:0:
312,139,93262,1,2,1:2:0:0:
389,99,93412,2,0,P|304:90|223:66,1,170,2|10,2:2|2:2,0:0:0:0:
58,142,93862,1,2,2:2:0:0:
58,142,93937,1,0,3:3:0:0:
58,142,94012,2,0,P|52:100|38:54,1,85,0|0,1:1|1:1,0:0:0:0:
128,37,94312,2,0,P|134:79|148:125,1,85,8|2,2:2|2:2,0:0:0:0:
0,253,94612,6,0,P|74:248|142:316,1,170,2|10,1:2|2:2,0:0:0:0:
140,310,95062,1,2,2:2:0:0:
223,263,95212,1,2,1:2:0:0:
223,263,95362,1,2,1:2:0:0:
306,295,95512,2,0,P|313:336|327:384,1,85,10|2,2:2|1:2,0:0:0:0:
223,263,95812,6,0,P|209:181|181:85,1,170,2|10,2:2|2:2,0:0:0:0:
156,17,96262,2,0,P|82:4|35:92,1,170,2|0,2:2|1:1,0:0:0:0:
233,168,96712,2,0,P|277:157|322:149,1,85,8|2,2:2|2:2,0:0:0:0:
424,192,97012,6,0,P|430:107|450:24,2,170,2|10|2,1:2|2:2|1:2,0:0:0:0:
362,248,97762,1,2,1:2:0:0:
390,322,97912,2,0,P|430:310|477:303,1,85,10|0,2:2|1:1,0:0:0:0:
282,231,98212,6,0,P|242:243|195:250,1,85,2|0,2:2|1:1,0:0:0:0:
147,327,98512,1,10,2:2:0:0:
57,313,98662,2,0,P|50:271|40:229,1,85,2|8,3:2|2:2,0:0:0:0:
40,229,98887,1,0,0:0:0:0:
40,229,98962,1,2,3:2:0:0:
5,154,99112,5,10,2:2:0:0:
12,125,99187,1,0,3:3:0:0:
33,104,99262,1,2,3:2:0:0:
62,97,99337,1,8,2:2:0:0:
89,107,99412,2,0,P|173:95|254:71,1,170,4|10,1:2|2:2,0:0:0:0:
254,71,99862,1,2,2:2:0:0:
423,158,100012,5,2,1:2:0:0:
342,141,100162,1,2,1:2:0:0:
298,213,100312,2,0,P|310:255|316:302,1,85,10|2,2:2|1:2,0:0:0:0:
390,357,100612,6,0,L|431:364,2,42.5,8|0|0,2:2|3:3|3:3,0:0:0:0:
220,276,100912,1,0,1:1:0:0:
202,280,100987,1,0,1:1:0:0:
185,285,101062,1,0,1:1:0:0:
167,290,101137,1,0,1:1:0:0:
154,299,101212,1,8,2:2:0:0:
154,299,101512,6,0,P|113:288|70:282,1,85,2|2,2:2|2:2,0:0:0:0:
120,205,101812,6,0,P|110:128|95:53,1,152.999995330811,4|10,1:2|2:2,0:0:0:0:
161,0,102262,1,10,2:2:0:0:
241,33,102412,2,0,P|246:71|253:109,1,76.4999976654053,2|0,1:2|1:1,0:0:0:0:
482,174,102712,1,10,2:2:0:0:
482,174,103012,6,0,P|406:166|328:148,1,152.999995330811,2|10,1:2|2:2,0:0:0:0:
256,192,103462,1,10,2:2:0:0:
180,163,103612,2,0,P|175:125|165:84,1,76.4999976654053,2|0,1:2|1:1,0:0:0:0:
332,221,103912,2,0,P|337:259|347:300,1,76.4999976654053,10|0,2:2|0:0,0:0:0:0:
295,365,104212,6,0,P|220:346|144:338,1,152.999995330811,2|10,1:2|2:2,0:0:0:0:
81,203,104662,1,10,2:2:0:0:
1,228,104812,2,0,P|75:246|151:254,1,152.999995330811,2|10,1:2|2:2,0:0:0:0:
229,226,105262,1,2,2:2:0:0:
305,193,105412,6,0,P|309:152|316:118,1,76.4999976654053,2|0,1:2|0:0,0:0:0:0:
268,49,105712,1,10,2:2:0:0:
268,49,105862,1,10,2:2:0:0:
395,147,106012,6,0,P|434:138|475:133,1,76.4999976654053,2|0,1:2|1:1,0:0:0:0:
268,49,106312,2,0,P|230:57|192:62,1,76.4999976654053,10|2,2:2|1:2,0:0:0:0:
181,58,106537,1,0,1:1:0:0:
165,53,106612,6,0,P|156:137|138:220,1,170,14|10,2:2|2:2,0:0:0:0:
206,284,107062,1,2,1:2:0:0:
290,250,107212,2,0,P|294:208|303:166,1,85,10|0,2:2|1:1,0:0:0:0:
466,65,107512,1,10,2:2:0:0:
371,19,107662,5,2,1:2:0:0:
371,19,107737,1,0,0:0:0:0:
371,19,107812,2,0,P|294:39|193:53,1,170,14|14,2:2|2:2,0:0:0:0:
106,60,108262,5,10,2:2:0:0:
106,60,108337,1,8,2:2:0:0:
106,60,108412,2,0,P|117:24|120:-3,2,56.6666666666667,10|8|8,2:2|2:2|2:2,0:0:0:0:
154,132,108712,2,0,P|143:168|140:195,2,56.6666666666667,2|0|0,3:2|3:3|3:3,0:0:0:0:
21,88,109012,1,4,1:2:0:0:
491,88,110062,5,0,1:1:0:0:
491,88,110137,1,0,1:1:0:0:
491,88,110212,2,0,P|476:166|463:259,1,170,12|0,2:2|3:3,0:0:0:0:
381,219,110662,1,0,3:3:0:0:
320,279,110812,2,0,P|331:320|338:365,1,85,0|8,3:3|2:2,0:0:0:0:
251,384,111112,2,0,P|240:343|233:298,1,85,8|8,2:2|2:2,0:0:0:0:
123,253,111412,6,0,P|82:239|33:232,1,85,10|0,2:2|3:3,0:0:0:0:
40,232,111637,1,0,3:3:0:0:
40,232,111712,1,2,1:2:0:0:
66,127,111862,2,0,P|107:141|156:148,1,85,8|2,2:2|3:2,0:0:0:0:
256,80,112162,5,0,1:1:0:0:
256,80,112237,1,0,1:1:0:0:
256,80,112312,2,0,L|266:39,3,42.5,8|8|8|8,2:2|2:2|2:2|2:2,0:0:0:0:
269,26,112612,6,0,P|315:19|360:3,1,85,4|2,1:2|2:2,0:0:0:0:
423,54,112912,1,10,2:2:0:0:
423,54,113062,1,2,2:2:0:0:
493,0,113212,6,0,P|475:78|468:178,1,170,2|8,1:2|2:2,0:0:0:0:
396,222,113662,1,2,2:2:0:0:
246,185,113812,6,0,P|290:178|330:165,1,85,2|2,1:2|2:2,0:0:0:0:
396,222,114112,1,10,2:2:0:0:
344,288,114262,1,2,2:2:0:0:
400,351,114412,2,0,P|319:328|234:317,1,170,2|8,1:2|2:2,0:0:0:0:
176,384,114862,1,2,2:2:0:0:
89,380,115012,6,0,P|82:336|72:290,1,85,2|2,1:2|2:2,0:0:0:0:
146,230,115312,1,10,2:2:0:0:
221,167,115462,2,0,P|203:83|190:0,1,170,2|2,2:2|1:2,0:0:0:0:
295,117,115912,1,8,2:2:0:0:
295,117,116062,1,2,2:2:0:0:
146,230,116212,6,0,P|191:241|232:257,1,85,0|2,1:1|2:2,0:0:0:0:
372,190,116512,2,0,P|388:106|400:22,2,170,10|2|8,2:2|1:2|2:2,0:0:0:0:
256,384,117412,5,4,1:2:0:0:
256,384,117562,1,2,2:2:0:0:
320,321,117712,2,0,P|362:307|408:295,1,85,10|2,2:2|2:2,0:0:0:0:
256,256,118012,5,2,1:2:0:0:
256,256,118162,1,2,1:2:0:0:
192,193,118312,2,0,P|150:179|104:167,1,85,10|2,2:2|2:2,0:0:0:0:
256,104,118612,5,2,1:2:0:0:
256,104,118762,1,2,2:2:0:0:
320,41,118912,2,0,P|362:27|408:15,1,85,10|2,2:2|2:2,0:0:0:0:
168,64,119212,6,0,P|88:40|-8:24,2,170,2|10|2,1:2|2:2|1:2,0:0:0:0:
405,212,120112,5,10,2:2:0:0:
478,155,120262,1,2,2:2:0:0:
392,43,120412,2,0,P|392:91|399:136,1,85,2|2,1:2|1:2,0:0:0:0:
264,304,120712,2,0,P|264:221|251:143,1,127.5,10|0,2:2|0:0,0:0:0:0:
258,176,121012,6,0,P|264:134|268:91,1,85,12|0,2:2|1:1,0:0:0:0:
185,33,121312,1,0,1:1:0:0:
128,128,121462,1,12,2:2:0:0:
128,128,121762,2,0,L|83:138,2,42.5,12|0|8,2:2|0:0|2:2,0:0:0:0:
347,147,122062,5,10,2:2:0:0:
347,147,122137,1,8,2:2:0:0:
347,147,122212,2,0,P|422:164|520:180,1,170,4|10,1:2|2:2,0:0:0:0:
400,254,122662,1,2,2:2:0:0:
317,232,122812,2,0,P|242:215|144:199,1,170,2|8,1:2|2:2,0:0:0:0:
106,130,123262,1,2,2:2:0:0:
25,152,123412,6,0,P|16:109|13:64,1,85,2|2,1:2|2:2,0:0:0:0:
87,8,123712,1,10,2:2:0:0:
87,8,123862,1,2,2:2:0:0:
179,34,124012,2,0,P|197:120|203:210,1,170,2|8,1:2|2:2,0:0:0:0:
282,252,124462,1,2,2:2:0:0:
336,186,124612,6,0,P|380:178|419:166,1,85,2|2,1:2|2:2,0:0:0:0:
418,166,124912,1,10,2:2:0:0:
481,90,125062,2,0,P|461:172|449:256,1,170,2|2,2:2|1:2,0:0:0:0:
509,336,125512,2,0,P|464:343|420:353,1,85,10|2,2:2|2:2,0:0:0:0:
196,310,125812,6,0,P|280:298|362:278,2,170,0|10|2,1:1|2:2|1:2,0:0:0:0:
110,272,126562,1,0,1:1:0:0:
24,251,126712,2,0,P|15:186|3:125,1,127.5,8|0,2:2|0:0,0:0:0:0:
3,125,127012,6,0,P|42:117|85:98,1,85,4|2,1:2|2:2,0:0:0:0:
152,46,127312,1,10,2:2:0:0:
152,46,127462,1,2,2:2:0:0:
174,164,127612,6,0,P|213:172|256:191,1,85,2|2,1:2|1:2,0:0:0:0:
323,243,127912,1,10,2:2:0:0:
323,243,128062,1,2,2:2:0:0:
492,125,128212,6,0,P|484:85|479:35,1,85,2|0,1:2|0:0,0:0:0:0:
318,71,128512,2,0,P|326:111|331:161,1,85,10|0,2:2|0:0,0:0:0:0:
421,182,128812,2,0,P|405:102|395:2,2,170,2|10|2,1:2|2:2|1:2,0:0:0:0:
380,383,129712,5,10,2:2:0:0:
445,337,129862,1,2,2:2:0:0:
401,271,130012,2,0,P|361:263|316:250,1,85,2|0,1:2|1:1,0:0:0:0:
201,316,130312,2,0,P|139:298|77:285,1,127.5,10|0,2:2|0:0,0:0:0:0:
77,285,130612,2,0,L|35:294,2,42.5,14|8|8,2:2|2:2|2:2,0:0:0:0:
226,150,130912,2,0,P|232:191|243:240,1,85,2|0,1:2|3:3,0:0:0:0:
160,277,131212,2,0,P|154:236|143:187,1,85,2|0,1:2|3:3,0:0:0:0:
328,176,131512,5,10,2:2:0:0:
328,176,131587,1,8,2:2:0:0:
328,176,131662,1,8,2:2:0:0:
328,176,131737,1,8,2:2:0:0:
328,176,131812,2,0,B|427:162|395:203|498:187,1,170,4|8,1:2|2:2,0:0:0:0:
512,63,132262,2,0,P|471:78|431:87,1,85,2|2,2:2|1:2,0:0:0:0:
357,26,132562,1,2,1:2:0:0:
269,42,132712,1,10,2:2:0:0:
234,132,132862,6,0,B|172:119|172:119|128:129|128:129|57:115,1,170,2|2,2:2|2:2,0:0:0:0:
67,117,133312,2,0,P|59:73|47:31,1,85,10|0,2:2|0:0,0:0:0:0:
174,204,133612,1,2,1:2:0:0:
174,204,133762,1,0,1:1:0:0:
87,242,133912,2,0,P|75:286|70:329,1,85,10|2,2:2|1:2,0:0:0:0:
248,376,134212,6,0,P|260:332|265:289,1,85,12|0,2:2|1:1,0:0:0:0:
264,292,134437,1,0,1:0:0:0:
264,292,134512,1,10,2:2:0:0:
352,261,134662,1,0,3:3:0:0:
428,221,134812,2,0,P|436:179|447:138,1,85,10|0,2:2|3:3,0:0:0:0:
325,108,135112,2,0,P|316:149|305:190,1,85,2|0,3:2|1:1,0:0:0:0:
405,63,135412,1,4,1:2:0:0:
256,192,135487,12,4,136612,2:2:0:0:
256,192,136687,12,2,137812,2:2:0:0:
335,43,147412,5,4,1:2:0:0:
335,43,148012,1,2,1:2:0:0:
257,67,148312,1,2,2:2:0:0:
179,91,148612,1,2,1:2:0:0:
427,295,149212,6,0,P|433:260|442:221,2,59.4999981842042,2|2|2,1:2|2:2|2:2,0:0:0:0:
365,366,149812,5,2,1:2:0:0:
310,299,150112,1,2,2:2:0:0:
221,287,150412,1,2,1:2:0:0:
139,331,150712,1,2,2:2:0:0:
48,312,151012,6,0,P|39:223|23:135,1,178.499994552612,2|2,1:2|0:0,0:0:0:0:
63,64,151612,2,0,P|121:69|153:117,1,118.999996368408,0|2,1:1|2:2,0:0:0:0:
152,116,152062,1,0,0:0:0:0:
152,116,152212,1,2,1:2:0:0:
240,158,152512,1,2,2:2:0:0:
334,133,152812,1,2,1:2:0:0:
390,54,153112,1,2,2:2:0:0:
488,128,153412,6,0,B|514:273|451:211|476:361,2,237.999992736817,2|2|4,1:2|1:2|1:2,0:0:0:0:
390,54,154912,5,0,1:1:0:0:
309,79,155062,1,0,3:3:0:0:
309,79,155137,1,0,3:3:0:0:
309,79,155212,2,0,P|263:73|222:64,1,85,0|0,1:1|3:3,0:0:0:0:
158,134,155512,1,0,1:1:0:0:
74,116,155662,1,0,3:3:0:0:
18,187,155812,6,0,P|39:259|59:355,1,170,12|2,2:2|1:2,0:0:0:0:
207,301,156262,2,0,P|217:265|227:217,1,85,2|2,3:2|1:2,0:0:0:0:
305,182,156562,1,0,1:1:0:0:
373,238,156712,2,0,P|437:223|503:215,1,127.5,2|0,3:2|1:1,0:0:0:0:
498,215,157012,6,0,P|502:176|510:131,1,85,12|0,2:2|0:0,0:0:0:0:
444,66,157312,1,0,1:1:0:0:
355,117,157462,2,0,P|347:195|331:285,1,170,8|8,2:2|2:2,0:0:0:0:
253,231,157912,1,8,2:2:0:0:
379,384,158062,5,8,2:2:0:0:
379,384,158212,2,0,P|315:325|220:345,1,170,10|0,2:2|1:1,0:0:0:0:
142,287,158662,1,0,1:1:0:0:
142,287,158737,1,0,1:1:0:0:
142,287,158812,2,0,L|127:378,1,85,8|8,2:2|2:2,0:0:0:0:
41,243,159112,2,0,L|50:200,3,42.5,8|8|8|8,2:2|2:2|2:2|2:2,0:0:0:0:
53,189,159412,6,0,P|121:178|220:155,1,170,4|10,1:2|2:2,0:0:0:0:
312,194,159862,2,0,P|315:148|322:108,1,85,2|2,2:2|1:2,0:0:0:0:
207,6,160162,1,2,1:2:0:0:
133,41,160312,2,0,P|130:87|123:127,1,85,10|2,2:2|2:2,0:0:0:0:
260,257,160612,5,2,1:2:0:0:
260,257,160762,2,0,P|302:246|351:239,1,85,2|10,2:2|2:2,0:0:0:0:
389,164,161062,1,2,2:2:0:0:
321,109,161212,2,0,P|279:120|230:127,1,85,2|2,1:2|1:2,0:0:0:0:
176,190,161512,1,10,2:2:0:0:
89,145,161662,6,0,P|68:227|57:311,1,170,2|2,2:2|2:2,0:0:0:0:
208,360,162112,2,0,P|218:318|223:276,1,85,10|2,2:2|2:2,0:0:0:0:
176,190,162412,6,0,P|261:179|346:154,2,170,2|10|2,1:2|2:2|1:2,0:0:0:0:
101,147,163162,1,2,2:2:0:0:
155,78,163312,2,0,P|150:36|140:-13,1,85,10|2,2:2|2:2,0:0:0:0:
20,263,163612,5,2,1:2:0:0:
102,235,163762,1,2,1:2:0:0:
179,289,163912,2,0,L|187:331,3,42.5,8|8|8|8,2:2|2:2|2:2|2:2,0:0:0:0:
193,344,164212,6,0,B|289:332|254:371|364:356,2,170,4|10|2,1:2|2:2|1:2,0:0:0:0:
256,192,165112,1,10,2:2:0:0:
319,40,165412,2,0,B|223:52|258:13|148:28,1,170,2|10,1:2|2:2,0:0:0:0:
73,7,165862,1,2,2:2:0:0:
11,71,166012,2,0,P|30:153|39:238,1,170,0|8,1:1|2:2,0:0:0:0:
118,298,166462,5,0,1:1:0:0:
118,298,166537,1,0,1:1:0:0:
118,298,166612,2,0,P|159:304|205:319,1,85,14|0,2:2|1:1,0:0:0:0:
240,158,166912,2,0,P|199:152|153:137,1,85,8|2,2:2|1:2,0:0:0:0:
185,230,167212,6,0,P|177:150|158:46,1,170,10|10,2:2|2:2,0:0:0:0:
248,4,167662,1,2,1:2:0:0:
333,48,167812,2,0,P|376:60|427:70,1,85,12|10,2:2|2:2,0:0:0:0:
415,68,168037,1,8,2:2:0:0:
415,68,168112,1,8,2:2:0:0:
478,27,168262,1,2,3:2:0:0:
432,164,168412,2,0,P|346:140|244:120,2,170,2|2|4,1:2|1:2|1:2,0:0:0:0:
322,352,169312,5,8,2:2:0:0:
400,384,169462,1,10,2:2:0:0:
452,315,169612,2,0,P|443:234|430:158,1,152.999995330811,2|10,1:2|2:2,0:0:0:0:
354,138,170062,1,2,2:2:0:0:
421,82,170212,5,2,1:2:0:0:
421,82,170362,2,0,P|431:43|433:2,1,76.4999976654053,2|8,2:2|2:2,0:0:0:0:
345,32,170662,1,10,2:2:0:0:
345,32,170812,2,0,P|281:62|169:65,1,152.999995330811,2|10,1:2|2:2,0:0:0:0:
138,128,171262,1,2,2:2:0:0:
51,110,171412,5,2,1:2:0:0:
51,110,171562,2,0,P|45:72|36:35,1,76.4999976654053,2|8,2:2|2:2,0:0:0:0:
138,128,171862,1,10,2:2:0:0:
73,197,172012,2,0,P|55:272|63:347,1,152.999995330811,2|10,1:2|2:2,0:0:0:0:
140,373,172462,1,0,0:0:0:0:
214,325,172612,6,0,P|220:287|227:250,1,76.4999976654053,2|2,1:2|2:2,0:0:0:0:
169,189,172912,1,10,2:2:0:0:
169,189,173062,1,10,2:2:0:0:
315,248,173212,6,0,P|390:230|468:215,1,152.999995330811,2|10,1:2|2:2,0:0:0:0:
415,136,173662,5,2,1:2:0:0:
415,136,173737,1,0,1:1:0:0:
415,136,173812,2,0,P|372:147|329:155,1,85,12|0,2:2|0:0,0:0:0:0:
128,82,174112,2,0,P|159:114|187:147,1,85,10|2,2:2|1:2,0:0:0:0:
224,357,174412,2,0,P|236:314|251:273,1,85,10|0,2:2|1:1,0:0:0:0:
256,192,174712,5,10,2:2:0:0:
161,235,174862,1,2,1:2:0:0:
161,235,174937,1,0,1:1:0:0:
161,235,175012,2,0,P|115:242|73:251,1,85,14|0,2:2|1:1,0:0:0:0:
266,88,175312,2,0,P|283:44|296:4,1,85,14|2,2:2|2:2,0:0:0:0:
340,252,175612,2,0,P|369:289|398:320,1,85,10|8,2:2|2:2,0:0:0:0:
403,326,175837,1,8,2:2:0:0:
413,334,175912,2,0,P|434:327|458:322,3,42.5,10|8|10|8,2:2|2:2|2:2|2:2,0:0:0:0:
472,328,176212,5,4,1:2:0:0:
48,328,177262,1,0,1:1:0:0:
48,328,177337,1,0,1:1:0:0:
48,328,177412,2,0,P|32:224|8:136,1,170,12|0,2:2|3:3,0:0:0:0:
71,84,177862,1,0,3:3:0:0:
158,103,178012,2,0,P|206:116|251:120,1,85,0|8,3:3|2:2,0:0:0:0:
354,281,178312,2,0,P|306:268|261:264,1,85,8|8,2:2|2:2,0:0:0:0:
320,80,178612,6,0,P|327:125|340:174,1,85,10|0,2:2|3:3,0:0:0:0:
192,304,178912,2,0,P|185:259|172:210,1,85,2|0,1:2|3:3,0:0:0:0:
175,220,179137,1,0,3:3:0:0:
175,220,179212,1,6,1:2:0:0:
248,132,179362,5,8,2:2:0:0:
248,132,179437,1,8,2:2:0:0:
248,132,179512,2,0,P|244:153|240:174,4,42.5,8|0|0|0|4,2:2|3:3|3:3|3:3|1:2,0:0:0:0:
167,75,184312,6,0,P|120:34|56:42,1,127.5,0|0,3:3|0:0,0:0:0:0:
57,55,184612,6,1,B|91:27|145:39|162:87|162:87|178:136|228:153|270:126,1,255,4|0,1:2|0:0,0:0:0:0:
344,180,185212,2,0,B|401:131|386:40|315:18|315:18|334:49|323:89,1,255,4|0,1:2|0:0,0:0:0:0:
262,130,185812,6,0,P|392:104|474:210,1,255,4|2,1:2|0:0,0:0:0:0:
451,317,186412,2,1,P|387:326|325:345,1,127.5,4|0,1:2|0:0,0:0:0:0:
326,344,186712,2,0,P|287:337|243:323,1,85,2|0,0:0|0:0,0:0:0:0:
137,384,187012,6,0,P|125:297|101:194,1,170,4|0,1:2|3:3,0:0:0:0:
174,159,187462,1,0,3:3:0:0:
256,192,187612,2,0,P|264:146|267:101,1,85,0|0,1:1|1:1,0:0:0:0:
44,0,187912,2,0,P|36:46|33:91,1,85,0|0,1:1|1:1,0:0:0:0:
33,84,188137,1,0,1:1:0:0:
33,84,188212,6,0,P|76:92|117:107,1,85,14|10,2:2|2:2,0:0:0:0:
196,35,188512,1,10,2:2:0:0:
256,192,188662,2,0,P|330:170|433:154,1,170,14|4,2:2|1:2,0:0:0:0:
256,96,189112,1,8,2:2:0:0:
174,138,189262,5,10,2:2:0:0:
174,138,189337,1,8,2:2:0:0:
174,138,189412,2,0,P|100:160|-3:176,2,170,4|10|2,1:2|2:2|1:2,0:0:0:0:
255,165,190162,1,0,1:1:0:0:
322,107,190312,2,0,P|331:63|332:15,1,85,8|2,2:2|2:2,0:0:0:0:
506,184,190612,5,2,1:2:0:0:
421,166,190762,1,2,2:2:0:0:
352,231,190912,2,0,P|343:275|342:323,1,85,10|2,2:2|2:2,0:0:0:0:
411,384,191212,6,0,P|332:359|225:352,1,170,2|8,1:2|2:2,0:0:0:0:
125,256,191662,1,2,2:2:0:0:
52,297,191812,2,0,P|40:340|36:380,1,85,2|2,1:2|2:2,0:0:0:0:
198,223,192112,5,10,2:2:0:0:
274,256,192262,2,0,P|287:178|285:81,1,170,2|2,2:2|1:2,0:0:0:0:
100,37,192712,5,10,2:2:0:0:
24,4,192862,2,0,P|11:82|13:179,1,170,2|2,2:2|2:2,0:0:0:0:
73,235,193312,2,0,P|130:213|200:201,1,127.5,10|0,2:2|0:0,0:0:0:0:
195,201,193612,1,2,1:2:0:0:
285,228,193762,1,0,1:1:0:0:
341,162,193912,2,0,P|346:119|355:78,1,85,8|0,2:2|0:0,0:0:0:0:
500,230,194212,5,4,1:2:0:0:
421,197,194362,1,2,2:2:0:0:
377,277,194512,2,0,P|331:286|289:300,1,85,10|2,2:2|2:2,0:0:0:0:
500,230,194812,5,2,1:2:0:0:
421,197,194962,1,2,1:2:0:0:
341,162,195112,2,0,P|337:118|327:73,1,85,10|2,2:2|2:2,0:0:0:0:
248,135,195412,6,0,P|176:110|83:95,2,170,2|10|2,1:2|2:2|1:2,0:0:0:0:
183,71,196162,1,0,1:1:0:0:
106,183,196312,2,0,P|65:196|11:204,1,85,10|0,2:2|0:0,0:0:0:0:
177,242,196612,5,2,1:2:0:0:
248,210,196762,1,2,2:2:0:0:
323,230,196912,1,10,2:2:0:0:
360,298,197062,1,2,2:2:0:0:
308,360,197212,6,0,B|406:346|366:387|490:363,1,170,2|10,1:2|2:2,0:0:0:0:
475,365,197662,1,2,1:2:0:0:
437,198,197812,6,0,P|432:241|424:283,1,85,14|8,2:2|2:2,0:0:0:0:
248,210,198112,2,0,L|240:169,2,42.5,2|0|0,1:2|3:3|3:3,0:0:0:0:
323,129,198412,2,0,L|331:170,2,42.5,2|0|0,1:2|3:3|3:3,0:0:0:0:
172,291,198712,5,10,2:2:0:0:
172,291,198787,1,8,2:2:0:0:
172,291,198862,1,8,2:2:0:0:
172,291,198937,1,8,2:2:0:0:
172,291,199012,2,0,P|156:211|133:114,1,170,4|8,1:2|2:2,0:0:0:0:
174,45,199462,1,2,2:2:0:0:
249,68,199612,2,0,P|297:79|336:81,1,85,2|2,1:2|1:2,0:0:0:0:
386,252,199912,5,10,2:2:0:0:
339,317,200062,2,0,P|243:295|165:291,1,170,2|2,2:2|2:2,0:0:0:0:
80,328,200512,2,0,P|76:286|64:237,1,85,10|0,2:2|0:0,0:0:0:0:
128,176,200812,1,2,1:2:0:0:
214,198,200962,1,0,1:1:0:0:
279,134,201112,2,0,P|269:92|265:50,1,85,10|2,2:2|0:0,0:0:0:0:
363,77,201412,6,0,P|448:92|474:173,2,170,2|10|2,1:2|0:0|1:2,0:0:0:0:
214,198,202162,1,8,2:2:0:0:
128,176,202312,5,10,2:2:0:0:
115,177,202387,1,8,2:2:0:0:
102,179,202462,1,8,2:2:0:0:
89,181,202537,1,8,2:2:0:0:
76,183,202612,2,0,P|51:101|44:17,1,170,4|10,1:2|2:2,0:0:0:0:
140,91,203062,1,2,2:2:0:0:
140,91,203212,2,0,P|179:96|228:111,1,85,2|2,1:2|1:2,0:0:0:0:
293,44,203512,1,10,2:2:0:0:
340,156,203662,6,0,P|420:129|504:113,1,170,2|2,2:2|2:2,0:0:0:0:
486,215,204112,2,0,P|445:228|403:236,1,85,10|0,2:2|0:0,0:0:0:0:
325,293,204412,1,2,1:2:0:0:
325,293,204562,1,0,1:1:0:0:
252,231,204712,2,0,P|262:189|265:146,1,85,10|2,2:2|2:2,0:0:0:0:
217,328,205012,6,0,P|134:320|71:396,1,170,4|10,1:2|2:2,0:0:0:0:
76,377,205462,1,0,3:3:0:0:
10,305,205612,2,0,P|16:260|18:217,1,85,2|0,1:2|3:3,0:0:0:0:
99,149,205912,2,0,L|108:194,3,42.5,2|0|0|0,1:2|1:1|1:1|1:1,0:0:0:0:
104,202,206212,6,0,P|147:207|190:216,1,85,12|2,2:2|1:2,0:0:0:0:
408,182,206512,2,0,P|365:177|322:168,1,85,10|2,2:2|1:2,0:0:0:0:
163,306,206812,6,0,P|201:296|250:288,1,85,10|2,2:2|1:2,0:0:0:0:
349,78,207112,2,0,P|311:88|262:96,1,85,10|2,2:2|1:2,0:0:0:0:
254,93,207337,1,0,1:1:0:0:
240,88,207412,2,0,P|235:46|225:-1,1,85,8|2,2:2|1:2,0:0:0:0:
272,296,207712,2,0,P|277:338|287:385,1,85,10|0,2:2|1:1,0:0:0:0:
157,153,208012,6,0,P|119:137|73:122,1,85,10|0,2:2|1:1,0:0:0:0:
354,230,208312,2,0,P|392:246|438:261,1,85,10|2,2:2|1:2,0:0:0:0:
256,192,208612,6,0,P|161:211|83:232,2,170,10|14|10,2:2|2:2|2:2,0:0:0:0:
314,131,209362,1,8,2:2:0:0:
314,131,209437,1,8,2:2:0:0:
314,131,209512,2,0,L|307:88,2,42.5,10|8|8,2:2|2:2|2:2,0:0:0:0:
464,272,209812,6,1,B|390:253|356:315|356:315|324:378|244:360,1,255,4|0,1:2|1:1,0:0:0:0:
243,355,210337,1,0,1:1:0:0:
238,349,210412,2,0,P|232:305|224:264,1,85,12|12,2:2|2:2,0:0:0:0:
301,127,210712,1,8,2:2:0:0:
259,53,210862,5,10,2:2:0:0:
259,53,210937,1,8,2:2:0:0:
259,53,211012,2,0,P|174:45|75:19,1,170,4|10,1:2|2:2,0:0:0:0:
18,80,211462,1,2,2:2:0:0:
48,160,211612,2,0,P|90:164|140:177,1,85,2|0,1:2|1:1,0:0:0:0:
225,143,211912,1,8,2:2:0:0:
283,219,212062,1,2,2:2:0:0:
225,143,212212,6,0,P|218:100|210:58,1,85,2|2,1:2|2:2,0:0:0:0:
392,9,212512,1,10,2:2:0:0:
469,37,212662,1,2,2:2:0:0:
405,94,212812,2,0,P|419:180|435:264,1,170,2|8,1:2|2:2,0:0:0:0:
301,379,213262,5,2,2:2:0:0:
228,341,213412,2,0,P|230:303|237:256,1,85,2|2,1:2|2:2,0:0:0:0:
296,205,213712,1,10,2:2:0:0:
253,140,213862,2,0,P|198:125|121:199,1,170,2|2,2:2|1:2,0:0:0:0:
83,93,214312,1,10,2:2:0:0:
0,128,214462,2,0,P|22:210|36:294,1,170,2|2,2:2|2:2,0:0:0:0:
177,384,214912,2,0,P|209:336|191:257,1,127.5,10|0,2:2|0:0,0:0:0:0:
199,269,215212,2,0,P|243:275|283:288,1,85,2|0,1:2|1:1,0:0:0:0:
344,352,215512,1,8,2:2:0:0:
430,316,215662,5,2,2:2:0:0:
430,316,215737,1,2,2:2:0:0:
430,316,215812,2,0,P|414:238|405:139,2,170,4|8|0,1:2|2:2|1:1,0:0:0:0:
344,352,216562,1,0,1:1:0:0:
282,287,216712,1,8,2:2:0:0:
365,24,217012,5,2,1:2:0:0:
430,95,217162,1,2,2:2:0:0:
461,5,217312,1,10,2:2:0:0:
335,121,217462,6,0,P|252:100|164:89,1,170,2|2,2:2|1:2,0:0:0:0:
101,32,217912,1,10,2:2:0:0:
222,323,218212,5,4,1:2:0:0:
161,261,218362,1,2,2:2:0:0:
84,301,218512,1,10,2:2:0:0:
15,241,218662,2,0,P|9:194|-5:137,1,85,2|8,1:2|2:2,0:0:0:0:
209,114,218962,5,2,1:2:0:0:
127,153,219112,1,10,2:2:0:0:
68,83,219262,2,0,P|76:42|82:-8,1,85,2|8,1:2|2:2,0:0:0:0:
256,192,219562,1,2,1:2:0:0:
321,137,219712,2,0,P|391:122|486:95,1,170,14|10,2:2|2:2,0:0:0:0:
464,195,220162,1,8,2:2:0:0:
464,195,220237,1,8,2:2:0:0:
464,195,220312,2,0,P|429:202|381:216,1,85,10|8,2:2|2:2,0:0:0:0:
374,222,220537,1,8,2:2:0:0:
366,227,220612,2,0,B|282:198|239:268|239:268|191:353|94:318,1,305.999990661621,4|0,1:2|0:0,0:0:0:0:
35,360,221662,5,0,1:1:0:0:
35,360,221737,1,0,1:1:0:0:
35,360,221812,2,0,P|26:311|14:256,1,85,12|0,2:2|3:3,0:0:0:0:
128,229,222112,5,0,1:1:0:0:
128,229,222187,1,8,2:2:0:0:
128,229,222262,2,0,P|119:180|107:125,1,85,8|8,2:2|2:2,0:0:0:0:
238,278,222562,1,0,3:3:0:0:
304,226,222712,2,0,P|295:177|283:122,1,85,0|0,1:1|1:1,0:0:0:0:
287,142,222937,1,0,1:1:0:0:
287,142,223012,2,0,P|370:161|458:175,1,170,4|0,1:2|0:0,0:0:0:0:
