osu file format v14

[General]
AudioFilename: audio.mp3
AudioLeadIn: 0
PreviewTime: 47737
Countdown: 0
SampleSet: Soft
StackLeniency: 0.5
Mode: 0
LetterboxInBreaks: 0
WidescreenStoryboard: 1

[Editor]
DistanceSpacing: 1.1
BeatDivisor: 4
GridSize: 32
TimelineZoom: 1.6

[Metadata]
Title:Heroine wa Heikin Ika.
TitleUnicode:ヒロインは平均以下。
Artist:HoneyWorks feat. Minato Aqua
ArtistUnicode:HoneyWorks feat. 湊あくあ
Creator:aundy
Version:Ame's Expert
Source:
Tags:Serizawa Haruki Jack J_a_c_k -_Nilou_- Nilou Syndicate_ SayuMana Ayesha Altugle Shizuku- Kazato Asa Shikibe Mayu Matsuyuki Ame RK657 Amateurre Kyuuchie kowari leominexd leomine jpop j-pop japanese pop 告白実行委員会 -flying songs- 恋してる kokuhaku jikkou iinkai koishiteru Suzumi Hiyori 涼海ひより shito Minase Inori 水瀬 いのり Suki na Ko ni Uso Tsuita. 好きな子に噓ついた。confession executive committee The Heroine is Below Average.
BeatmapID:4213384
BeatmapSetID:2011740

[Difficulty]
HPDrainRate:5
CircleSize:4
OverallDifficulty:8.5
ApproachRate:9.2
SliderMultiplier:1.8
SliderTickRate:1

[Events]
//Background and Video events
Video,0,"VD.mp4"
0,0,"bg3.jpg",0,0
//Break Periods
2,82812,90292
2,138012,146842
2,180012,184042
//Storyboard Layer 0 (Background)
//Storyboard Layer 1 (Fail)
//Storyboard Layer 2 (Pass)
//Storyboard Layer 3 (Foreground)
//Storyboard Layer 4 (Overlay)
//Storyboard Sound Samples

[TimingPoints]
1012,300,4,2,1,60,1,0
1012,-166.666666666667,4,2,1,60,0,0
2212,-142.857142857143,4,2,1,60,0,0
3412,-125,4,2,1,60,0,0
4612,-166.666666666667,4,2,1,60,0,0
5812,-100,4,2,1,60,0,0
6112,-100,4,2,1,63,0,0
6412,-100,4,2,1,66,0,0
6712,-100,4,2,1,69,0,0
7012,-100,4,2,1,72,0,0
7312,-100,4,2,1,75,0,0
7612,-100,4,2,1,78,0,0
7912,-100,4,2,1,81,0,0
8212,-100,4,2,1,50,0,0
9412,-100,4,2,1,80,0,0
18112,-66.6666666666667,4,2,1,80,0,0
18412,-100,4,2,1,80,0,0
19012,-100,4,2,1,75,0,0
19162,-111.111111111111,4,2,1,75,0,0
35812,-99.9999999999999,4,2,1,75,0,0
37612,-83.3333333333333,4,2,1,75,0,0
37837,-83.3333333333333,4,2,1,75,0,0
37912,-83.3333333333333,4,2,1,75,0,0
37987,-83.3333333333333,4,2,1,75,0,0
38212,-111.111111111111,4,2,1,70,0,0
38362,-111.111111111111,4,2,2,70,0,0
39412,-142.857142857143,4,2,2,70,0,0
40612,-111.111111111111,4,2,2,70,0,0
41812,-142.857142857143,4,2,2,70,0,0
42862,-100,4,2,2,70,0,0
43012,-100,4,2,1,78,0,0
45412,-166.666666666667,4,2,1,65,0,0
46612,-166.666666666667,4,2,1,70,0,0
46912,-166.666666666667,4,2,1,72,0,0
47212,-166.666666666667,4,2,1,74,0,0
47512,-166.666666666667,4,2,1,76,0,0
47812,-90.909090909091,4,2,1,78,0,0
49012,-90.909090909091,4,2,1,85,0,1
71812,-125,4,2,1,65,0,1
72412,-125,4,2,1,78,0,1
72712,-100,4,2,1,78,0,1
73012,-100,4,2,1,80,0,0
82012,-111.111111111111,4,2,1,80,0,0
82612,-111.111111111111,4,2,1,60,0,0
91012,-111.111111111111,4,2,1,78,0,0
92212,-111.111111111111,4,2,1,75,0,0
99412,-99.9999999999999,4,2,1,75,0,0
101512,-125,4,2,1,75,0,0
101812,-111.111111111111,4,2,1,70,0,0
101962,-111.111111111111,4,2,2,70,0,0
106612,-100,4,2,1,78,0,0
109012,-166.666666666667,4,2,1,65,0,0
110212,-166.666666666667,4,2,1,70,0,0
110512,-166.666666666667,4,2,1,72,0,0
110812,-166.666666666667,4,2,1,74,0,0
111112,-166.666666666667,4,2,1,76,0,0
111412,-90.909090909091,4,2,1,78,0,0
112612,-90.909090909091,4,2,1,85,0,1
131812,-200,4,2,1,85,0,1
132112,-71.4285714285714,4,2,1,85,0,1
132412,-90.909090909091,4,2,1,85,0,1
135412,-166.666666666667,4,2,1,65,0,0
137812,-166.666666666667,4,2,1,50,0,0
147412,-142.857142857143,4,2,1,60,0,0
154612,-111.111111111111,4,2,1,70,0,0
157312,-99.9999999999999,4,2,1,70,0,0
158812,-99.9999999999999,4,2,1,78,0,0
159412,-99.9999999999999,4,2,1,85,0,0
169012,-111.111111111111,4,2,1,70,0,0
169162,-111.111111111111,4,2,2,70,0,0
173812,-99.9999999999999,4,2,1,78,0,0
176212,-166.666666666667,4,2,1,65,0,0
177412,-166.666666666667,4,2,1,70,0,0
177712,-166.666666666667,4,2,1,72,0,0
178012,-166.666666666667,4,2,1,74,0,0
178312,-166.666666666667,4,2,1,76,0,0
178612,-90.909090909091,4,2,1,78,0,0
179812,-90.909090909091,4,2,1,60,0,0
184612,-166.666666666667,4,2,1,70,0,0
187012,-83.3333333333333,4,2,1,70,0,0
188212,-83.3333333333333,4,2,1,78,0,0
189412,-90.9090909090909,4,2,1,85,0,1
209812,-125,4,2,1,60,0,0
210412,-125,4,2,1,78,0,0
210712,-99.9999999999999,4,2,1,78,0,0
211012,-99.9999999999999,4,2,1,80,0,0
220612,-200,4,2,1,70,0,0
221662,-111.111111111111,4,2,1,70,0,0
223012,-83.3333333333333,4,2,1,65,0,0

[Colours]
Combo1 : 250,180,240
Combo2 : 120,200,230
Combo3 : 255,230,130
Combo4 : 160,230,150

[HitObjects]
375,54,1012,6,0,P|472:76|434:163,1,215.999993408203,4|2,1:2|2:2,0:0:0:0:
440,161,1762,1,0,1:1:0:0:
256,116,1912,1,8,2:2:0:0:
256,116,2212,6,0,P|186:134|106:144,1,125.999996154785,4|2,1:2|2:2,0:0:0:0:
42,100,2662,2,0,P|60:170|70:250,1,125.999996154785,2|0,3:2|3:3,0:0:0:0:
76,301,3112,1,0,3:3:0:0:
312,376,3412,6,0,P|318:329|325:297,1,72,4|2,1:2|2:2,0:0:0:0:
356,220,3712,1,2,3:2:0:0:
240,279,3862,2,0,P|201:285|153:295,1,72,2|0,3:2|3:3,0:0:0:0:
281,183,4162,1,2,3:2:0:0:
431,246,4312,2,0,P|470:240|518:230,1,72,0|2,3:3|3:2,0:0:0:0:
353,120,4612,6,0,B|333:65|333:65|371:15,2,107.999996704102,4|2|2,1:2|2:2|2:2,0:0:0:0:
421,176,5362,1,2,0:0:0:0:
430,183,5437,1,2,0:0:0:0:
440,192,5512,2,0,L|429:252,1,53.9999983520508,2|0,0:0|0:0,0:0:0:0:
181,378,5812,6,0,P|168:301|157:233,1,135,4|0,1:2|0:0,0:0:0:0:
146,168,6112,1,2,3:2:0:0:
247,235,6262,1,2,3:2:0:0:
96,354,6412,1,2,3:2:0:0:
96,354,6562,1,2,3:2:0:0:
254,320,6712,2,0,P|304:331|354:338,1,90,2|10,3:2|2:2,0:0:0:0:
512,181,7012,5,10,2:2:0:0:
332,252,7162,1,10,2:2:0:0:
433,89,7312,1,10,2:2:0:0:
447,279,7462,1,10,2:2:0:0:
323,133,7612,2,0,P|329:88|339:44,1,90,10|8,2:2|2:2,0:0:0:0:
254,5,7837,1,8,2:2:0:0:
242,2,7912,6,0,P|250:35|254:64,1,45,10|8,2:2|2:2,0:0:0:0:
206,225,8062,2,0,P|197:191|194:163,1,45,8|8,2:2|2:2,0:0:0:0:
94,139,8212,1,2,2:2:0:0:
94,139,9262,5,2,2:2:0:0:
204,216,9412,2,0,P|191:263|186:316,1,90,4|2,1:2|2:2,0:0:0:0:
45,321,9712,1,10,2:2:0:0:
101,230,9862,1,2,2:2:0:0:
300,352,10012,2,0,B|295:321|285:289|285:289|310:244|310:244|298:211|293:181,1,180,2|8,1:2|2:2,0:0:0:0:
321,28,10462,5,2,2:2:0:0:
321,28,10537,1,2,0:0:0:0:
321,28,10612,1,2,1:2:0:0:
380,130,10762,1,2,2:2:0:0:
242,102,10912,2,0,P|192:113|146:121,1,90,10|2,2:2|2:2,0:0:0:0:
450,9,11212,2,0,P|511:63|468:156,1,180,2|8,1:2|2:2,0:0:0:0:
389,274,11662,5,2,2:2:0:0:
313,191,11812,1,2,1:2:0:0:
313,191,11962,1,2,2:2:0:0:
475,231,12112,1,10,2:2:0:0:
408,359,12262,2,0,P|388:312|391:265,1,90,2|0,2:2|1:1,0:0:0:0:
380,130,12562,1,2,1:2:0:0:
380,130,12712,1,10,2:2:0:0:
286,295,12862,6,0,P|227:303|179:317,1,90,2|0,2:2|1:1,0:0:0:0:
84,345,13162,1,2,2:2:0:0:
0,206,13312,2,0,P|59:198|107:184,1,90,10|0,2:2|0:0,0:0:0:0:
260,34,13612,2,0,P|247:117|234:209,1,135,2|0,1:2|0:0,0:0:0:0:
173,244,13912,6,0,P|166:218|163:187,1,45,8|8,2:2|2:2,0:0:0:0:
144,73,14062,1,10,2:2:0:0:
147,87,14137,1,10,2:2:0:0:
151,98,14212,2,0,P|242:110|353:132,2,180,4|8|0,1:2|2:2|1:1,0:0:0:0:
0,211,14962,1,0,1:1:0:0:
44,59,15112,2,0,P|52:109|61:164,1,90,8|0,2:2|0:0,0:0:0:0:
226,275,15412,5,2,1:2:0:0:
82,235,15562,1,2,2:2:0:0:
235,278,15712,1,10,2:2:0:0:
158,384,15862,2,0,P|150:334|141:279,1,90,2|0,2:2|1:1,0:0:0:0:
351,249,16162,1,2,1:2:0:0:
351,249,16237,1,0,1:0:0:0:
351,249,16312,2,0,P|401:291|480:278,1,135,10|0,2:2|0:0,0:0:0:0:
512,223,16612,5,2,1:2:0:0:
406,381,16762,1,2,2:2:0:0:
262,272,16912,1,10,2:2:0:0:
262,272,17062,2,0,P|274:209|281:149,1,90,2|0,2:2|1:1,0:0:0:0:
480,133,17362,1,2,1:2:0:0:
409,22,17512,2,0,P|396:84|390:145,1,90,14|2,2:2|2:2,0:0:0:0:
190,12,17812,5,0,1:1:0:0:
190,12,17887,1,0,3:3:0:0:
190,12,17962,2,0,P|225:6|253:1,1,45,2|8,3:2|2:2,0:0:0:0:
293,103,18112,2,0,B|225:88|225:88|157:146,1,135.000005149842,10|0,2:2|1:1,0:0:0:0:
96,147,18337,1,0,1:0:0:0:
86,142,18412,6,0,P|79:110|72:65,1,45,10|8,2:2|2:2,0:0:0:0:
238,188,18562,2,0,P|244:219|252:265,1,45,8|0,2:2|0:0,0:0:0:0:
149,376,18712,1,10,2:2:0:0:
107,365,18787,1,8,0:0:0:0:
78,334,18862,1,8,2:2:0:0:
73,291,18937,1,8,2:2:0:0:
93,254,19012,1,4,1:2:0:0:
214,325,19162,6,0,P|274:314|320:310,1,80.9999975280763,2|10,2:2|2:2,0:0:0:0:
453,233,19462,1,2,2:2:0:0:
415,365,19612,2,0,B|380:340|380:340|378:279|353:214,1,161.999995056153,2|10,1:2|2:2,0:0:0:0:
304,73,20062,1,2,1:2:0:0:
409,120,20212,6,0,P|453:129|497:135,1,80.9999975280763,2|0,2:2|1:1,0:0:0:0:
355,3,20512,1,10,2:2:0:0:
221,49,20662,2,0,P|142:33|47:20,1,161.999995056153,2|0,2:2|1:1,0:0:0:0:
132,166,21112,2,0,P|177:155|220:151,1,80.9999975280763,8|2,2:2|2:2,0:0:0:0:
0,106,21412,6,0,B|16:168|16:168|-5:202|-5:202|9:263,1,161.999995056153,2|10,1:2|2:2,0:0:0:0:
168,379,21862,1,2,2:2:0:0:
84,326,22012,2,0,P|34:350|-4:346,1,80.9999975280763,2|2,1:2|1:2,0:0:0:0:
132,166,22312,1,10,2:2:0:0:
185,263,22462,1,2,1:2:0:0:
313,197,22612,6,0,B|409:210|370:254|478:270,1,161.999995056153,2|10,2:2|2:2,0:0:0:0:
456,265,23062,1,2,2:2:0:0:
343,361,23212,2,0,P|335:308|323:277,1,80.9999975280763,0|0,1:1|1:1,0:0:0:0:
396,120,23512,2,0,P|404:173|416:204,1,80.9999975280763,8|2,2:2|2:2,0:0:0:0:
281,40,23812,6,0,P|193:40|148:96,1,161.999995056153,2|10,1:2|2:2,0:0:0:0:
160,211,24262,1,2,2:2:0:0:
31,139,24412,2,0,P|2:93|5:55,1,80.9999975280763,2|2,1:2|1:2,0:0:0:0:
149,92,24712,1,10,2:2:0:0:
149,92,24862,1,2,1:2:0:0:
43,235,25012,6,0,P|126:249|207:270,1,161.999995056153,2|10,2:2|2:2,0:0:0:0:
319,271,25462,1,2,2:2:0:0:
319,271,25762,1,2,1:2:0:0:
236,384,25912,2,0,P|281:371|317:365,1,80.9999975280763,10|0,2:2|0:0,0:0:0:0:
512,252,26212,5,2,1:2:0:0:
458,342,26362,2,0,P|410:299|433:193,1,161.999995056153,2|2,2:2|2:2,0:0:0:0:
482,115,26812,1,2,1:2:0:0:
482,115,26962,1,2,1:2:0:0:
356,48,27112,2,0,P|371:101|374:138,1,80.9999975280763,10|2,2:2|2:2,0:0:0:0:
283,231,27412,5,0,1:1:0:0:
283,231,27487,1,0,3:3:0:0:
283,231,27562,1,0,3:3:0:0:
185,183,27712,1,0,1:1:0:0:
155,305,27862,1,0,1:1:0:0:
16,124,28012,6,0,P|30:181|33:237,1,80.9999975280763,12|8,2:2|2:2,0:0:0:0:
47,216,28237,1,8,2:2:0:0:
75,229,28312,1,8,2:2:0:0:
105,233,28387,1,8,2:2:0:0:
139,226,28462,1,8,2:2:0:0:
166,209,28537,1,8,2:2:0:0:
185,183,28612,6,0,P|171:126|168:70,1,80.9999975280763,4|2,1:2|2:2,0:0:0:0:
347,25,28912,2,0,P|356:70|338:108,1,80.9999975280763,10|2,2:2|2:2,0:0:0:0:
334,121,29137,1,0,3:3:0:0:
334,121,29212,1,2,1:2:0:0:
260,60,29362,1,2,1:2:0:0:
431,129,29512,2,0,P|481:117|524:112,1,80.9999975280763,10|2,2:2|1:2,0:0:0:0:
436,270,29812,6,0,P|369:252|312:318,1,161.999995056153,2|10,2:2|2:2,0:0:0:0:
209,369,30262,1,2,2:2:0:0:
209,369,30337,1,0,3:3:0:0:
209,369,30412,2,0,P|159:381|116:386,1,80.9999975280763,0|0,1:1|1:1,0:0:0:0:
203,214,30712,2,0,P|230:263|225:293,1,80.9999975280763,8|2,2:2|2:2,0:0:0:0:
20,256,31012,5,2,1:2:0:0:
75,181,31162,2,0,P|63:128|58:92,1,80.9999975280763,2|10,2:2|2:2,0:0:0:0:
4,31,31462,1,2,2:2:0:0:
4,31,31537,1,0,3:3:0:0:
4,31,31612,1,2,1:2:0:0:
140,87,31762,1,2,1:2:0:0:
213,4,31912,2,0,P|225:57|230:93,1,80.9999975280763,10|2,2:2|1:2,0:0:0:0:
354,168,32212,6,0,P|412:148|482:212,1,161.999995056153,2|10,2:2|2:2,0:0:0:0:
423,330,32662,1,2,2:2:0:0:
423,330,32737,1,0,3:3:0:0:
423,330,32812,2,0,P|413:278|403:233,1,80.9999975280763,0|0,1:1|1:1,0:0:0:0:
244,195,33112,1,8,2:2:0:0:
321,257,33262,1,2,2:2:0:0:
354,168,33412,5,2,1:2:0:0:
243,298,33562,2,0,P|200:306|154:324,1,80.9999975280763,2|10,2:2|2:2,0:0:0:0:
36,375,33862,1,2,2:2:0:0:
36,375,33937,1,0,3:3:0:0:
36,375,34012,2,0,P|12:328|16:289,1,80.9999975280763,2|2,1:2|1:2,0:0:0:0:
114,172,34312,2,0,L|99:266,1,80.9999975280763,10|0,2:2|1:1,0:0:0:0:
1,93,34612,6,0,B|44:73|73:36|73:36|101:53|143:59,1,161.999995056153,2|10,2:2|2:2,0:0:0:0:
232,154,35062,2,0,P|287:164|335:176,1,80.9999975280763,2|0,2:2|1:1,0:0:0:0:
331,177,35287,1,2,0:0:0:0:
331,177,35362,1,2,1:2:0:0:
382,59,35512,1,10,2:2:0:0:
291,83,35662,1,2,2:2:0:0:
468,180,35812,6,0,P|486:240|422:307,1,135,4|0,1:2|0:0,0:0:0:0:
430,309,36112,2,0,P|374:298|327:287,1,90,10|2,2:2|2:2,0:0:0:0:
238,181,36412,1,2,1:2:0:0:
142,377,36562,1,2,1:2:0:0:
77,273,36712,2,0,P|133:284|180:295,1,90,10|2,2:2|1:2,0:0:0:0:
185,298,36937,1,0,1:1:0:0:
185,298,37012,1,12,2:2:0:0:
120,154,37162,5,8,2:2:0:0:
325,245,37312,1,8,2:2:0:0:
142,377,37462,1,8,2:2:0:0:
246,168,37612,6,0,P|297:96|266:19,1,161.999995056153,8|0,2:2|0:0,0:0:0:0:
188,24,37912,2,0,P|197:6|194:26,1,53.9999983520508,2|0,2:2|0:0,0:0:0:0:
393,143,38212,6,0,P|457:155|512:165,1,121.499996292114,4|0,1:2|0:0,0:0:0:0:
512,165,38512,2,0,P|506:194|502:217,1,40.4999987640381,10|0,2:2|0:0,0:0:0:0:
430,235,38662,2,0,P|424:264|420:287,1,40.4999987640381,8|0,2:2|0:0,0:0:0:0:
479,363,38812,2,0,P|414:350|360:341,1,121.499996292114,2|0,1:2|0:0,0:0:0:0:
359,340,39112,1,10,2:2:0:0:
225,231,39412,6,0,L|234:301,2,62.9999980773926,2|2|8,1:2|2:2|2:2,0:0:0:0:
294,150,39862,1,10,2:2:0:0:
294,150,40012,2,0,L|285:80,1,62.9999980773926,2|0,1:2|1:1,0:0:0:0:
238,14,40312,1,10,2:2:0:0:
119,127,40612,6,0,P|54:139|0:149,1,121.499996292114,2|0,1:2|0:0,0:0:0:0:
0,149,40912,2,0,P|5:178|9:201,1,40.4999987640381,10|0,2:2|0:0,0:0:0:0:
82,219,41062,2,0,P|87:248|91:271,1,40.4999987640381,8|0,2:2|0:0,0:0:0:0:
33,347,41212,2,0,P|97:334|152:325,1,121.499996292114,2|0,1:2|0:0,0:0:0:0:
153,324,41512,1,10,2:2:0:0:
304,221,41812,6,0,L|313:291,2,62.9999980773926,2|2|8,1:2|2:2|2:2,0:0:0:0:
215,158,42262,1,10,2:2:0:0:
215,158,42412,2,0,L|206:88,1,62.9999980773926,2|0,1:2|1:1,0:0:0:0:
238,14,42712,1,10,2:2:0:0:
407,106,42862,5,2,1:2:0:0:
407,106,42937,1,0,1:1:0:0:
407,106,43012,2,0,P|459:96|503:175,1,135,14|0,2:2|0:0,0:0:0:0:
503,171,43312,2,0,P|496:212|490:271,1,90,10|2,2:2|1:2,0:0:0:0:
273,332,43612,2,0,P|278:287|284:242,1,90,10|0,2:2|1:1,0:0:0:0:
382,224,43912,1,10,2:2:0:0:
184,334,44062,5,2,1:2:0:0:
184,334,44137,1,0,1:1:0:0:
184,334,44212,2,0,B|102:324|127:367|39:358,1,135,14|0,2:2|0:0,0:0:0:0:
40,360,44512,1,14,2:2:0:0:
193,151,44662,5,10,2:2:0:0:
193,151,44737,1,8,2:2:0:0:
193,151,44812,1,2,3:2:0:0:
269,241,44962,1,0,3:3:0:0:
79,181,45112,1,2,3:2:0:0:
180,53,45262,1,0,3:3:0:0:
98,0,45412,6,0,P|144:84|390:25,1,377.999988464356,4|0,1:2|1:1,0:0:0:0:
382,41,46612,5,12,2:2:0:0:
382,41,46912,1,0,3:3:0:0:
476,103,47062,1,0,3:3:0:0:
416,208,47212,1,0,3:3:0:0:
332,148,47362,1,8,2:2:0:0:
304,292,47512,1,8,2:2:0:0:
512,195,47662,1,8,2:2:0:0:
383,380,47812,5,10,2:2:0:0:
383,380,47887,1,0,3:3:0:0:
383,380,47962,2,0,P|386:342|392:320,1,49.5000015106202,0|0,3:3|3:3,0:0:0:0:
200,281,48112,2,0,P|196:318|191:341,1,49.5000015106202,2|0,1:2|1:1,0:0:0:0:
304,292,48262,5,8,2:2:0:0:
304,292,48337,1,0,3:3:0:0:
304,292,48412,2,0,P|300:254|295:232,1,49.5000015106202,2|0,3:2|3:3,0:0:0:0:
113,185,48562,2,0,P|116:222|122:245,1,49.5000015106202,0|0,1:1|1:1,0:0:0:0:
235,138,48712,5,8,2:2:0:0:
239,103,48787,1,8,2:2:0:0:
244,69,48862,1,8,2:2:0:0:
248,34,48937,1,8,2:2:0:0:
253,0,49012,2,0,P|314:13|362:16,1,99.0000030212403,4|2,1:2|2:2,0:0:0:0:
508,64,49312,1,10,2:2:0:0:
373,167,49462,1,2,2:2:0:0:
463,201,49612,6,0,P|446:145|443:98,1,99.0000030212403,2|0,1:2|1:1,0:0:0:0:
305,247,49912,2,0,P|322:303|325:350,1,99.0000030212403,8|2,2:2|2:2,0:0:0:0:
327,358,50137,1,2,0:0:0:0:
327,358,50212,1,2,1:2:0:0:
221,244,50362,1,2,2:2:0:0:
405,286,50512,2,0,P|457:302|509:307,1,99.0000030212403,10|2,2:2|2:2,0:0:0:0:
250,157,50812,2,0,P|180:222|86:206,1,198.000006042481,2|8,1:2|2:2,0:0:0:0:
1,130,51262,5,2,2:2:0:0:
1,130,51337,1,2,0:0:0:0:
1,130,51412,1,2,1:2:0:0:
124,94,51562,1,2,2:2:0:0:
49,14,51712,1,10,2:2:0:0:
86,206,51862,2,0,P|82:264|70:311,1,99.0000030212403,2|0,2:2|1:1,0:0:0:0:
228,379,52162,2,0,P|232:321|244:274,1,99.0000030212403,2|8,1:2|2:2,0:0:0:0:
241,281,52462,1,2,2:2:0:0:
368,119,52612,6,0,P|422:166|493:157,1,148.50000453186,0|0,1:1|0:0,0:0:0:0:
511,147,52912,2,0,P|503:93|497:42,1,99.0000030212403,10|0,2:2|0:0,0:0:0:0:
377,22,53212,1,2,1:2:0:0:
295,219,53362,1,0,1:1:0:0:
295,219,53437,1,0,1:0:0:0:
295,219,53512,1,8,2:2:0:0:
295,219,53812,5,4,1:2:0:0:
171,86,53962,1,2,2:2:0:0:
348,121,54112,1,10,2:2:0:0:
186,199,54262,1,2,2:2:0:0:
271,38,54412,5,2,1:2:0:0:
301,236,54562,1,2,1:2:0:0:
153,78,54712,1,10,2:2:0:0:
366,119,54862,1,2,2:2:0:0:
170,213,55012,5,2,1:2:0:0:
274,20,55162,1,2,2:2:0:0:
301,236,55312,5,10,2:2:0:0:
275,13,55462,1,2,2:2:0:0:
73,101,55612,6,0,P|129:91|178:85,1,99.0000030212403,2|0,1:2|1:1,0:0:0:0:
301,236,55912,2,0,P|264:189|279:121,1,99.0000030212403,10|0,2:2|0:0,0:0:0:0:
393,7,56212,5,2,1:2:0:0:
451,101,56362,2,0,P|442:143|434:205,1,99.0000030212403,2|10,2:2|2:2,0:0:0:0:
435,215,56587,1,2,0:0:0:0:
435,215,56662,1,2,2:2:0:0:
301,236,56812,1,2,1:2:0:0:
462,345,56962,1,2,1:2:0:0:
351,384,57112,2,0,P|360:342|368:280,1,99.0000030212403,10|0,2:2|0:0,0:0:0:0:
189,165,57412,6,0,P|181:202|176:231,1,49.5000015106202,12|0,2:2|0:0,0:0:0:0:
68,301,57562,2,0,P|103:289|131:278,1,49.5000015106202,0|0,1:1|1:1,0:0:0:0:
245,329,57712,2,0,P|216:303|193:285,1,49.5000015106202,0|0,1:1|0:0,0:0:0:0:
81,189,57862,1,12,2:2:0:0:
81,189,58162,5,12,2:2:0:0:
169,46,58312,1,8,2:2:0:0:
207,24,58387,1,8,2:2:0:0:
251,24,58462,1,10,2:2:0:0:
289,45,58537,1,8,2:2:0:0:
312,82,58612,2,0,P|371:102|437:101,1,99.0000030212403,4|2,1:2|2:2,0:0:0:0:
381,11,58912,1,10,2:2:0:0:
235,139,59062,1,2,2:2:0:0:
341,198,59212,6,0,P|334:259|326:299,1,99.0000030212403,2|0,1:2|1:1,0:0:0:0:
494,191,59512,2,0,P|501:130|509:90,1,99.0000030212403,8|2,2:2|2:2,0:0:0:0:
512,81,59737,1,2,0:0:0:0:
512,81,59812,1,2,1:2:0:0:
421,246,59962,1,2,2:2:0:0:
341,198,60112,2,0,P|297:213|238:219,1,99.0000030212403,10|2,2:2|2:2,0:0:0:0:
116,321,60412,2,0,P|193:301|267:384,1,198.000006042481,2|8,1:2|2:2,0:0:0:0:
36,278,60862,5,2,2:2:0:0:
36,278,60937,1,2,0:0:0:0:
36,278,61012,1,2,1:2:0:0:
127,198,61162,1,2,2:2:0:0:
0,155,61312,1,10,2:2:0:0:
63,22,61462,2,0,P|74:75|80:141,1,99.0000030212403,2|0,2:2|1:1,0:0:0:0:
262,12,61762,2,0,P|209:23|143:29,1,99.0000030212403,2|10,1:2|2:2,0:0:0:0:
164,27,62062,1,2,2:2:0:0:
276,179,62212,6,0,B|372:196|315:232|425:254,1,148.50000453186,0|0,1:1|0:0,0:0:0:0:
421,253,62512,2,0,P|403:304|403:350,1,99.0000030212403,10|0,2:2|0:0,0:0:0:0:
272,278,62812,1,2,1:2:0:0:
392,113,62962,1,0,1:1:0:0:
392,113,63037,1,0,1:0:0:0:
392,113,63112,1,8,2:2:0:0:
392,113,63412,5,4,1:2:0:0:
512,167,63562,1,2,2:2:0:0:
421,253,63712,1,10,2:2:0:0:
483,27,63862,1,2,2:2:0:0:
308,104,64012,5,2,1:2:0:0:
512,167,64162,1,2,1:2:0:0:
301,102,64312,2,0,P|249:116|193:118,1,99.0000030212403,10|2,2:2|2:2,0:0:0:0:
275,318,64612,6,0,P|284:235|293:198,1,99.0000030212403,2|0,1:2|0:0,0:0:0:0:
142,11,64912,1,10,2:2:0:0:
204,118,65062,1,0,0:0:0:0:
78,162,65212,2,0,P|69:245|60:282,1,99.0000030212403,2|0,1:2|1:1,0:0:0:0:
187,384,65512,2,0,P|177:306|168:217,1,148.50000453186,10|0,2:2|0:0,0:0:0:0:
169,236,65812,5,2,1:2:0:0:
83,356,65962,1,2,2:2:0:0:
275,318,66112,2,0,P|330:338|380:336,1,99.0000030212403,10|2,2:2|2:2,0:0:0:0:
512,173,66412,2,0,B|492:192|492:192|422:201|364:219,1,148.50000453186,2|0,1:2|0:0,0:0:0:0:
360,219,66712,2,0,P|377:168|371:119,1,99.0000030212403,10|0,2:2|0:0,0:0:0:0:
228,7,67012,5,14,2:2:0:0:
228,7,67087,1,8,2:2:0:0:
228,7,67162,2,0,L|237:63,1,49.5000015106202,8|8,2:2|2:2,0:0:0:0:
118,132,67312,5,2,1:2:0:0:
118,132,67387,1,0,3:3:0:0:
118,132,67462,2,0,L|109:76,1,49.5000015106202,0|0,3:3|3:3,0:0:0:0:
251,169,67612,6,0,P|285:172|315:182,3,49.5000015106202,2|0|0|0,1:2|3:3|3:3|3:3,0:0:0:0:
177,201,67912,1,10,2:2:0:0:
154,239,67987,1,8,2:2:0:0:
116,260,68062,1,8,2:2:0:0:
72,257,68137,1,8,2:2:0:0:
36,232,68212,6,0,P|51:293|53:340,1,99.0000030212403,4|2,1:2|2:2,0:0:0:0:
266,369,68512,2,0,P|251:308|249:261,1,99.0000030212403,8|2,2:2|2:2,0:0:0:0:
249,255,68737,1,2,0:0:0:0:
249,255,68812,1,2,1:2:0:0:
122,145,68962,2,0,P|137:206|139:253,1,99.0000030212403,2|10,1:2|2:2,0:0:0:0:
346,310,69262,6,0,P|427:333|499:245,1,198.000006042481,2|2,2:2|2:2,0:0:0:0:
400,95,69712,2,0,P|377:32|384:-9,1,99.0000030212403,10|0,2:2|0:0,0:0:0:0:
505,126,70012,1,2,1:2:0:0:
419,220,70162,1,0,1:1:0:0:
315,160,70312,2,0,P|259:179|208:177,1,99.0000030212403,10|2,2:2|1:2,0:0:0:0:
205,180,70537,1,0,1:1:0:0:
205,180,70612,6,0,P|215:118|220:71,1,99.0000030212403,12|0,2:2|1:1,0:0:0:0:
28,2,70912,1,10,2:2:0:0:
2,38,70987,1,0,3:3:0:0:
0,82,71062,1,0,3:3:0:0:
17,121,71137,1,0,3:3:0:0:
53,146,71212,1,10,2:2:0:0:
143,78,71362,1,0,3:3:0:0:
205,180,71512,2,0,P|195:242|190:289,1,99.0000030212403,2|0,3:2|1:1,0:0:0:0:
43,308,71812,6,0,P|123:285|206:378,1,216,4|0,1:2|1:1,0:0:0:0:
205,373,72337,1,0,0:0:0:0:
205,373,72412,1,8,2:2:0:0:
373,229,72562,5,8,2:2:0:0:
373,229,72637,1,8,2:2:0:0:
373,229,72712,2,0,P|334:237|299:242,1,45,8|8,2:2|2:2,0:0:0:0:
304,373,72862,2,0,P|343:365|378:360,1,45,10|8,2:2|2:2,0:0:0:0:
469,319,73012,6,0,P|473:266|484:211,1,90,4|2,1:2|2:2,0:0:0:0:
401,61,73312,1,10,2:2:0:0:
512,35,73462,1,2,2:2:0:0:
402,149,73612,2,0,B|365:147|332:136|332:136|289:160|289:160|262:151|230:149,1,180,2|8,1:2|2:2,0:0:0:0:
150,61,74062,5,2,2:2:0:0:
150,61,74137,1,2,0:0:0:0:
150,61,74212,1,2,1:2:0:0:
199,222,74362,1,2,2:2:0:0:
92,184,74512,2,0,P|46:202|-13:199,1,90,10|2,2:2|2:2,0:0:0:0:
102,364,74812,2,0,P|166:301|256:331,1,180,2|8,1:2|2:2,0:0:0:0:
389,376,75262,5,2,2:2:0:0:
310,253,75412,1,2,1:2:0:0:
310,253,75562,1,2,2:2:0:0:
463,301,75712,1,10,2:2:0:0:
404,177,75862,2,0,P|393:234|387:291,1,90,2|0,2:2|1:1,0:0:0:0:
389,265,76162,1,2,1:2:0:0:
293,136,76312,1,10,2:2:0:0:
413,76,76462,6,0,P|470:93|510:94,1,90,2|0,2:2|1:1,0:0:0:0:
500,94,76762,1,2,2:2:0:0:
293,136,76912,2,0,P|303:78|310:22,1,90,10|0,2:2|0:0,0:0:0:0:
185,230,77212,2,0,P|229:234|272:248,1,90,2|0,1:2|1:1,0:0:0:0:
139,101,77512,2,0,P|101:134|-2:124,1,135,8|2,2:2|2:2,0:0:0:0:
1,124,77812,6,0,B|64:167|42:232|42:232|10:244|-4:283,2,180,4|8|0,1:2|2:2|1:1,0:0:0:0:
32,0,78562,1,0,1:1:0:0:
139,101,78712,2,0,P|192:95|237:86,1,90,8|0,2:2|0:0,0:0:0:0:
345,75,79012,5,2,1:2:0:0:
275,177,79162,1,2,2:2:0:0:
350,66,79312,1,10,2:2:0:0:
449,209,79462,2,0,P|396:215|351:224,1,90,2|0,2:2|1:1,0:0:0:0:
160,308,79762,1,2,1:2:0:0:
251,377,79912,2,0,P|254:327|265:277,1,90,10|0,2:2|1:1,0:0:0:0:
267,273,80137,1,0,1:1:0:0:
267,273,80212,5,14,2:2:0:0:
370,303,80362,1,2,1:2:0:0:
275,177,80512,5,10,2:2:0:0:
160,308,80662,1,2,1:2:0:0:
203,114,80812,5,8,2:2:0:0:
390,203,80962,1,2,1:2:0:0:
303,2,81112,2,0,P|290:61|288:104,1,90,10|2,2:2|1:2,0:0:0:0:
137,211,81412,5,12,2:2:0:0:
48,136,81562,1,10,2:2:0:0:
48,136,81637,1,8,2:2:0:0:
48,136,81712,2,0,L|109:126,1,45,10|0,2:2|0:0,0:0:0:0:
203,114,81862,1,0,3:3:0:0:
151,290,82012,6,0,P|146:249|136:210,1,80.9999975280763,2|0,3:2|3:3,0:0:0:0:
66,43,82312,1,2,1:2:0:0:
48,136,82462,1,0,1:1:0:0:
31,229,82612,1,4,1:2:0:0:
256,192,90862,5,2,1:2:0:0:
256,192,90937,1,0,1:1:0:0:
256,192,91012,1,12,2:2:0:0:
184,124,91162,1,0,3:3:0:0:
291,107,91312,1,0,1:1:0:0:
270,269,91462,1,0,1:1:0:0:
79,228,91612,6,0,P|124:239|186:244,1,80.9999975280763,12|8,2:2|2:2,0:0:0:0:
172,247,91837,1,8,2:2:0:0:
164,286,91912,1,8,2:2:0:0:
176,325,91987,1,8,2:2:0:0:
203,354,92062,1,8,2:2:0:0:
241,368,92137,1,8,2:2:0:0:
281,363,92212,6,0,P|274:308|263:270,1,80.9999975280763,4|2,1:2|2:2,0:0:0:0:
408,166,92512,2,0,P|415:221|426:259,1,80.9999975280763,10|2,2:2|2:2,0:0:0:0:
430,261,92737,1,0,3:3:0:0:
430,261,92812,1,2,1:2:0:0:
333,217,92962,1,2,1:2:0:0:
398,72,93112,2,0,P|455:83|496:84,1,80.9999975280763,10|2,2:2|1:2,0:0:0:0:
281,5,93412,6,0,P|308:47|246:127,1,161.999995056153,2|10,2:2|2:2,0:0:0:0:
153,87,93862,1,2,2:2:0:0:
153,87,93937,1,0,3:3:0:0:
153,87,94012,2,0,P|96:76|55:75,1,80.9999975280763,0|0,1:1|1:1,0:0:0:0:
145,247,94312,2,0,P|171:203|170:169,1,80.9999975280763,8|2,2:2|2:2,0:0:0:0:
6,153,94612,5,2,1:2:0:0:
26,239,94762,1,2,2:2:0:0:
45,325,94912,1,10,2:2:0:0:
145,247,95062,1,2,2:2:0:0:
145,247,95137,1,0,3:3:0:0:
145,247,95212,2,0,P|198:260|233:260,1,80.9999975280763,2|2,1:2|1:2,0:0:0:0:
345,355,95512,2,0,P|300:361|262:388,1,80.9999975280763,10|2,2:2|1:2,0:0:0:0:
354,235,95812,6,0,B|333:146|400:158|366:58,1,161.999995056153,2|10,2:2|2:2,0:0:0:0:
409,1,96262,2,0,P|426:6|456:10,2,40.4999987640381,2|0|0,2:2|3:3|1:1,0:0:0:0:
284,113,96562,1,0,1:1:0:0:
450,97,96712,2,0,P|406:84|346:75,1,80.9999975280763,8|2,2:2|2:2,0:0:0:0:
168,28,97012,6,0,P|181:79|187:157,1,121.499996292114,2|0,1:2|0:0,0:0:0:0:
190,164,97312,2,0,P|129:168|90:184,1,80.9999975280763,10|0,2:2|0:0,0:0:0:0:
95,183,97537,1,0,3:3:0:0:
95,183,97612,1,2,1:2:0:0:
214,291,97762,1,2,1:2:0:0:
145,362,97912,2,0,P|137:301|128:266,1,80.9999975280763,10|0,2:2|1:1,0:0:0:0:
322,220,98212,6,0,P|374:277|472:250,1,161.999995056153,2|10,2:2|2:2,0:0:0:0:
472,259,98587,1,0,3:3:0:0:
472,259,98662,2,0,P|460:205|456:169,1,80.9999975280763,2|8,3:2|2:2,0:0:0:0:
372,16,98962,1,2,3:2:0:0:
467,45,99112,1,10,2:2:0:0:
453,82,99187,1,0,3:3:0:0:
424,110,99262,1,2,3:2:0:0:
385,121,99337,1,8,2:2:0:0:
346,113,99412,6,0,P|293:120|243:135,1,90,4|2,1:2|2:2,0:0:0:0:
127,17,99712,2,0,P|180:10|230:-5,1,90,10|2,2:2|2:2,0:0:0:0:
140,168,100012,1,2,1:2:0:0:
31,85,100162,1,2,1:2:0:0:
149,172,100312,2,0,P|135:217|132:269,1,90,10|2,2:2|1:2,0:0:0:0:
358,384,100612,6,0,P|356:361|345:342,1,45,8|0,2:2|3:3,0:0:0:0:
334,168,100762,2,0,P|322:186|319:209,1,45,0|0,3:3|3:3,0:0:0:0:
231,355,100912,2,0,P|251:346|267:330,1,45,0|0,1:1|1:1,0:0:0:0:
425,265,101062,2,0,P|403:259|381:263,1,45,0|0,1:1|1:1,0:0:0:0:
214,224,101212,2,0,P|228:241|248:250,1,45,8|0,2:2|0:0,0:0:0:0:
248,250,101512,2,0,P|199:259|171:270,1,72,2|2,2:2|2:2,0:0:0:0:
6,151,101812,6,0,P|19:87|25:23,1,121.499996292114,4|0,1:2|0:0,0:0:0:0:
24,31,102112,2,0,P|56:36|89:39,1,40.4999987640381,10|0,2:2|0:0,0:0:0:0:
94,106,102262,2,0,P|125:110|158:113,1,40.4999987640381,10|0,2:2|0:0,0:0:0:0:
222,57,102412,2,0,P|209:121|203:185,1,121.499996292114,2|0,1:2|0:0,0:0:0:0:
203,176,102712,1,10,2:2:0:0:
68,359,103012,5,2,1:2:0:0:
28,289,103162,1,2,2:2:0:0:
82,231,103312,1,10,2:2:0:0:
153,264,103462,1,10,2:2:0:0:
144,343,103612,1,2,1:2:0:0:
82,231,103762,1,0,1:1:0:0:
68,359,103912,1,10,2:2:0:0:
308,216,104212,6,0,P|301:276|289:335,1,121.499996292114,2|0,1:2|0:0,0:0:0:0:
289,335,104512,2,0,P|309:337|329:340,1,40.4999987640381,10|0,2:2|0:0,0:0:0:0:
384,282,104662,2,0,P|404:284|424:287,1,40.4999987640381,10|0,2:2|0:0,0:0:0:0:
493,367,104812,2,0,P|499:306|511:247,1,121.499996292114,2|0,1:2|0:0,0:0:0:0:
511,247,105112,1,10,2:2:0:0:
444,25,105412,5,2,1:2:0:0:
484,95,105562,1,0,0:0:0:0:
430,153,105712,1,10,2:2:0:0:
359,120,105862,1,10,2:2:0:0:
368,41,106012,1,2,1:2:0:0:
430,153,106162,1,0,1:1:0:0:
444,25,106312,1,10,2:2:0:0:
272,170,106462,5,2,1:2:0:0:
272,170,106537,1,0,1:1:0:0:
272,170,106612,2,0,B|228:179|201:197|201:197|167:184|110:187,1,135,14|0,2:2|0:0,0:0:0:0:
129,185,106912,2,0,P|139:232|146:277,1,90,10|2,2:2|1:2,0:0:0:0:
276,88,107212,2,0,P|266:41|259:-4,1,90,10|0,2:2|1:1,0:0:0:0:
181,86,107512,1,10,2:2:0:0:
288,256,107662,5,2,1:2:0:0:
288,256,107737,1,0,0:0:0:0:
288,256,107812,2,0,P|359:279|425:284,1,135,14|0,2:2|0:0,0:0:0:0:
438,284,108112,1,14,2:2:0:0:
257,350,108262,5,10,2:2:0:0:
257,350,108337,1,8,2:2:0:0:
257,350,108412,6,0,P|214:361|199:375,2,60,10|8|8,2:2|2:2|2:2,0:0:0:0:
109,314,108712,6,0,P|110:284|98:257,2,60,2|0|0,3:2|3:3|3:3,0:0:0:0:
184,192,109012,6,0,P|242:230|428:50,1,377.999988464356,4|0,1:2|1:1,0:0:0:0:
431,61,110137,1,0,1:1:0:0:
431,61,110212,5,12,2:2:0:0:
431,61,110512,1,0,3:3:0:0:
345,23,110662,1,0,3:3:0:0:
295,106,110812,1,0,3:3:0:0:
209,69,110962,1,8,2:2:0:0:
323,192,111112,1,8,2:2:0:0:
147,266,111262,1,8,2:2:0:0:
224,346,111412,5,10,2:2:0:0:
224,346,111487,1,0,3:3:0:0:
224,346,111562,2,0,P|229:306|235:280,1,49.5000015106202,0|0,3:3|3:3,0:0:0:0:
139,187,111712,2,0,P|133:226|128:253,1,49.5000015106202,2|0,1:2|1:1,0:0:0:0:
56,354,111862,5,8,2:2:0:0:
56,354,111937,1,0,3:3:0:0:
56,354,112012,2,0,P|95:348|122:343,1,49.5000015106202,2|0,3:2|3:3,0:0:0:0:
235,220,112162,5,0,1:1:0:0:
272,209,112237,1,0,1:1:0:0:
311,215,112312,1,8,2:2:0:0:
344,237,112387,1,8,2:2:0:0:
365,273,112462,1,8,2:2:0:0:
371,316,112537,1,8,2:2:0:0:
352,357,112612,6,0,P|397:377|457:375,1,99.0000030212403,4|2,1:2|2:2,0:0:0:0:
435,212,112912,1,10,2:2:0:0:
283,305,113062,1,2,2:2:0:0:
235,219,113212,2,0,P|227:159|210:107,1,99.0000030212403,2|0,1:2|1:1,0:0:0:0:
388,7,113512,2,0,P|396:67|413:119,1,99.0000030212403,8|2,2:2|2:2,0:0:0:0:
416,117,113737,1,2,0:0:0:0:
416,117,113812,1,2,1:2:0:0:
264,21,113962,5,2,2:2:0:0:
310,96,114112,2,0,P|258:104|211:124,1,99.0000030212403,10|2,2:2|2:2,0:0:0:0:
43,14,114412,2,0,B|107:53|89:124|89:124|48:129|28:159,1,198.000006042481,2|8,1:2|2:2,0:0:0:0:
107,224,114862,5,2,2:2:0:0:
107,224,114937,1,2,0:0:0:0:
107,224,115012,1,2,1:2:0:0:
179,287,115162,1,2,2:2:0:0:
39,318,115312,1,10,2:2:0:0:
241,369,115462,2,0,P|288:301|407:338,1,198.000006042481,2|2,2:2|1:2,0:0:0:0:
510,210,115912,2,0,P|457:222|391:232,1,99.0000030212403,8|2,2:2|2:2,0:0:0:0:
258,129,116212,5,0,1:1:0:0:
428,64,116362,1,2,2:2:0:0:
353,0,116512,2,0,P|339:74|337:100,1,99.0000030212403,10|0,2:2|0:0,0:0:0:0:
328,203,116812,1,2,1:2:0:0:
147,131,116962,1,0,1:1:0:0:
147,131,117037,1,0,1:0:0:0:
147,131,117112,1,8,2:2:0:0:
147,131,117412,5,4,1:2:0:0:
73,297,117562,1,2,2:2:0:0:
229,208,117712,1,10,2:2:0:0:
50,185,117862,1,2,2:2:0:0:
183,309,118012,5,2,1:2:0:0:
149,111,118162,1,2,1:2:0:0:
60,310,118312,1,10,2:2:0:0:
247,203,118462,1,2,2:2:0:0:
32,175,118612,5,2,1:2:0:0:
192,324,118762,1,2,2:2:0:0:
149,111,118912,5,10,2:2:0:0:
196,332,119062,1,2,2:2:0:0:
371,266,119212,6,0,P|358:319|354:370,1,99.0000030212403,2|0,1:2|1:1,0:0:0:0:
132,208,119512,2,0,P|145:155|149:104,1,99.0000030212403,10|0,2:2|0:0,0:0:0:0:
360,16,119812,5,2,1:2:0:0:
424,98,119962,2,0,P|360:106|313:120,1,99.0000030212403,2|10,2:2|2:2,0:0:0:0:
313,122,120187,1,2,0:0:0:0:
313,122,120262,1,2,2:2:0:0:
147,19,120412,2,0,P|213:44|222:74,1,99.0000030212403,2|2,1:2|1:2,0:0:0:0:
345,212,120712,2,0,P|392:199|442:194,1,99.0000030212403,10|0,2:2|0:0,0:0:0:0:
458,194,120937,1,0,0:0:0:0:
458,194,121012,6,0,P|451:231|449:256,1,49.5000015106202,12|0,2:2|0:0,0:0:0:0:
352,366,121162,2,0,P|359:329|361:304,1,49.5000015106202,0|0,1:1|1:1,0:0:0:0:
255,221,121312,2,0,P|248:258|246:283,1,49.5000015106202,0|0,1:1|0:0,0:0:0:0:
154,384,121462,1,12,2:2:0:0:
154,384,121762,5,12,2:2:0:0:
3,251,121912,1,8,2:2:0:0:
21,211,121987,1,8,2:2:0:0:
58,187,122062,1,10,2:2:0:0:
102,187,122137,1,8,2:2:0:0:
139,211,122212,6,0,P|132:155|121:111,1,99.0000030212403,4|2,1:2|2:2,0:0:0:0:
194,26,122512,1,10,2:2:0:0:
73,5,122662,1,2,2:2:0:0:
216,131,122812,2,0,P|272:142|327:145,1,99.0000030212403,2|0,1:2|1:1,0:0:0:0:
202,313,123112,2,0,P|150:319|95:350,1,99.0000030212403,8|2,2:2|2:2,0:0:0:0:
95,346,123337,1,2,0:0:0:0:
95,346,123412,1,2,1:2:0:0:
244,240,123562,5,2,2:2:0:0:
327,354,123712,2,0,P|332:296|341:248,1,99.0000030212403,10|2,2:2|2:2,0:0:0:0:
490,104,124012,2,0,B|498:138|516:177|516:177|489:217|489:217|503:247|510:288,1,198.000006042481,2|8,1:2|2:2,0:0:0:0:
424,273,124462,5,2,2:2:0:0:
424,273,124537,1,2,0:0:0:0:
424,273,124612,1,2,1:2:0:0:
336,175,124762,1,2,2:2:0:0:
490,104,124912,1,10,2:2:0:0:
419,45,125062,2,0,P|410:93|406:143,1,99.0000030212403,2|0,2:2|1:1,0:0:0:0:
270,52,125362,1,2,1:2:0:0:
176,98,125512,2,0,P|184:49|188:0,1,99.0000030212403,10|2,2:2|2:2,0:0:0:0:
6,179,125812,6,0,B|37:237|104:226|104:226|137:193,1,148.50000453186,0|0,1:1|0:0,0:0:0:0:
137,191,126112,2,0,P|192:191|245:231,1,99.0000030212403,10|0,2:2|0:0,0:0:0:0:
317,289,126412,1,2,1:2:0:0:
122,372,126562,1,0,1:1:0:0:
122,372,126637,1,0,1:0:0:0:
122,372,126712,1,8,2:2:0:0:
122,372,127012,5,4,1:2:0:0:
59,268,127162,1,2,2:2:0:0:
193,305,127312,1,10,2:2:0:0:
238,112,127462,1,2,2:2:0:0:
317,289,127612,5,2,1:2:0:0:
113,196,127762,1,2,1:2:0:0:
300,384,127912,2,0,P|348:372|399:367,1,99.0000030212403,10|2,2:2|2:2,0:0:0:0:
509,163,128212,6,0,P|489:212|484:268,1,99.0000030212403,2|0,1:2|0:0,0:0:0:0:
384,89,128512,1,10,2:2:0:0:
474,45,128662,1,0,0:0:0:0:
274,116,128812,2,0,P|294:67|299:11,1,99.0000030212403,2|0,1:2|1:1,0:0:0:0:
380,219,129112,2,0,P|300:215|251:263,1,148.50000453186,10|0,2:2|0:0,0:0:0:0:
253,258,129412,5,2,1:2:0:0:
253,258,129712,1,10,2:2:0:0:
157,220,129862,1,2,2:2:0:0:
118,330,130012,1,2,1:2:0:0:
263,260,130162,1,0,1:1:0:0:
220,379,130312,1,10,2:2:0:0:
53,245,130462,1,0,0:0:0:0:
169,124,130612,5,14,2:2:0:0:
169,124,130687,1,8,2:2:0:0:
169,124,130762,2,0,P|158:86|156:61,1,49.5000015106202,8|8,2:2|2:2,0:0:0:0:
23,75,130912,5,2,1:2:0:0:
23,75,130987,1,0,3:3:0:0:
23,75,131062,2,0,P|34:113|36:138,1,49.5000015106202,0|0,3:3|3:3,0:0:0:0:
157,220,131212,6,0,P|217:194|267:202,1,99.0000030212403,2|0,1:2|3:3,0:0:0:0:
267,201,131437,1,0,3:3:0:0:
282,242,131512,1,10,2:2:0:0:
315,271,131587,1,8,2:2:0:0:
358,282,131662,1,8,2:2:0:0:
400,271,131737,1,8,2:2:0:0:
433,241,131812,6,0,P|414:196|416:160,1,67.5,4|0,1:2|0:0,0:0:0:0:
487,129,132112,2,0,P|427:153|344:55,1,188.999994232178,8|2,2:2|0:0,0:0:0:0:
406,14,132412,6,0,P|459:32|513:35,1,99.0000030212403,2|2,1:2|1:2,0:0:0:0:
276,147,132712,1,10,2:2:0:0:
181,85,132862,2,0,B|103:56|49:129|49:129|79:130|95:149,1,198.000006042481,2|2,2:2|2:2,0:0:0:0:
151,246,133312,2,0,P|135:296|131:359,1,99.0000030212403,10|0,2:2|0:0,0:0:0:0:
131,361,133537,1,0,0:0:0:0:
131,361,133612,1,2,1:2:0:0:
45,278,133762,1,0,1:1:0:0:
226,335,133912,2,0,P|275:340|323:351,1,99.0000030212403,10|2,2:2|1:2,0:0:0:0:
480,197,134212,6,0,P|430:191|382:180,1,99.0000030212403,12|0,2:2|1:1,0:0:0:0:
367,173,134437,1,0,1:0:0:0:
337,133,134512,1,10,2:2:0:0:
344,84,134587,1,0,1:0:0:0:
379,48,134662,2,0,P|369:15|368:-3,1,49.5000015106202,0|0,3:3|3:3,0:0:0:0:
454,112,134812,5,10,2:2:0:0:
213,182,134962,1,0,3:3:0:0:
267,91,135112,5,2,3:2:0:0:
308,234,135262,1,0,1:1:0:0:
116,141,135412,6,0,P|183:191|60:353,1,323.999990112305,4|0,1:2|0:0,0:0:0:0:
10,304,136462,2,0,L|0:259,2,26.9999991760254,2|2|4,0:0|0:0|2:2,0:0:0:0:
155,228,137062,5,0,3:3:0:0:
243,366,137362,1,0,3:3:0:0:
243,366,137512,1,0,1:1:0:0:
374,314,137812,5,2,2:2:0:0:
418,85,147412,6,0,P|373:118|292:102,1,125.999996154785,4|0,1:2|0:0,0:0:0:0:
305,111,148012,2,0,P|268:89|227:91,1,62.9999980773926,2|0,1:2|0:0,0:0:0:0:
214,7,148312,2,0,P|176:28|157:64,1,62.9999980773926,2|0,2:2|0:0,0:0:0:0:
125,170,148612,6,0,P|186:161|237:196,1,125.999996154785,2|0,1:2|0:0,0:0:0:0:
237,196,149212,2,0,P|229:232|226:266,1,62.9999980773926,2|2,1:2|2:2,0:0:0:0:
219,336,149512,1,2,2:2:0:0:
54,364,149812,6,0,P|45:289|32:237,2,125.999996154785,2|2|2,1:2|2:2|1:2,0:0:0:0:
154,254,150712,1,2,2:2:0:0:
340,299,151012,2,0,P|331:224|318:172,1,125.999996154785,2|2,1:2|0:0,0:0:0:0:
313,159,151387,1,2,0:0:0:0:
313,159,151462,1,2,0:0:0:0:
427,217,151612,1,0,1:1:0:0:
490,98,151912,2,0,P|451:87|424:74,1,62.9999980773926,2|0,2:2|0:0,0:0:0:0:
347,3,152212,6,0,P|291:40|224:29,1,125.999996154785,2|2,1:2|2:2,0:0:0:0:
110,154,152812,2,0,P|171:149|222:185,1,125.999996154785,2|2,1:2|2:2,0:0:0:0:
233,261,153262,1,0,0:0:0:0:
133,356,153412,2,0,P|65:366|-4:384,2,125.999996154785,2|2|2,1:2|2:2|1:2,0:0:0:0:
233,261,154312,1,2,2:2:0:0:
331,375,154612,6,0,P|399:365|463:348,1,121.499996292114,4|0,1:2|0:0,0:0:0:0:
474,345,154912,1,0,1:1:0:0:
361,273,155062,1,0,3:3:0:0:
361,273,155137,1,0,3:3:0:0:
361,273,155212,2,0,P|371:228|374:184,1,80.9999975280763,0|0,1:1|3:3,0:0:0:0:
510,112,155512,1,0,1:1:0:0:
462,216,155662,1,0,3:3:0:0:
317,67,155812,6,0,P|365:88|418:89,1,80.9999975280763,12|0,2:2|1:1,0:0:0:0:
229,3,156112,1,2,1:2:0:0:
229,200,156262,6,0,P|214:162|211:122,1,80.9999975280763,2|2,3:2|1:2,0:0:0:0:
229,3,156562,1,0,1:1:0:0:
107,51,156712,6,0,P|73:73|48:104,1,80.9999975280763,2|0,3:2|1:1,0:0:0:0:
41,122,156937,1,0,1:1:0:0:
41,122,157012,5,12,2:2:0:0:
41,122,157312,1,0,1:1:0:0:
127,178,157462,1,8,2:2:0:0:
109,279,157612,1,0,3:3:0:0:
229,200,157762,1,8,2:2:0:0:
10,255,157912,2,0,P|27:314|32:370,1,90,8|8,2:2|2:2,0:0:0:0:
254,382,158212,5,10,2:2:0:0:
254,382,158287,1,0,3:3:0:0:
254,382,158362,2,0,L|262:333,1,45,0|0,3:3|3:3,0:0:0:0:
321,273,158512,2,0,P|365:302|419:299,1,90,0|0,1:1|1:1,0:0:0:0:
472,266,158737,1,0,1:1:0:0:
477,256,158812,2,0,L|469:207,1,45,8|0,2:2|0:0,0:0:0:0:
507,98,158962,5,8,2:2:0:0:
476,124,159037,1,8,2:2:0:0:
438,135,159112,1,8,2:2:0:0:
398,130,159187,1,8,2:2:0:0:
364,108,159262,1,8,2:2:0:0:
342,74,159337,1,8,2:2:0:0:
337,34,159412,6,0,P|286:32|231:18,1,90,4|2,1:2|2:2,0:0:0:0:
138,30,159712,1,10,2:2:0:0:
198,121,159862,1,2,2:2:0:0:
77,198,160012,2,0,P|128:200|183:214,1,90,2|2,1:2|1:2,0:0:0:0:
324,269,160312,2,0,P|324:323|305:353,1,90,10|2,2:2|2:2,0:0:0:0:
299,369,160537,1,2,2:2:0:0:
299,369,160612,5,2,1:2:0:0:
420,256,160762,1,2,2:2:0:0:
277,169,160912,1,10,2:2:0:0:
324,269,161062,1,2,2:2:0:0:
456,150,161212,2,0,P|460:96|473:55,1,90,2|2,1:2|1:2,0:0:0:0:
366,194,161512,1,10,2:2:0:0:
190,114,161662,6,0,P|125:88|51:180,1,180,2|2,2:2|2:2,0:0:0:0:
4,295,162112,2,0,P|62:279|106:278,1,90,10|2,2:2|2:2,0:0:0:0:
109,278,162337,1,2,0:0:0:0:
109,278,162412,2,0,P|113:322|126:365,1,90,2|0,1:2|1:1,0:0:0:0:
271,248,162712,2,0,B|282:195|282:195|269:165|269:165|282:114,1,135,10|0,2:2|0:0,0:0:0:0:
288,95,163012,5,2,1:2:0:0:
180,198,163162,1,2,2:2:0:0:
367,149,163312,2,0,P|420:136|486:129,1,90,10|2,2:2|2:2,0:0:0:0:
324,326,163612,1,2,1:2:0:0:
463,251,163762,2,0,P|448:304|442:358,1,90,2|8,1:2|2:2,0:0:0:0:
440,357,163987,1,8,2:2:0:0:
397,372,164062,1,8,2:2:0:0:
353,361,164137,1,8,2:2:0:0:
324,326,164212,6,0,P|295:333|266:337,2,45,4|2|2,1:2|2:2|2:2,0:0:0:0:
371,268,164437,1,2,2:2:0:0:
377,261,164512,2,0,P|363:203|358:151,1,90,10|2,2:2|2:2,0:0:0:0:
185,48,164812,6,0,P|214:41|243:37,2,45,2|2|0,1:2|2:2|1:1,0:0:0:0:
138,106,165037,1,2,2:2:0:0:
132,113,165112,2,0,P|146:171|151:223,1,90,10|2,2:2|2:2,0:0:0:0:
82,339,165412,5,2,1:2:0:0:
82,339,165487,1,2,2:2:0:0:
82,339,165562,1,2,2:2:0:0:
45,230,165712,1,10,2:2:0:0:
149,201,165862,1,2,2:2:0:0:
242,376,166012,2,0,P|298:335|267:214,1,180,0|8,1:1|2:2,0:0:0:0:
378,100,166462,5,0,1:1:0:0:
378,100,166537,1,0,1:1:0:0:
378,100,166612,2,0,P|430:116|483:113,1,90,14|0,2:2|1:1,0:0:0:0:
292,1,166912,1,8,2:2:0:0:
230,174,167062,1,2,1:2:0:0:
230,174,167137,1,0,1:2:0:0:
230,174,167212,1,10,2:2:0:0:
184,78,167362,5,0,1:1:0:0:
328,175,167512,1,10,2:2:0:0:
153,287,167662,2,0,P|108:294|65:309,1,90,2|12,1:2|2:2,0:0:0:0:
51,319,167887,1,8,2:2:0:0:
51,319,167962,2,0,P|60:348|63:372,1,45,10|8,2:2|2:2,0:0:0:0:
137,209,168112,5,8,2:2:0:0:
159,171,168187,1,0,3:3:0:0:
157,126,168262,1,2,3:2:0:0:
130,91,168337,1,0,3:3:0:0:
88,78,168412,2,0,P|76:42|75:15,1,45,2|0,1:2|3:3,0:0:0:0:
30,157,168562,5,0,3:3:0:0:
243,96,168712,2,0,P|288:89|331:74,1,90,2|2,1:2|1:2,0:0:0:0:
348,70,168937,1,0,1:1:0:0:
348,70,169012,6,0,P|335:135|328:218,1,121.499996292114,4|0,1:2|0:0,0:0:0:0:
329,189,169312,2,0,P|365:193|388:198,1,40.4999987640381,8|0,2:2|0:0,0:0:0:0:
428,137,169462,2,0,P|464:140|486:145,1,40.4999987640381,10|0,2:2|0:0,0:0:0:0:
512,212,169612,2,0,P|499:277|492:360,1,121.499996292114,2|0,1:2|0:0,0:0:0:0:
493,331,169912,1,10,2:2:0:0:
287,250,170212,5,2,1:2:0:0:
204,268,170362,1,2,2:2:0:0:
197,353,170512,1,8,2:2:0:0:
277,384,170662,1,10,2:2:0:0:
329,323,170812,1,2,1:2:0:0:
329,323,170962,1,0,1:1:0:0:
287,250,171112,1,10,2:2:0:0:
166,17,171412,6,0,P|179:82|186:165,1,121.499996292114,2|0,1:2|0:0,0:0:0:0:
184,136,171712,2,0,P|147:139|125:144,1,40.4999987640381,8|0,2:2|0:0,0:0:0:0:
86,84,171862,2,0,P|49:87|27:92,1,40.4999987640381,10|0,2:2|0:0,0:0:0:0:
2,159,172012,2,0,P|15:224|22:307,1,121.499996292114,2|0,1:2|0:0,0:0:0:0:
21,278,172312,1,10,2:2:0:0:
287,250,172612,5,2,1:2:0:0:
329,323,172762,1,2,2:2:0:0:
277,384,172912,1,10,2:2:0:0:
197,353,173062,1,10,2:2:0:0:
204,268,173212,1,2,1:2:0:0:
204,268,173362,1,0,1:1:0:0:
287,250,173512,1,10,2:2:0:0:
191,70,173662,5,2,1:2:0:0:
191,70,173737,1,0,1:1:0:0:
191,70,173812,2,0,P|112:113|52:96,1,135,12|0,2:2|0:0,0:0:0:0:
60,103,174112,2,0,P|72:56|75:8,1,90,10|2,2:2|1:2,0:0:0:0:
219,179,174412,2,0,P|207:226|204:274,1,90,10|0,2:2|1:1,0:0:0:0:
105,196,174712,1,10,2:2:0:0:
310,106,174862,5,2,1:2:0:0:
310,106,174937,1,0,1:1:0:0:
310,106,175012,2,0,P|389:63|449:80,1,135,14|0,2:2|1:1,0:0:0:0:
449,79,175312,2,0,P|437:126|434:174,1,90,14|2,2:2|2:2,0:0:0:0:
512,329,175612,5,10,2:2:0:0:
474,304,175687,1,8,2:2:0:0:
430,305,175762,1,8,2:2:0:0:
394,331,175837,1,8,2:2:0:0:
378,372,175912,2,0,P|352:364|327:362,1,45,10|8,2:2|2:2,0:0:0:0:
242,220,176062,2,0,P|264:216|285:209,1,45,10|8,2:2|2:2,0:0:0:0:
240,382,176212,6,0,P|170:283|1:343,1,323.999990112305,4|0,1:2|0:0,0:0:0:0:
63,179,177262,5,0,1:1:0:0:
63,179,177337,1,0,1:1:0:0:
63,179,177412,1,12,2:2:0:0:
63,179,177712,5,0,3:3:0:0:
10,64,177862,1,0,3:3:0:0:
167,0,178012,1,0,3:3:0:0:
133,133,178162,1,8,2:2:0:0:
274,162,178312,1,8,2:2:0:0:
90,49,178462,1,8,2:2:0:0:
138,269,178612,5,10,2:2:0:0:
138,269,178687,1,0,3:3:0:0:
138,269,178762,2,0,P|132:307|130:327,1,49.5000015106202,0|0,3:3|3:3,0:0:0:0:
280,336,178912,5,2,1:2:0:0:
280,336,178987,1,0,3:3:0:0:
280,336,179062,2,0,P|274:374|272:394,1,49.5000015106202,0|0,3:3|3:3,0:0:0:0:
442,236,179212,6,0,P|432:294|427:342,1,99.0000030212403,6|8,1:2|2:2,0:0:0:0:
422,343,179437,1,8,2:2:0:0:
379,331,179512,1,8,2:2:0:0:
347,301,179587,1,0,3:3:0:0:
329,254,179662,1,0,3:3:0:0:
340,205,179737,1,0,3:3:0:0:
378,166,179812,1,4,1:2:0:0:
492,83,184612,6,0,P|458:33|355:50,1,161.999995056153,4|0,1:2|0:0,0:0:0:0:
320,142,185212,2,0,B|340:223|340:223|306:261|264:245,1,161.999995056153,4|0,1:2|0:0,0:0:0:0:
169,171,185812,2,0,P|180:109|186:58,1,107.999996704102,4|0,1:2|0:0,0:0:0:0:
185,64,186262,1,2,0:0:0:0:
70,133,186412,2,0,P|77:170|81:195,1,53.9999983520508,4|0,1:2|0:0,0:0:0:0:
122,264,186712,2,0,P|159:257|184:253,1,53.9999983520508,2|0,0:0|0:0,0:0:0:0:
360,289,187012,5,4,1:2:0:0:
267,374,187162,1,8,2:2:0:0:
267,374,187237,1,8,2:2:0:0:
267,374,187312,2,0,P|261:330|253:302,1,53.9999983520508,0|0,3:3|3:3,0:0:0:0:
450,241,187462,2,0,P|456:285|464:313,1,53.9999983520508,0|0,3:3|3:3,0:0:0:0:
329,209,187612,5,0,1:1:0:0:
307,170,187687,1,0,0:0:0:0:
308,127,187762,1,0,1:1:0:0:
334,91,187837,1,0,0:0:0:0:
375,75,187912,2,0,P|411:85|444:89,1,53.9999983520508,0|0,1:1|1:1,0:0:0:0:
510,148,188062,5,0,1:1:0:0:
510,148,188137,1,0,1:1:0:0:
510,148,188212,1,14,2:2:0:0:
329,209,188362,1,10,2:2:0:0:
412,0,188512,1,10,2:2:0:0:
231,61,188662,1,14,2:2:0:0:
231,61,188962,1,4,1:2:0:0:
76,0,189112,5,8,2:2:0:0:
103,33,189187,1,8,2:2:0:0:
105,77,189262,1,10,2:2:0:0:
79,112,189337,1,8,2:2:0:0:
37,124,189412,2,0,P|15:181|25:237,1,99.0000030212403,4|2,1:2|2:2,0:0:0:0:
191,259,189712,1,10,2:2:0:0:
114,200,189862,1,2,2:2:0:0:
56,366,190012,6,0,P|118:354|165:348,1,99.0000030212403,2|0,1:2|1:1,0:0:0:0:
311,151,190312,2,0,P|249:163|202:169,1,99.0000030212403,8|2,2:2|2:2,0:0:0:0:
197,172,190537,1,2,0:0:0:0:
197,172,190612,1,2,1:2:0:0:
296,250,190762,1,2,2:2:0:0:
400,91,190912,2,0,P|401:148|418:200,1,99.0000030212403,10|2,2:2|2:2,0:0:0:0:
512,362,191212,2,0,P|451:297|357:334,1,198.000006042481,2|8,1:2|2:2,0:0:0:0:
251,384,191662,5,2,2:2:0:0:
251,384,191737,1,2,0:0:0:0:
251,384,191812,1,2,1:2:0:0:
223,278,191962,1,2,2:2:0:0:
197,172,192112,1,10,2:2:0:0:
38,224,192262,2,0,P|94:231|140:240,1,99.0000030212403,2|0,2:2|1:1,0:0:0:0:
256,77,192562,1,2,1:2:0:0:
197,172,192712,1,10,2:2:0:0:
82,0,192862,6,0,B|74:26|74:26|91:80|98:156,1,148.50000453186,2|0,2:2|0:0,0:0:0:0:
100,156,193162,1,2,2:2:0:0:
256,77,193312,2,0,P|304:86|353:92,1,99.0000030212403,10|0,2:2|0:0,0:0:0:0:
437,40,193612,1,2,1:2:0:0:
315,206,193762,1,0,1:1:0:0:
315,206,193837,1,0,1:0:0:0:
315,206,193912,1,8,2:2:0:0:
315,206,194212,5,4,1:2:0:0:
453,165,194362,1,2,2:2:0:0:
411,279,194512,1,10,2:2:0:0:
353,86,194662,1,2,2:2:0:0:
239,230,194812,5,2,1:2:0:0:
453,165,194962,1,2,1:2:0:0:
230,232,195112,2,0,P|249:288|245:343,1,99.0000030212403,10|2,2:2|2:2,0:0:0:0:
14,218,195412,6,0,P|26:165|33:114,1,99.0000030212403,2|0,1:2|0:0,0:0:0:0:
10,29,195712,1,10,2:2:0:0:
118,123,195862,1,0,0:0:0:0:
251,12,196012,2,0,P|239:65|232:116,1,99.0000030212403,2|0,1:2|1:1,0:0:0:0:
105,238,196312,2,0,B|156:186|208:206|208:206|236:239,1,148.50000453186,10|0,2:2|0:0,0:0:0:0:
241,247,196612,5,2,1:2:0:0:
359,384,196762,1,2,2:2:0:0:
420,297,196912,2,0,P|369:298|304:311,1,99.0000030212403,10|2,2:2|2:2,0:0:0:0:
370,71,197212,2,0,P|433:55|497:104,1,148.50000453186,2|0,1:2|0:0,0:0:0:0:
503,120,197512,1,10,2:2:0:0:
335,210,197662,1,2,1:2:0:0:
420,297,197812,2,0,P|426:230|441:173,1,99.0000030212403,14|8,2:2|2:2,0:0:0:0:
281,36,198112,5,2,1:2:0:0:
265,76,198187,1,0,3:3:0:0:
229,101,198262,1,0,3:3:0:0:
185,102,198337,1,0,3:3:0:0:
148,78,198412,2,0,P|154:48|155:23,1,49.5000015106202,2|0,1:2|3:3,0:0:0:0:
12,94,198562,2,0,P|48:97|70:107,1,49.5000015106202,0|0,3:3|3:3,0:0:0:0:
146,189,198712,5,10,2:2:0:0:
105,172,198787,1,8,2:2:0:0:
64,188,198862,1,8,2:2:0:0:
48,228,198937,1,8,2:2:0:0:
63,268,199012,2,0,P|120:275|164:285,1,99.0000030212403,4|2,1:2|2:2,0:0:0:0:
355,214,199312,2,0,P|298:207|254:197,1,99.0000030212403,8|2,2:2|2:2,0:0:0:0:
245,196,199537,1,2,0:0:0:0:
245,196,199612,1,2,1:2:0:0:
260,368,199762,2,0,P|317:375|361:385,1,99.0000030212403,2|10,1:2|2:2,0:0:0:0:
463,147,200062,6,0,P|526:214|485:298,1,198.000006042481,2|2,2:2|2:2,0:0:0:0:
355,214,200512,2,0,P|374:162|374:107,1,99.0000030212403,10|0,2:2|0:0,0:0:0:0:
375,100,200737,1,0,0:0:0:0:
375,100,200812,1,2,1:2:0:0:
268,163,200962,1,0,1:1:0:0:
389,305,201112,2,0,P|340:294|291:288,1,99.0000030212403,10|2,2:2|0:0,0:0:0:0:
168,164,201412,6,0,P|120:204|27:184,1,148.50000453186,2|0,1:2|0:0,0:0:0:0:
22,184,201712,2,0,P|16:134|5:86,1,99.0000030212403,10|0,0:0|0:0,0:0:0:0:
190,5,202012,5,2,1:2:0:0:
190,5,202087,1,0,0:0:0:0:
190,5,202162,2,0,P|196:43|202:66,1,49.5000015106202,8|8,2:2|2:2,0:0:0:0:
268,163,202312,1,10,2:2:0:0:
262,202,202387,1,8,2:2:0:0:
256,241,202462,1,8,2:2:0:0:
250,280,202537,1,8,2:2:0:0:
244,319,202612,6,0,P|294:348|355:336,1,99.0000030212403,4|0,1:2|0:0,0:0:0:0:
483,225,202912,2,0,P|429:234|377:243,1,99.0000030212403,10|2,2:2|2:2,0:0:0:0:
370,246,203137,1,2,0:0:0:0:
370,246,203212,1,2,1:2:0:0:
452,135,203362,2,0,P|479:90|463:35,1,99.0000030212403,2|10,1:2|2:2,0:0:0:0:
268,52,203662,6,0,B|292:145|292:145|251:199|186:165,1,198.000006042481,2|2,2:2|2:2,0:0:0:0:
126,97,204112,2,0,P|139:43|144:-16,1,99.0000030212403,10|0,2:2|0:0,0:0:0:0:
0,169,204412,2,0,P|56:176|94:200,1,99.0000030212403,2|0,1:2|1:1,0:0:0:0:
160,280,204712,1,10,2:2:0:0:
56,332,204862,1,2,2:2:0:0:
202,172,205012,5,4,1:2:0:0:
289,369,205162,1,8,2:2:0:0:
356,271,205312,2,0,P|309:283|246:290,1,99.0000030212403,10|0,2:2|3:3,0:0:0:0:
247,290,205537,1,0,3:3:0:0:
247,290,205612,2,0,P|243:255|239:237,1,49.5000015106202,2|0,1:2|3:3,0:0:0:0:
293,81,205762,2,0,P|297:116|301:134,1,49.5000015106202,0|0,3:3|3:3,0:0:0:0:
399,203,205912,5,2,1:2:0:0:
440,217,205987,1,0,1:1:0:0:
482,206,206062,1,0,1:1:0:0:
509,172,206137,1,0,1:1:0:0:
512,128,206212,1,12,2:2:0:0:
293,81,206362,1,2,1:2:0:0:
403,8,206512,6,0,P|390:69|385:121,1,99.0000030212403,10|2,2:2|1:2,0:0:0:0:
387,124,206737,1,0,1:1:0:0:
387,124,206812,1,10,2:2:0:0:
286,0,206962,1,2,1:2:0:0:
147,142,207112,2,0,P|160:81|165:29,1,99.0000030212403,10|2,2:2|1:2,0:0:0:0:
264,198,207412,5,8,2:2:0:0:
60,238,207562,1,2,1:2:0:0:
60,238,207637,1,0,1:1:0:0:
60,238,207712,1,10,2:2:0:0:
147,142,207862,1,0,1:1:0:0:
126,341,208012,6,0,P|78:356|15:366,1,99.0000030212403,10|0,2:2|1:1,0:0:0:0:
17,371,208237,1,0,1:0:0:0:
17,371,208312,1,10,2:2:0:0:
140,246,208462,1,2,1:2:0:0:
252,375,208612,6,0,P|300:360|363:350,1,99.0000030212403,10|0,2:2|1:1,0:0:0:0:
499,252,208912,2,0,P|521:310|494:352,1,99.0000030212403,14|0,2:2|1:1,0:0:0:0:
357,265,209212,1,10,2:2:0:0:
333,227,209287,1,8,2:2:0:0:
333,183,209362,1,8,2:2:0:0:
357,147,209437,1,8,2:2:0:0:
397,129,209512,2,0,P|436:140|456:142,1,49.5000015106202,10|8,2:2|2:2,0:0:0:0:
501,55,209662,5,8,2:2:0:0:
501,55,209737,1,8,2:2:0:0:
501,55,209812,2,0,P|436:-3|318:39,1,216,4|0,1:2|1:1,0:0:0:0:
319,51,210337,1,0,1:1:0:0:
319,51,210412,1,12,2:2:0:0:
143,140,210562,5,12,2:2:0:0:
143,140,210637,1,0,0:0:0:0:
143,140,210712,2,0,P|133:101|126:81,1,45,8|8,2:2|2:2,0:0:0:0:
226,15,210862,2,0,P|236:54|243:74,1,45,10|8,2:2|2:2,0:0:0:0:
273,173,211012,6,0,P|260:240|256:281,1,90,4|2,1:2|2:2,0:0:0:0:
248,348,211312,1,10,2:2:0:0:
347,285,211462,1,2,2:2:0:0:
172,236,211612,2,0,B|133:229|107:223|107:223|60:251|60:251|30:241|-4:239,1,180,2|8,1:2|2:2,0:0:0:0:
33,166,212062,5,2,2:2:0:0:
33,166,212137,1,2,0:0:0:0:
33,166,212212,1,2,1:2:0:0:
165,106,212362,1,2,2:2:0:0:
89,0,212512,2,0,P|70:43|81:91,1,90,10|2,2:2|2:2,0:0:0:0:
273,173,212812,2,0,B|324:111|392:136|392:136|404:166|436:186,1,180,2|8,1:2|2:2,0:0:0:0:
502,216,213262,5,2,2:2:0:0:
361,266,213412,1,2,1:2:0:0:
361,266,213562,1,2,2:2:0:0:
486,362,213712,1,10,2:2:0:0:
311,358,213862,2,0,P|368:346|406:338,1,90,2|0,2:2|1:1,0:0:0:0:
266,239,214162,1,2,1:2:0:0:
201,335,214312,1,10,2:2:0:0:
101,280,214462,6,0,P|44:292|6:300,1,90,2|0,2:2|1:1,0:0:0:0:
12,298,214762,1,2,2:2:0:0:
163,137,214912,2,0,P|189:190|180:231,1,90,10|0,2:2|0:0,0:0:0:0:
31,137,215212,2,0,P|41:88|45:39,1,90,2|0,1:2|1:1,0:0:0:0:
221,2,215512,2,0,P|268:39|354:16,1,135,8|2,2:2|2:2,0:0:0:0:
356,21,215812,6,0,B|393:114|317:108|350:207,2,180,4|8|0,1:2|2:2|1:1,0:0:0:0:
268,112,216562,1,0,1:1:0:0:
424,154,216712,2,0,P|477:141|530:134,1,90,8|0,2:2|0:0,0:0:0:0:
395,277,217012,5,2,1:2:0:0:
265,216,217162,1,2,2:2:0:0:
402,281,217312,1,10,2:2:0:0:
304,378,217462,2,0,P|309:319|318:270,1,90,2|0,2:2|1:1,0:0:0:0:
185,155,217762,1,2,1:2:0:0:
185,155,217837,1,0,1:0:0:0:
185,155,217912,2,0,P|180:214|171:263,1,90,10|0,2:2|0:0,0:0:0:0:
56,383,218212,6,0,P|-8:323|21:230,1,180,4|10,1:2|2:2,0:0:0:0:
64,146,218662,1,2,1:2:0:0:
174,244,218812,1,8,2:2:0:0:
174,244,218962,1,2,1:2:0:0:
243,41,219112,2,0,P|200:53|153:58,1,90,10|2,2:2|1:2,0:0:0:0:
366,170,219412,5,8,2:2:0:0:
420,42,219562,1,2,1:2:0:0:
258,164,219712,2,0,P|277:228|278:259,1,90,14|0,2:2|1:0,0:0:0:0:
284,273,219937,1,0,1:0:0:0:
284,273,220012,1,10,2:2:0:0:
463,185,220162,5,8,2:2:0:0:
493,212,220237,1,8,2:2:0:0:
508,249,220312,1,10,2:2:0:0:
508,290,220387,1,8,2:2:0:0:
491,326,220462,1,8,2:2:0:0:
460,352,220537,1,8,2:2:0:0:
423,364,220612,6,0,P|358:298|202:360,1,269.999991760254,4|0,1:2|0:0,0:0:0:0:
59,330,221662,1,0,1:1:0:0:
59,330,221737,1,0,1:1:0:0:
59,330,221812,2,0,P|44:273|33:242,1,80.9999975280763,12|0,2:2|3:3,0:0:0:0:
30,238,222037,1,0,3:3:0:0:
30,238,222112,2,0,P|61:230|79:224,1,40.4999987640381,0|8,1:1|2:2,0:0:0:0:
208,234,222262,2,0,P|177:242|159:248,1,40.4999987640381,8|0,2:2|3:3,0:0:0:0:
133,155,222412,5,8,2:2:0:0:
104,134,222487,1,8,2:2:0:0:
86,102,222562,1,0,3:3:0:0:
84,66,222637,1,0,3:3:0:0:
98,33,222712,2,0,P|143:32|179:22,1,80.9999975280763,0|0,1:1|1:1,0:0:0:0:
270,17,222937,5,0,1:1:0:0:
270,17,223012,2,0,B|324:111|237:191|186:143|221:91|286:100,1,215.999993408203,4|0,1:2|0:0,0:0:0:0:
