osu file format v14

[General]
AudioFilename: audio.mp3
AudioLeadIn: 0
PreviewTime: 49008
Countdown: 0
SampleSet: Soft
StackLeniency: 0.7
Mode: 3
LetterboxInBreaks: 0
SpecialStyle: 0
WidescreenStoryboard: 0

[Editor]
DistanceSpacing: 0.6
BeatDivisor: 4
GridSize: 16
TimelineZoom: 2.399999

[Metadata]
Title:Heroine wa Heikin Ika. (Cut Ver.)
TitleUnicode:ヒロインは平均以下。 (Cut Ver.)
Artist:HoneyWorks feat. Minato Aqua
ArtistUnicode:HoneyWorks feat. 湊あくあ
Creator:Rivals_7
Version:Ere the Flowers Bloom
Source:告白実行委員会
Tags:achsanlovers sherly drum-hitnormal dudehacker Crisper Confession Executive Committee 涼海ひより suzumi hiyori gom shito 告白実行委員会 -FLYING SONGS- 恋してる Kokuhaku Jikkou Iinkai FLYING SONGS: Koishiteru hololive ホロライブ japanese pop jpop virtual youtuber vtuber j-pop
BeatmapID:3912455
BeatmapSetID:1898243

[Difficulty]
HPDrainRate:8
CircleSize:4
OverallDifficulty:8.5
ApproachRate:5
SliderMultiplier:1.4
SliderTickRate:1

[Events]
//Background and Video events
0,0,"lysherze.jpg",0,0
//Break Periods
//Storyboard Layer 0 (Background)
//Storyboard Layer 1 (Fail)
//Storyboard Layer 2 (Pass)
//Storyboard Layer 3 (Foreground)
//Storyboard Layer 4 (Overlay)
//Storyboard Sound Samples

[TimingPoints]
1064,300,4,2,1,60,1,0
49064,-100,4,2,1,60,0,1
79064,-100,4,2,1,60,0,0

[HitObjects]
64,192,1064,5,0,0:0:0:0:
448,192,1064,1,4,0:0:0:0:
320,192,1064,128,2,1214:0:0:0:0:
192,192,1214,128,0,1514:0:0:0:0:
64,192,1364,128,0,1664:0:0:0:0:
320,192,1514,128,0,1814:0:0:0:0:
448,192,1664,128,0,1814:0:0:0:0:
64,192,1814,1,2,0:0:0:0:
192,192,1814,1,0,0:0:0:0:
64,192,1964,1,8,0:0:0:0:
192,192,1964,1,0,0:0:0:0:
448,192,1964,1,0,0:0:0:0:
320,192,2114,128,0,2264:0:0:0:0:
64,192,2264,1,2,0:0:0:0:
192,192,2264,128,4,2564:0:0:0:0:
448,192,2264,1,0,0:0:0:0:
64,192,2414,128,0,2564:0:0:0:0:
448,192,2564,128,0,2864:0:0:0:0:
192,192,2714,128,0,3014:0:0:0:70:Tom1.wav
320,192,2714,128,0,2864:0:0:0:0:
64,192,2864,128,0,3014:0:0:0:0:
320,192,3014,1,0,0:0:0:70:Tom2.wav
448,192,3014,1,0,0:0:0:0:
320,192,3164,1,0,0:0:0:70:Tom2.wav
448,192,3164,1,0,0:0:0:0:
192,192,3314,128,0,3464:0:0:0:0:
64,192,3464,1,2,0:0:0:0:
320,192,3464,1,4,0:0:0:0:
448,192,3464,128,0,3614:0:0:0:0:
64,192,3614,128,0,3764:0:0:0:0:
192,192,3764,128,0,3914:0:0:0:70:Tom1.wav
448,192,3764,1,0,0:0:0:0:
448,192,3914,128,0,4214:0:0:0:0:
64,192,4064,128,0,4214:0:0:0:70:Tom2.wav
192,192,4214,128,0,4514:0:0:0:70:Tom2.wav
320,192,4214,1,0,0:0:0:0:
64,192,4364,1,0,0:0:0:70:Tom2.wav
448,192,4364,1,0,0:0:0:0:
448,192,4514,128,0,4664:0:0:0:0:
64,192,4664,1,2,0:0:0:0:
192,192,4664,1,4,0:0:0:0:
320,192,4664,1,0,0:0:0:0:
64,192,4814,128,0,5114:0:0:0:0:
192,192,4964,128,0,5114:0:0:0:0:
192,192,5264,128,0,5414:0:0:0:0:
448,192,5264,128,0,5414:0:0:0:0:
320,192,5414,1,0,0:0:0:0:
448,192,5564,1,0,0:0:0:0:
192,192,5714,1,0,0:0:0:0:
64,192,5864,1,2,0:0:0:0:
320,192,5864,1,4,0:0:0:0:
448,192,5864,1,0,0:0:0:0:
192,192,6014,1,0,0:0:0:0:
320,192,6014,1,0,0:0:0:0:
64,192,6164,1,2,0:0:0:0:
192,192,6164,1,0,0:0:0:0:
448,192,6164,1,0,0:0:0:0:
64,192,6314,1,2,0:0:0:0:
192,192,6314,1,0,0:0:0:0:
448,192,6314,1,8,0:0:0:0:
64,192,6464,1,2,0:0:0:0:
192,192,6464,1,0,0:0:0:0:
320,192,6464,1,8,0:0:0:0:
64,192,6614,1,2,0:0:0:0:
192,192,6614,1,0,0:0:0:0:
320,192,6614,1,8,0:0:0:0:
64,192,6764,1,2,0:0:0:0:
320,192,6764,1,8,0:0:0:0:
448,192,6764,1,0,0:0:0:0:
64,192,6914,1,2,0:0:0:0:
320,192,6914,1,8,0:0:0:0:
448,192,6914,1,0,0:0:0:0:
192,192,7064,1,2,0:0:0:0:
320,192,7064,1,8,0:0:0:0:
448,192,7064,1,0,0:0:0:0:
192,192,7214,1,2,0:0:0:0:
320,192,7214,1,8,0:0:0:0:
448,192,7214,1,0,0:0:0:0:
64,192,7364,1,2,0:0:0:0:
192,192,7364,1,0,0:0:0:0:
448,192,7364,1,0,0:0:0:0:
64,192,7514,1,8,0:0:0:0:
192,192,7514,1,0,0:0:0:0:
448,192,7514,1,0,0:0:0:0:
64,192,7664,1,8,0:0:0:0:
192,192,7664,1,0,0:0:0:0:
320,192,7664,1,0,0:0:0:0:
320,192,7814,1,8,0:0:0:0:
448,192,7814,1,0,0:0:0:0:
64,192,7889,1,8,0:0:0:0:
192,192,7889,1,0,0:0:0:0:
320,192,7964,1,8,0:0:0:0:
448,192,7964,1,0,0:0:0:0:
320,192,8039,1,8,0:0:0:0:
448,192,8039,1,0,0:0:0:0:
64,192,8114,1,8,0:0:0:0:
192,192,8114,1,0,0:0:0:0:
64,192,8189,1,8,0:0:0:0:
192,192,8189,1,0,0:0:0:0:
320,192,9314,128,0,9464:0:0:0:0:
64,192,9464,128,2,9614:0:0:0:0:
192,192,9464,1,4,0:0:0:0:
448,192,9464,128,0,9764:0:0:0:0:
320,192,9614,128,0,9914:0:0:0:0:
64,192,9764,128,8,10064:0:0:0:0:
192,192,9764,128,0,9914:0:0:0:0:
448,192,9914,128,0,10064:0:0:0:0:
192,192,10064,1,2,0:0:0:0:
320,192,10064,128,0,10214:0:0:0:0:
64,192,10214,1,2,0:0:0:0:
448,192,10214,1,0,0:0:0:0:
64,192,10364,1,8,0:0:0:0:
192,192,10364,1,0,0:0:0:0:
448,192,10364,1,0,0:0:0:0:
320,192,10514,128,0,10664:0:0:0:0:
64,192,10664,128,2,10964:0:0:0:0:
192,192,10664,128,0,10814:0:0:0:0:
448,192,10814,128,0,10964:0:0:0:0:
192,192,10964,128,8,11114:0:0:0:0:
320,192,10964,128,0,11264:0:0:0:0:
448,192,11114,128,0,11264:0:0:0:0:
64,192,11264,128,2,11564:0:0:0:0:
192,192,11264,128,0,11414:0:0:0:0:
320,192,11414,1,2,0:0:0:0:
448,192,11414,1,0,0:0:0:0:
192,192,11564,1,8,0:0:0:0:
320,192,11564,1,0,0:0:0:0:
448,192,11564,1,0,0:0:0:0:
64,192,11714,128,0,11864:0:0:0:0:
192,192,11864,128,2,12014:0:0:0:0:
448,192,11864,128,0,12164:0:0:0:0:
320,192,12014,128,0,12314:0:0:0:0:
64,192,12164,128,8,12314:0:0:0:0:
192,192,12164,128,0,12314:0:0:0:0:
448,192,12314,128,0,12464:0:0:0:0:
64,192,12464,1,2,0:0:0:0:
192,192,12464,1,0,0:0:0:0:
64,192,12614,128,2,12914:0:0:0:0:
320,192,12614,128,0,12764:0:0:0:0:
192,192,12764,128,8,12914:0:0:0:0:
448,192,12764,128,0,13064:0:0:0:0:
320,192,12914,128,0,13064:0:0:0:0:
64,192,13064,128,2,13139:0:0:0:0:
192,192,13064,1,0,0:0:0:0:
64,192,13214,128,0,13289:0:0:0:0:
64,192,13364,1,8,0:0:0:0:
320,192,13364,1,0,0:0:0:0:
448,192,13364,128,0,13514:0:0:0:0:
192,192,13514,1,0,0:0:0:0:
64,192,13664,128,2,13814:0:0:0:0:
448,192,13664,128,0,13964:0:0:0:0:
192,192,13814,1,2,0:0:0:0:
320,192,13814,128,0,13964:0:0:0:0:
64,192,13964,1,8,0:0:0:0:
192,192,13964,1,0,0:0:0:0:
320,192,14039,1,8,0:0:0:0:
448,192,14039,1,0,0:0:0:0:
64,192,14114,1,8,0:0:0:0:
192,192,14114,1,0,0:0:0:0:
320,192,14189,1,8,0:0:0:0:
64,192,14264,1,2,0:0:0:0:
448,192,14264,128,4,15314:0:0:0:0:
64,192,14564,128,8,14714:0:0:0:0:
320,192,14564,1,0,0:0:0:0:
320,192,14714,1,0,0:0:0:0:
64,192,14864,1,2,0:0:0:0:
192,192,14864,1,0,0:0:0:0:
64,192,15014,1,2,0:0:0:0:
192,192,15014,1,0,0:0:0:0:
64,192,15164,1,8,0:0:0:0:
320,192,15164,128,0,15314:0:0:0:0:
192,192,15314,1,0,0:0:0:0:
64,192,15464,128,2,15764:0:0:0:0:
448,192,15464,128,0,15614:0:0:0:0:
320,192,15614,128,0,15914:0:0:0:0:
192,192,15764,128,8,15914:0:0:0:0:
448,192,15764,128,0,15914:0:0:0:0:
64,192,15914,128,0,16064:0:0:0:0:
320,192,16064,1,2,0:0:0:0:
448,192,16064,1,0,0:0:0:0:
64,192,16214,1,2,0:0:0:0:
192,192,16214,128,0,16364:0:0:0:0:
64,192,16364,1,8,0:0:0:0:
320,192,16364,1,0,0:0:0:0:
448,192,16364,1,0,0:0:0:0:
192,192,16439,1,0,0:0:0:0:
448,192,16514,1,0,0:0:0:0:
64,192,16664,128,2,16964:0:0:0:0:
192,192,16664,128,0,16814:0:0:0:0:
448,192,16814,128,0,17114:0:0:0:0:
192,192,16964,128,8,17114:0:0:0:0:
320,192,16964,128,0,17114:0:0:0:0:
64,192,17114,128,0,17264:0:0:0:0:
320,192,17264,1,2,0:0:0:0:
448,192,17264,1,0,0:0:0:0:
192,192,17414,1,2,0:0:0:0:
320,192,17414,128,0,17714:0:0:0:0:
64,192,17564,1,8,0:0:0:0:
192,192,17564,1,4,0:0:0:0:
448,192,17564,128,0,17714:0:0:0:0:
64,192,17714,128,0,17864:0:0:0:0:
192,192,17864,1,2,0:0:0:0:
448,192,17864,1,0,0:0:0:0:
320,192,17939,1,8,0:0:0:0:
64,192,18014,1,8,0:0:0:0:
192,192,18014,1,0,0:0:0:0:
320,192,18089,1,8,0:0:0:0:
448,192,18089,1,0,0:0:0:0:
64,192,18164,1,2,0:0:0:0:
192,192,18164,1,0,0:0:0:0:
64,192,18239,1,8,0:0:0:0:
320,192,18314,1,8,0:0:0:0:
448,192,18314,1,0,0:0:0:0:
64,192,18389,1,8,0:0:0:0:
192,192,18389,1,0,0:0:0:0:
320,192,18464,1,2,0:0:0:0:
448,192,18464,1,0,0:0:0:0:
320,192,18539,1,8,0:0:0:0:
64,192,18614,1,8,0:0:0:0:
192,192,18614,1,0,0:0:0:0:
320,192,18689,1,8,0:0:0:0:
448,192,18689,1,0,0:0:0:0:
64,192,18764,1,2,0:0:0:0:
192,192,18764,1,0,0:0:0:0:
64,192,18839,1,8,0:0:0:0:
320,192,18914,1,8,0:0:0:0:
448,192,18914,1,0,0:0:0:0:
192,192,18989,1,8,0:0:0:0:
64,192,19064,1,2,0:0:0:0:
320,192,19064,1,4,0:0:0:0:
448,192,19064,1,0,0:0:0:0:
64,192,19214,1,0,0:0:0:0:
192,192,19214,1,0,0:0:0:0:
192,192,19364,1,8,0:0:0:0:
320,192,19364,1,0,0:0:0:0:
448,192,19364,1,0,0:0:0:0:
64,192,19514,1,0,0:0:0:0:
448,192,19514,1,0,0:0:0:0:
192,192,19664,1,2,0:0:0:0:
320,192,19664,1,0,0:0:0:0:
448,192,19739,1,0,0:0:0:0:
64,192,19814,1,2,0:0:0:0:
192,192,19814,1,0,0:0:0:0:
320,192,19889,1,0,0:0:0:0:
64,192,19964,1,8,0:0:0:0:
192,192,19964,1,0,0:0:0:0:
448,192,19964,1,0,0:0:0:0:
320,192,20114,1,2,0:0:0:0:
448,192,20114,1,0,0:0:0:0:
64,192,20264,1,0,0:0:0:0:
320,192,20264,1,0,0:0:0:0:
192,192,20339,1,0,0:0:0:0:
320,192,20414,1,2,0:0:0:0:
448,192,20414,1,0,0:0:0:0:
64,192,20489,1,0,0:0:0:0:
192,192,20564,1,8,0:0:0:0:
320,192,20564,1,0,0:0:0:0:
448,192,20564,1,0,0:0:0:0:
64,192,20714,1,0,0:0:0:0:
192,192,20714,1,0,0:0:0:0:
448,192,20764,1,0,0:0:0:0:
64,192,20864,1,2,0:0:0:0:
320,192,20864,1,0,0:0:0:0:
192,192,21014,1,2,0:0:0:0:
448,192,21014,1,0,0:0:0:0:
64,192,21164,1,8,0:0:0:0:
320,192,21164,1,0,0:0:0:0:
448,192,21164,1,0,0:0:0:0:
192,192,21314,1,0,0:0:0:0:
320,192,21314,1,0,0:0:0:0:
64,192,21464,1,2,0:0:0:0:
448,192,21464,1,0,0:0:0:0:
192,192,21539,1,0,0:0:0:0:
320,192,21614,1,0,0:0:0:0:
64,192,21689,1,0,0:0:0:0:
192,192,21764,1,8,0:0:0:0:
320,192,21764,1,0,0:0:0:0:
448,192,21764,1,0,0:0:0:0:
64,192,21914,1,0,0:0:0:0:
448,192,21914,1,0,0:0:0:0:
64,192,22064,1,2,0:0:0:0:
320,192,22064,1,0,0:0:0:0:
192,192,22214,1,2,0:0:0:0:
320,192,22214,1,0,0:0:0:0:
64,192,22364,1,8,0:0:0:0:
192,192,22364,1,0,0:0:0:0:
448,192,22364,1,0,0:0:0:0:
64,192,22514,1,2,0:0:0:0:
448,192,22514,1,0,0:0:0:0:
192,192,22664,1,0,0:0:0:0:
320,192,22664,1,0,0:0:0:0:
64,192,22739,1,0,0:0:0:0:
320,192,22814,1,2,0:0:0:0:
448,192,22814,1,0,0:0:0:0:
192,192,22889,1,0,0:0:0:0:
64,192,22964,1,8,0:0:0:0:
320,192,22964,1,0,0:0:0:0:
448,192,22964,1,0,0:0:0:0:
192,192,23114,1,0,0:0:0:0:
448,192,23114,1,0,0:0:0:0:
320,192,23189,1,0,0:0:0:0:
64,192,23264,1,2,0:0:0:0:
448,192,23264,1,0,0:0:0:0:
192,192,23339,1,0,0:0:0:0:
64,192,23414,1,2,0:0:0:0:
320,192,23414,1,0,0:0:0:0:
192,192,23564,1,8,0:0:0:0:
320,192,23564,1,0,0:0:0:0:
448,192,23564,1,0,0:0:0:0:
64,192,23714,1,0,0:0:0:0:
192,192,23714,1,0,0:0:0:0:
64,192,23864,1,2,0:0:0:0:
448,192,23864,1,0,0:0:0:0:
320,192,23939,1,0,0:0:0:0:
192,192,24014,1,0,0:0:0:0:
320,192,24089,1,0,0:0:0:0:
64,192,24164,1,8,0:0:0:0:
192,192,24164,1,0,0:0:0:0:
448,192,24164,1,0,0:0:0:0:
64,192,24314,1,0,0:0:0:0:
320,192,24314,1,0,0:0:0:0:
192,192,24464,1,2,0:0:0:0:
320,192,24464,1,0,0:0:0:0:
192,192,24614,1,2,0:0:0:0:
448,192,24614,1,0,0:0:0:0:
64,192,24764,1,8,0:0:0:0:
320,192,24764,1,0,0:0:0:0:
448,192,24764,1,0,0:0:0:0:
192,192,24914,1,2,0:0:0:0:
320,192,24914,1,0,0:0:0:0:
64,192,25064,1,0,0:0:0:0:
448,192,25064,1,0,0:0:0:0:
192,192,25139,1,0,0:0:0:0:
320,192,25214,1,2,0:0:0:0:
448,192,25214,1,0,0:0:0:0:
64,192,25289,1,0,0:0:0:0:
192,192,25364,1,8,0:0:0:0:
320,192,25364,1,0,0:0:0:0:
448,192,25364,1,0,0:0:0:0:
64,192,25514,1,0,0:0:0:0:
192,192,25514,1,0,0:0:0:0:
448,192,25589,1,0,0:0:0:0:
192,192,25664,1,2,0:0:0:0:
320,192,25664,1,0,0:0:0:0:
64,192,25814,1,2,0:0:0:0:
320,192,25814,1,0,0:0:0:0:
64,192,25964,1,8,0:0:0:0:
192,192,25964,1,0,0:0:0:0:
448,192,25964,1,0,0:0:0:0:
320,192,26039,1,0,0:0:0:0:
192,192,26114,1,0,0:0:0:0:
64,192,26264,1,2,0:0:0:0:
448,192,26264,1,0,0:0:0:0:
64,192,26414,1,0,0:0:0:0:
192,192,26414,1,0,0:0:0:0:
192,192,26564,1,8,0:0:0:0:
320,192,26564,1,0,0:0:0:0:
448,192,26564,1,0,0:0:0:0:
64,192,26714,1,0,0:0:0:0:
448,192,26714,1,0,0:0:0:0:
192,192,26864,1,2,0:0:0:0:
320,192,26864,1,0,0:0:0:0:
64,192,27014,1,2,0:0:0:0:
192,192,27014,1,0,0:0:0:0:
64,192,27164,1,8,0:0:0:0:
320,192,27164,1,0,0:0:0:0:
448,192,27164,1,0,0:0:0:0:
192,192,27314,1,0,0:0:0:0:
448,192,27314,1,0,0:0:0:0:
64,192,27464,1,0,0:0:0:70:Tom1.wav
320,192,27464,1,0,0:0:0:0:
448,192,27539,1,0,0:0:0:70:Tom1.wav
64,192,27614,1,0,0:0:0:70:Tom2.wav
192,192,27614,1,0,0:0:0:0:
320,192,27689,1,0,0:0:0:0:
64,192,27764,1,2,0:0:0:0:
192,192,27764,1,0,0:0:0:0:
320,192,27914,1,2,0:0:0:0:
448,192,27914,1,0,0:0:0:0:
64,192,28064,1,2,0:0:0:0:
320,192,28064,1,4,0:0:0:0:
448,192,28064,1,0,0:0:0:0:
64,192,28214,1,8,0:0:0:0:
192,192,28214,1,0,0:0:0:0:
320,192,28289,1,8,0:0:0:0:
448,192,28289,1,0,0:0:0:0:
64,192,28364,1,8,0:0:0:0:
192,192,28364,1,0,0:0:0:0:
320,192,28439,1,8,0:0:0:0:
448,192,28439,1,0,0:0:0:0:
320,192,28514,1,8,0:0:0:0:
448,192,28514,1,0,0:0:0:0:
64,192,28589,1,8,0:0:0:0:
192,192,28589,1,0,0:0:0:0:
64,192,28664,1,2,0:0:0:0:
192,192,28664,1,0,0:0:0:0:
448,192,28664,1,0,0:0:0:0:
320,192,28814,1,0,0:0:0:0:
448,192,28814,1,0,0:0:0:0:
64,192,28964,1,8,0:0:0:0:
192,192,28964,1,0,0:0:0:0:
320,192,28964,1,0,0:0:0:0:
64,192,29114,1,0,0:0:0:0:
448,192,29114,1,0,0:0:0:0:
320,192,29189,1,0,0:0:0:0:
64,192,29264,1,2,0:0:0:0:
192,192,29264,1,0,0:0:0:0:
320,192,29414,1,2,0:0:0:0:
448,192,29414,1,0,0:0:0:0:
64,192,29564,1,8,0:0:0:0:
192,192,29564,1,0,0:0:0:0:
448,192,29564,1,0,0:0:0:0:
64,192,29714,1,2,0:0:0:0:
320,192,29714,1,0,0:0:0:0:
192,192,29864,1,0,0:0:0:0:
448,192,29864,1,0,0:0:0:0:
64,192,29939,1,0,0:0:0:0:
320,192,30014,1,2,0:0:0:0:
448,192,30014,1,0,0:0:0:0:
192,192,30089,1,0,0:0:0:0:
64,192,30164,1,8,0:0:0:0:
320,192,30164,1,0,0:0:0:0:
448,192,30164,1,0,0:0:0:0:
64,192,30314,1,0,0:0:0:0:
192,192,30314,1,0,0:0:0:0:
320,192,30389,1,0,0:0:0:0:
192,192,30464,1,2,0:0:0:0:
448,192,30464,1,0,0:0:0:0:
64,192,30614,1,2,0:0:0:0:
320,192,30614,1,0,0:0:0:0:
64,192,30764,1,8,0:0:0:0:
192,192,30764,1,0,0:0:0:0:
448,192,30764,1,0,0:0:0:0:
320,192,30914,1,0,0:0:0:0:
448,192,30914,1,0,0:0:0:0:
64,192,31064,1,2,0:0:0:0:
192,192,31064,1,0,0:0:0:0:
320,192,31064,1,0,0:0:0:0:
64,192,31214,1,0,0:0:0:0:
448,192,31214,1,0,0:0:0:0:
192,192,31364,1,8,0:0:0:0:
320,192,31364,1,0,0:0:0:0:
448,192,31364,1,0,0:0:0:0:
64,192,31514,1,0,0:0:0:0:
320,192,31514,1,0,0:0:0:0:
192,192,31589,1,0,0:0:0:0:
64,192,31664,1,2,0:0:0:0:
448,192,31664,1,0,0:0:0:0:
320,192,31814,1,2,0:0:0:0:
448,192,31814,1,0,0:0:0:0:
64,192,31964,1,8,0:0:0:0:
192,192,31964,1,0,0:0:0:0:
320,192,31964,1,0,0:0:0:0:
64,192,32114,1,2,0:0:0:0:
448,192,32114,1,0,0:0:0:0:
192,192,32264,1,0,0:0:0:0:
320,192,32264,1,0,0:0:0:0:
64,192,32339,1,0,0:0:0:0:
320,192,32414,1,2,0:0:0:0:
448,192,32414,1,0,0:0:0:0:
192,192,32489,1,0,0:0:0:0:
64,192,32564,1,8,0:0:0:0:
320,192,32564,1,0,0:0:0:0:
448,192,32564,1,0,0:0:0:0:
64,192,32714,1,0,0:0:0:0:
192,192,32714,1,0,0:0:0:0:
320,192,32789,1,0,0:0:0:0:
64,192,32864,1,2,0:0:0:0:
448,192,32864,1,0,0:0:0:0:
192,192,33014,1,2,0:0:0:0:
320,192,33014,1,0,0:0:0:0:
64,192,33164,1,8,0:0:0:0:
320,192,33164,1,0,0:0:0:0:
448,192,33164,1,0,0:0:0:0:
192,192,33314,1,0,0:0:0:0:
448,192,33314,1,0,0:0:0:0:
64,192,33464,1,2,0:0:0:0:
192,192,33464,1,0,0:0:0:0:
320,192,33464,1,0,0:0:0:0:
64,192,33614,1,0,0:0:0:0:
448,192,33614,1,0,0:0:0:0:
192,192,33764,1,8,0:0:0:0:
320,192,33764,1,0,0:0:0:0:
448,192,33764,1,0,0:0:0:0:
64,192,33914,1,0,0:0:0:0:
320,192,33914,1,0,0:0:0:0:
192,192,33989,1,0,0:0:0:0:
64,192,34064,1,2,0:0:0:0:
448,192,34064,1,0,0:0:0:0:
320,192,34214,1,2,0:0:0:0:
448,192,34214,1,0,0:0:0:0:
64,192,34364,1,8,0:0:0:0:
192,192,34364,1,0,0:0:0:0:
320,192,34364,1,0,0:0:0:0:
64,192,34514,1,2,0:0:0:0:
448,192,34514,1,0,0:0:0:0:
192,192,34664,1,0,0:0:0:0:
320,192,34664,1,0,0:0:0:0:
448,192,34739,1,0,0:0:0:0:
64,192,34814,1,2,0:0:0:0:
192,192,34814,1,0,0:0:0:0:
320,192,34889,1,0,0:0:0:0:
64,192,34964,1,8,0:0:0:0:
192,192,34964,1,0,0:0:0:0:
448,192,34964,1,0,0:0:0:0:
320,192,35114,1,0,0:0:0:0:
448,192,35114,1,0,0:0:0:0:
192,192,35189,1,0,0:0:0:0:
64,192,35264,1,2,0:0:0:0:
448,192,35264,1,0,0:0:0:0:
320,192,35339,1,0,0:0:0:0:
64,192,35414,1,2,0:0:0:0:
192,192,35414,1,0,0:0:0:0:
64,192,35564,1,8,0:0:0:0:
320,192,35564,1,0,0:0:0:0:
448,192,35564,1,0,0:0:0:0:
192,192,35714,1,0,0:0:0:0:
320,192,35714,1,0,0:0:0:0:
64,192,35864,1,2,0:0:0:0:
192,192,35864,1,4,0:0:0:0:
448,192,35864,1,0,0:0:0:0:
320,192,36014,1,0,0:0:0:0:
448,192,36014,1,0,0:0:0:0:
64,192,36164,1,8,0:0:0:0:
192,192,36164,1,0,0:0:0:0:
320,192,36164,1,0,0:0:0:0:
64,192,36314,1,0,0:0:0:0:
448,192,36314,1,0,0:0:0:0:
192,192,36464,1,2,0:0:0:0:
448,192,36464,1,0,0:0:0:0:
192,192,36614,1,2,0:0:0:0:
320,192,36614,1,0,0:0:0:0:
64,192,36764,1,8,0:0:0:0:
320,192,36764,1,0,0:0:0:0:
448,192,36764,1,0,0:0:0:0:
192,192,36914,1,2,0:0:0:0:
448,192,36914,1,0,0:0:0:0:
320,192,36989,1,0,0:0:0:0:
64,192,37064,1,8,0:0:0:0:
192,192,37064,1,4,0:0:0:0:
448,192,37064,1,0,0:0:0:0:
64,192,37214,1,8,0:0:0:0:
320,192,37214,1,0,0:0:0:0:
448,192,37214,1,0,0:0:0:0:
192,192,37364,1,2,0:0:0:0:
320,192,37364,1,0,0:0:0:0:
64,192,37514,1,8,0:0:0:0:
192,192,37514,1,0,0:0:0:0:
448,192,37514,1,0,0:0:0:0:
64,192,37664,1,2,0:0:0:0:
320,192,37664,1,0,0:0:0:0:
448,192,37664,1,0,0:0:0:0:
192,192,37714,1,0,0:0:0:0:
320,192,37764,1,0,0:0:0:0:
64,192,37814,1,0,0:0:0:0:
192,192,37864,1,0,0:0:0:0:
320,192,37914,1,0,0:0:0:0:
448,192,37964,1,0,0:0:0:0:
64,192,38014,1,0,0:0:0:0:
192,192,38064,1,0,0:0:0:0:
320,192,38114,1,0,0:0:0:0:
448,192,38164,1,0,0:0:0:0:
64,192,38264,1,4,0:0:0:0:
192,192,38264,1,2,0:0:0:0:
320,192,38264,1,0,0:0:0:0:
64,192,38414,128,0,38639:0:0:0:0:
320,192,38564,1,8,0:0:0:0:
448,192,38564,128,0,38789:0:0:0:0:
64,192,38714,1,8,0:0:0:0:
192,192,38714,1,0,0:0:0:0:
64,192,38864,128,2,39089:0:0:0:0:
448,192,38864,128,0,39164:0:0:0:0:
192,192,39164,1,8,0:0:0:0:
320,192,39164,128,0,39389:0:0:0:0:
192,192,39314,128,0,39464:0:0:0:0:
64,192,39464,128,2,39614:0:0:0:0:
448,192,39464,1,0,0:0:0:0:
448,192,39614,128,0,39839:0:0:0:0:
64,192,39764,128,8,39989:0:0:0:0:
192,192,39764,1,0,0:0:0:0:
320,192,39914,1,8,0:0:0:0:
448,192,39914,128,0,40139:0:0:0:0:
64,192,40064,128,0,40289:0:0:0:0:
192,192,40214,1,2,0:0:0:0:
448,192,40214,1,0,0:0:0:0:
320,192,40364,1,8,0:0:0:0:
448,192,40364,128,0,40589:0:0:0:0:
64,192,40514,128,0,40739:0:0:0:0:
320,192,40664,1,2,0:0:0:0:
448,192,40664,128,0,40889:0:0:0:0:
192,192,40814,128,0,41039:0:0:0:0:
320,192,40964,128,8,41189:0:0:0:0:
448,192,40964,1,0,0:0:0:0:
64,192,41114,128,8,41339:0:0:0:0:
192,192,41114,1,0,0:0:0:0:
320,192,41264,128,2,41564:0:0:0:0:
448,192,41264,128,0,41489:0:0:0:0:
64,192,41564,1,8,0:0:0:0:
192,192,41564,128,0,41714:0:0:0:0:
64,192,41864,1,2,0:0:0:0:
448,192,41864,128,0,42089:0:0:0:0:
64,192,42014,128,0,42239:0:0:0:0:
320,192,42164,1,8,0:0:0:0:
448,192,42164,1,0,0:0:0:0:
320,192,42314,1,8,0:0:0:0:
448,192,42314,128,0,42539:0:0:0:0:
64,192,42464,128,0,42764:0:0:0:0:
320,192,42614,1,2,0:0:0:0:
448,192,42614,1,0,0:0:0:0:
192,192,42764,1,8,0:0:0:0:
448,192,42764,1,0,0:0:0:0:
320,192,42914,1,2,0:0:0:0:
320,192,42989,1,2,0:0:0:0:
64,192,43064,1,8,0:0:0:0:
192,192,43064,1,4,0:0:0:0:
448,192,43064,1,0,0:0:0:0:
192,192,43214,1,2,0:0:0:0:
320,192,43214,1,0,0:0:0:0:
64,192,43364,1,8,0:0:0:0:
320,192,43364,1,0,0:0:0:0:
448,192,43364,1,0,0:0:0:0:
192,192,43514,1,2,0:0:0:0:
448,192,43514,1,0,0:0:0:0:
64,192,43664,1,8,0:0:0:0:
192,192,43664,1,0,0:0:0:0:
320,192,43664,1,0,0:0:0:0:
64,192,43814,1,2,0:0:0:0:
448,192,43814,1,0,0:0:0:0:
192,192,43964,1,8,0:0:0:0:
320,192,43964,1,0,0:0:0:0:
448,192,43964,1,0,0:0:0:0:
64,192,44114,1,2,0:0:0:0:
64,192,44189,1,2,0:0:0:0:
192,192,44264,1,8,0:0:0:0:
320,192,44264,1,0,0:0:0:0:
448,192,44264,1,0,0:0:0:0:
64,192,44414,1,2,0:0:0:0:
448,192,44414,1,0,0:0:0:0:
64,192,44564,1,8,0:0:0:0:
192,192,44564,1,4,0:0:0:0:
320,192,44564,1,0,0:0:0:0:
320,192,44714,1,8,0:0:0:0:
448,192,44714,1,0,0:0:0:0:
64,192,44789,1,8,0:0:0:0:
192,192,44789,1,0,0:0:0:0:
320,192,44864,1,2,0:0:0:0:
448,192,44864,1,0,0:0:0:0:
192,192,44939,1,0,0:0:0:0:
64,192,45014,1,2,0:0:0:0:
448,192,45014,1,0,0:0:0:0:
320,192,45089,1,0,0:0:0:0:
64,192,45164,1,2,0:0:0:0:
192,192,45164,1,0,0:0:0:0:
320,192,45239,1,0,0:0:0:0:
64,192,45314,1,2,0:0:0:0:
448,192,45314,1,0,0:0:0:0:
192,192,45464,128,2,45664:0:0:0:0:
320,192,45464,128,4,45864:0:0:0:0:
448,192,45464,128,0,46064:0:0:0:0:
64,192,45664,128,0,46264:0:0:0:0:
192,192,45864,128,0,46264:0:0:0:0:
320,192,46064,128,0,46464:0:0:0:0:
448,192,46264,128,0,46464:0:0:0:0:
64,192,46464,128,0,46664:0:0:0:0:
192,192,46514,1,2,0:0:0:0:
320,192,46589,1,2,0:0:0:0:
192,192,46664,1,8,0:0:0:0:
448,192,46664,128,4,46889:0:0:0:0:
64,192,46964,1,2,0:0:0:0:
192,192,46964,1,0,0:0:0:0:
448,192,46964,1,0,0:0:0:0:
64,192,47114,1,8,0:0:0:0:
192,192,47114,1,0,0:0:0:0:
448,192,47114,1,0,0:0:0:0:
64,192,47264,1,2,0:0:0:0:
192,192,47264,1,0,0:0:0:0:
320,192,47264,1,0,0:0:0:0:
64,192,47414,1,8,0:0:0:0:
192,192,47414,1,0,0:0:0:0:
320,192,47414,1,0,0:0:0:0:
64,192,47564,1,8,0:0:0:0:
320,192,47564,1,0,0:0:0:0:
448,192,47564,1,0,0:0:0:0:
64,192,47714,1,8,0:0:0:0:
320,192,47714,1,0,0:0:0:0:
448,192,47714,1,0,0:0:0:0:
320,192,47864,1,8,0:0:0:0:
448,192,47864,1,0,0:0:0:0:
320,192,47939,1,2,0:0:0:0:
448,192,47939,1,0,0:0:0:0:
192,192,48014,1,2,0:0:0:0:
64,192,48064,1,0,0:0:0:0:
448,192,48114,1,0,0:0:0:0:
192,192,48164,1,2,0:0:0:0:
320,192,48214,1,0,0:0:0:0:
448,192,48264,1,0,0:0:0:0:
64,192,48314,1,8,0:0:0:0:
192,192,48314,1,0,0:0:0:0:
64,192,48389,1,2,0:0:0:0:
192,192,48389,1,0,0:0:0:0:
320,192,48464,1,2,0:0:0:0:
448,192,48514,1,0,0:0:0:0:
64,192,48564,1,0,0:0:0:0:
320,192,48614,1,2,0:0:0:0:
192,192,48664,1,0,0:0:0:0:
64,192,48714,1,0,0:0:0:0:
320,192,48764,1,8,0:0:0:0:
448,192,48764,1,0,0:0:0:0:
64,192,48839,1,8,0:0:0:0:
192,192,48839,1,0,0:0:0:0:
320,192,48914,1,8,0:0:0:0:
448,192,48914,1,0,0:0:0:0:
192,192,48989,1,8,0:0:0:0:
64,192,49064,1,2,0:0:0:0:
320,192,49064,1,4,0:0:0:0:
448,192,49064,1,0,0:0:0:0:
192,192,49214,1,0,0:0:0:0:
448,192,49214,1,0,0:0:0:0:
64,192,49364,1,8,0:0:0:0:
192,192,49364,1,0,0:0:0:0:
320,192,49364,1,0,0:0:0:0:
64,192,49514,1,0,0:0:0:0:
320,192,49514,1,0,0:0:0:0:
192,192,49664,1,2,0:0:0:0:
448,192,49664,1,0,0:0:0:0:
64,192,49739,1,0,0:0:0:0:
320,192,49814,1,2,0:0:0:0:
448,192,49814,1,0,0:0:0:0:
64,192,49964,1,8,0:0:0:0:
192,192,49964,1,0,0:0:0:0:
320,192,49964,1,0,0:0:0:0:
64,192,50114,1,0,0:0:0:0:
448,192,50114,1,0,0:0:0:0:
192,192,50264,1,2,0:0:0:0:
320,192,50264,1,0,0:0:0:0:
192,192,50414,1,0,0:0:0:0:
448,192,50414,1,0,0:0:0:0:
64,192,50564,1,8,0:0:0:0:
320,192,50564,1,0,0:0:0:0:
448,192,50564,1,0,0:0:0:0:
64,192,50714,1,0,0:0:0:0:
192,192,50714,1,0,0:0:0:0:
320,192,50864,1,2,0:0:0:0:
448,192,50864,1,0,0:0:0:0:
192,192,50939,1,0,0:0:0:0:
320,192,51014,1,2,0:0:0:0:
448,192,51014,1,0,0:0:0:0:
64,192,51164,1,8,0:0:0:0:
192,192,51164,1,0,0:0:0:0:
448,192,51164,1,0,0:0:0:0:
64,192,51314,1,0,0:0:0:0:
320,192,51314,1,0,0:0:0:0:
192,192,51464,1,2,0:0:0:0:
320,192,51464,1,0,0:0:0:0:
192,192,51614,1,0,0:0:0:0:
448,192,51614,1,0,0:0:0:0:
64,192,51764,1,8,0:0:0:0:
320,192,51764,1,0,0:0:0:0:
448,192,51764,1,0,0:0:0:0:
192,192,51914,1,0,0:0:0:0:
320,192,51914,1,0,0:0:0:0:
448,192,51989,1,0,0:0:0:0:
64,192,52064,1,2,0:0:0:0:
192,192,52064,1,0,0:0:0:0:
320,192,52139,1,0,0:0:0:0:
64,192,52214,1,2,0:0:0:0:
448,192,52214,1,0,0:0:0:0:
192,192,52289,1,0,0:0:0:0:
320,192,52364,1,8,0:0:0:0:
448,192,52364,1,0,0:0:0:0:
64,192,52439,1,0,0:0:0:0:
192,192,52514,1,0,0:0:0:0:
320,192,52514,1,0,0:0:0:0:
448,192,52589,1,0,0:0:0:0:
64,192,52664,1,2,0:0:0:0:
192,192,52664,1,0,0:0:0:0:
64,192,52814,1,0,0:0:0:0:
448,192,52814,1,0,0:0:0:0:
192,192,52964,1,8,0:0:0:0:
320,192,52964,1,0,0:0:0:0:
448,192,52964,1,0,0:0:0:0:
64,192,53039,1,0,0:0:0:0:
320,192,53114,1,0,0:0:0:0:
192,192,53264,1,2,0:0:0:0:
448,192,53264,1,0,0:0:0:0:
320,192,53339,1,0,0:0:0:0:
64,192,53414,1,2,0:0:0:0:
192,192,53414,1,0,0:0:0:0:
64,192,53564,1,8,0:0:0:0:
320,192,53564,1,0,0:0:0:0:
448,192,53564,1,0,0:0:0:0:
320,192,53714,1,0,0:0:0:0:
64,192,53864,1,2,0:0:0:0:
192,192,53864,1,4,0:0:0:0:
448,192,53864,1,0,0:0:0:0:
64,192,53939,1,0,0:0:0:0:
320,192,54014,1,0,0:0:0:0:
448,192,54014,1,0,0:0:0:0:
64,192,54164,1,8,0:0:0:0:
192,192,54164,1,0,0:0:0:0:
448,192,54164,1,0,0:0:0:0:
192,192,54239,1,0,0:0:0:0:
320,192,54314,1,0,0:0:0:0:
448,192,54314,1,0,0:0:0:0:
64,192,54464,1,2,0:0:0:0:
320,192,54464,1,0,0:0:0:0:
320,192,54539,1,0,0:0:0:0:
64,192,54614,1,2,0:0:0:0:
192,192,54614,1,0,0:0:0:0:
64,192,54764,1,8,0:0:0:0:
320,192,54764,1,0,0:0:0:0:
448,192,54764,1,0,0:0:0:0:
448,192,54839,1,0,0:0:0:0:
64,192,54914,1,0,0:0:0:0:
192,192,54914,1,0,0:0:0:0:
192,192,55064,1,2,0:0:0:0:
320,192,55064,1,0,0:0:0:0:
192,192,55139,1,0,0:0:0:0:
64,192,55214,1,0,0:0:0:0:
448,192,55214,1,0,0:0:0:0:
64,192,55364,1,8,0:0:0:0:
192,192,55364,1,0,0:0:0:0:
320,192,55364,1,0,0:0:0:0:
192,192,55514,1,0,0:0:0:0:
448,192,55514,1,0,0:0:0:0:
64,192,55664,1,2,0:0:0:0:
320,192,55664,1,0,0:0:0:0:
448,192,55739,1,0,0:0:0:0:
64,192,55814,1,2,0:0:0:0:
192,192,55814,1,0,0:0:0:0:
64,192,55964,1,8,0:0:0:0:
320,192,55964,1,0,0:0:0:0:
448,192,55964,1,0,0:0:0:0:
192,192,56039,1,0,0:0:0:0:
448,192,56114,1,0,0:0:0:0:
64,192,56264,1,2,0:0:0:0:
192,192,56264,1,0,0:0:0:0:
320,192,56414,1,0,0:0:0:0:
448,192,56414,1,0,0:0:0:0:
64,192,56564,1,8,0:0:0:0:
192,192,56564,1,0,0:0:0:0:
448,192,56564,1,0,0:0:0:0:
64,192,56714,1,0,0:0:0:0:
320,192,56714,1,0,0:0:0:0:
192,192,56864,1,2,0:0:0:0:
320,192,56864,1,0,0:0:0:0:
192,192,57014,1,2,0:0:0:0:
448,192,57014,1,0,0:0:0:0:
64,192,57164,1,8,0:0:0:0:
320,192,57164,1,0,0:0:0:0:
448,192,57164,1,0,0:0:0:0:
192,192,57314,1,0,0:0:0:0:
64,192,57464,1,2,0:0:0:0:
320,192,57464,1,4,0:0:0:0:
448,192,57464,1,0,0:0:0:0:
192,192,57614,1,8,0:0:0:0:
448,192,57614,1,0,0:0:0:0:
64,192,57689,1,2,0:0:0:0:
320,192,57764,1,2,0:0:0:0:
448,192,57764,1,0,0:0:0:0:
64,192,57914,1,8,0:0:0:0:
192,192,57914,1,0,0:0:0:0:
320,192,57914,1,0,0:0:0:0:
192,192,58064,1,2,0:0:0:0:
448,192,58064,1,0,0:0:0:0:
64,192,58214,1,8,0:0:0:0:
320,192,58214,1,0,0:0:0:0:
448,192,58214,1,0,0:0:0:0:
64,192,58364,1,2,0:0:0:0:
192,192,58364,1,0,0:0:0:0:
320,192,58439,1,8,0:0:0:0:
448,192,58439,1,0,0:0:0:0:
64,192,58514,1,8,0:0:0:0:
192,192,58514,1,0,0:0:0:0:
320,192,58589,1,8,0:0:0:0:
64,192,58664,1,2,0:0:0:0:
192,192,58664,1,4,0:0:0:0:
448,192,58664,1,0,0:0:0:0:
64,192,58814,1,0,0:0:0:0:
320,192,58814,1,0,0:0:0:0:
192,192,58964,1,8,0:0:0:0:
320,192,58964,1,0,0:0:0:0:
448,192,58964,1,0,0:0:0:0:
192,192,59114,1,0,0:0:0:0:
448,192,59114,1,0,0:0:0:0:
64,192,59264,1,2,0:0:0:0:
320,192,59264,1,0,0:0:0:0:
448,192,59339,1,0,0:0:0:0:
64,192,59414,1,2,0:0:0:0:
192,192,59414,1,0,0:0:0:0:
192,192,59564,1,8,0:0:0:0:
320,192,59564,1,0,0:0:0:0:
448,192,59564,1,0,0:0:0:0:
64,192,59714,1,0,0:0:0:0:
448,192,59714,1,0,0:0:0:0:
192,192,59864,1,2,0:0:0:0:
320,192,59864,1,0,0:0:0:0:
64,192,60014,1,0,0:0:0:0:
320,192,60014,1,0,0:0:0:0:
64,192,60164,1,8,0:0:0:0:
192,192,60164,1,0,0:0:0:0:
448,192,60164,1,0,0:0:0:0:
320,192,60314,1,0,0:0:0:0:
448,192,60314,1,0,0:0:0:0:
64,192,60464,1,2,0:0:0:0:
192,192,60464,1,0,0:0:0:0:
320,192,60539,1,0,0:0:0:0:
64,192,60614,1,2,0:0:0:0:
192,192,60614,1,0,0:0:0:0:
64,192,60764,1,8,0:0:0:0:
320,192,60764,1,0,0:0:0:0:
448,192,60764,1,0,0:0:0:0:
192,192,60914,1,0,0:0:0:0:
448,192,60914,1,0,0:0:0:0:
192,192,61064,1,2,0:0:0:0:
320,192,61064,1,0,0:0:0:0:
64,192,61214,1,0,0:0:0:0:
320,192,61214,1,0,0:0:0:0:
64,192,61364,1,8,0:0:0:0:
192,192,61364,1,0,0:0:0:0:
448,192,61364,1,0,0:0:0:0:
192,192,61514,1,0,0:0:0:0:
320,192,61514,1,0,0:0:0:0:
64,192,61589,1,0,0:0:0:0:
320,192,61664,1,2,0:0:0:0:
448,192,61664,1,0,0:0:0:0:
64,192,61814,1,2,0:0:0:0:
448,192,61814,1,0,0:0:0:0:
64,192,61964,1,8,0:0:0:0:
192,192,61964,1,0,0:0:0:0:
320,192,61964,1,0,0:0:0:0:
192,192,62114,1,0,0:0:0:0:
320,192,62114,1,0,0:0:0:0:
64,192,62189,1,0,0:0:0:0:
320,192,62264,1,2,0:0:0:0:
448,192,62264,1,0,0:0:0:0:
192,192,62339,1,0,0:0:0:0:
64,192,62414,1,0,0:0:0:0:
448,192,62414,1,0,0:0:0:0:
64,192,62564,1,8,0:0:0:0:
192,192,62564,1,0,0:0:0:0:
320,192,62564,1,0,0:0:0:0:
448,192,62639,1,0,0:0:0:0:
192,192,62714,1,0,0:0:0:0:
64,192,62864,1,2,0:0:0:0:
320,192,62864,1,0,0:0:0:0:
192,192,62939,1,0,0:0:0:0:
320,192,63014,1,2,0:0:0:0:
448,192,63014,1,0,0:0:0:0:
64,192,63164,1,8,0:0:0:0:
192,192,63164,1,0,0:0:0:0:
448,192,63164,1,0,0:0:0:0:
192,192,63314,1,0,0:0:0:0:
64,192,63464,1,2,0:0:0:0:
192,192,63464,1,4,0:0:0:0:
448,192,63464,1,0,0:0:0:0:
448,192,63539,1,0,0:0:0:0:
64,192,63614,1,0,0:0:0:0:
192,192,63614,1,0,0:0:0:0:
64,192,63764,1,8,0:0:0:0:
320,192,63764,1,0,0:0:0:0:
448,192,63764,1,0,0:0:0:0:
320,192,63839,1,0,0:0:0:0:
64,192,63914,1,0,0:0:0:0:
192,192,63914,1,0,0:0:0:0:
192,192,64064,1,2,0:0:0:0:
448,192,64064,1,0,0:0:0:0:
192,192,64139,1,0,0:0:0:0:
320,192,64214,1,2,0:0:0:0:
448,192,64214,1,0,0:0:0:0:
64,192,64364,1,8,0:0:0:0:
192,192,64364,1,0,0:0:0:0:
448,192,64364,1,0,0:0:0:0:
64,192,64439,1,0,0:0:0:0:
320,192,64514,1,0,0:0:0:0:
448,192,64514,1,0,0:0:0:0:
192,192,64664,1,2,0:0:0:0:
320,192,64664,1,0,0:0:0:0:
320,192,64739,1,0,0:0:0:0:
64,192,64814,1,0,0:0:0:0:
448,192,64814,1,0,0:0:0:0:
192,192,64964,1,8,0:0:0:0:
320,192,64964,1,0,0:0:0:0:
448,192,64964,1,0,0:0:0:0:
192,192,65039,1,0,0:0:0:0:
64,192,65114,1,0,0:0:0:0:
320,192,65114,1,0,0:0:0:0:
192,192,65264,1,2,0:0:0:0:
448,192,65264,1,0,0:0:0:0:
448,192,65339,1,0,0:0:0:0:
64,192,65414,1,2,0:0:0:0:
192,192,65414,1,0,0:0:0:0:
64,192,65564,1,8,0:0:0:0:
320,192,65564,1,0,0:0:0:0:
448,192,65564,1,0,0:0:0:0:
192,192,65639,1,0,0:0:0:0:
320,192,65714,1,0,0:0:0:0:
192,192,65864,1,2,0:0:0:0:
448,192,65864,1,0,0:0:0:0:
64,192,66014,1,0,0:0:0:0:
320,192,66014,1,0,0:0:0:0:
192,192,66164,1,8,0:0:0:0:
320,192,66164,1,0,0:0:0:0:
448,192,66164,1,0,0:0:0:0:
64,192,66314,1,0,0:0:0:0:
448,192,66314,1,0,0:0:0:0:
192,192,66464,1,2,0:0:0:0:
320,192,66464,1,0,0:0:0:0:
448,192,66539,1,0,0:0:0:0:
64,192,66614,1,2,0:0:0:0:
192,192,66614,1,0,0:0:0:0:
320,192,66689,1,0,0:0:0:0:
64,192,66764,1,8,0:0:0:0:
192,192,66764,1,0,0:0:0:0:
448,192,66764,1,0,0:0:0:0:
64,192,66914,1,2,0:0:0:0:
448,192,66914,1,0,0:0:0:0:
64,192,67064,1,8,0:0:0:0:
192,192,67064,1,4,0:0:0:0:
320,192,67064,1,0,0:0:0:0:
448,192,67064,1,0,0:0:0:0:
64,192,67364,1,2,0:0:0:0:
192,192,67364,1,0,0:0:0:0:
320,192,67439,1,8,0:0:0:0:
448,192,67439,1,0,0:0:0:0:
320,192,67514,1,8,0:0:0:0:
448,192,67514,1,0,0:0:0:0:
64,192,67589,1,8,0:0:0:0:
192,192,67589,1,0,0:0:0:0:
64,192,67664,1,8,0:0:0:0:
192,192,67664,1,0,0:0:0:0:
320,192,67739,1,2,0:0:0:0:
448,192,67739,1,0,0:0:0:0:
64,192,67814,1,2,0:0:0:0:
192,192,67814,1,0,0:0:0:0:
320,192,67889,1,8,0:0:0:0:
448,192,67889,1,0,0:0:0:0:
64,192,67964,1,2,0:0:0:0:
192,192,67964,1,0,0:0:0:0:
64,192,68039,1,8,0:0:0:0:
192,192,68039,1,0,0:0:0:0:
320,192,68114,1,8,0:0:0:0:
448,192,68114,1,0,0:0:0:0:
320,192,68189,1,8,0:0:0:0:
448,192,68189,1,0,0:0:0:0:
64,192,68264,1,4,0:0:0:0:
192,192,68264,1,2,0:0:0:0:
320,192,68414,1,0,0:0:0:0:
448,192,68414,1,0,0:0:0:0:
64,192,68564,1,8,0:0:0:0:
192,192,68564,1,0,0:0:0:0:
320,192,68564,1,0,0:0:0:0:
448,192,68564,1,0,0:0:0:0:
64,192,68714,1,0,0:0:0:0:
192,192,68714,1,0,0:0:0:0:
320,192,68864,1,2,0:0:0:0:
448,192,68864,1,0,0:0:0:0:
192,192,69014,1,2,0:0:0:0:
320,192,69014,1,0,0:0:0:0:
64,192,69164,1,8,0:0:0:0:
192,192,69164,1,0,0:0:0:0:
448,192,69164,1,0,0:0:0:0:
64,192,69314,1,0,0:0:0:0:
320,192,69314,1,0,0:0:0:0:
192,192,69389,1,0,0:0:0:0:
320,192,69464,1,2,0:0:0:0:
448,192,69464,1,0,0:0:0:0:
64,192,69539,1,0,0:0:0:0:
192,192,69614,1,0,0:0:0:0:
448,192,69614,1,0,0:0:0:0:
64,192,69764,1,8,0:0:0:0:
320,192,69764,1,0,0:0:0:0:
448,192,69764,1,0,0:0:0:0:
192,192,69839,1,0,0:0:0:0:
320,192,69914,1,0,0:0:0:0:
448,192,69989,1,0,0:0:0:0:
64,192,70064,1,2,0:0:0:0:
192,192,70064,1,0,0:0:0:0:
448,192,70139,1,0,0:0:0:0:
192,192,70214,1,2,0:0:0:0:
320,192,70214,1,0,0:0:0:0:
64,192,70364,1,8,0:0:0:0:
320,192,70364,1,0,0:0:0:0:
448,192,70364,1,0,0:0:0:0:
192,192,70514,1,0,0:0:0:0:
448,192,70514,1,0,0:0:0:0:
192,192,70664,1,2,0:0:0:0:
320,192,70664,1,0,0:0:0:0:
64,192,70814,1,2,0:0:0:0:
448,192,70814,1,0,0:0:0:0:
64,192,70964,1,8,0:0:0:0:
192,192,70964,1,0,0:0:0:0:
320,192,70964,1,0,0:0:0:0:
448,192,71039,1,0,0:0:0:0:
192,192,71114,1,0,0:0:0:0:
320,192,71189,1,0,0:0:0:0:
64,192,71264,1,2,0:0:0:0:
448,192,71264,1,0,0:0:0:0:
192,192,71339,1,8,0:0:0:0:
320,192,71414,1,8,0:0:0:0:
448,192,71414,1,0,0:0:0:0:
320,192,71489,1,8,0:0:0:0:
448,192,71489,1,0,0:0:0:0:
64,192,71564,1,2,0:0:0:0:
192,192,71564,1,0,0:0:0:0:
320,192,71639,1,8,0:0:0:0:
448,192,71639,1,0,0:0:0:0:
64,192,71714,1,8,0:0:0:0:
192,192,71714,1,0,0:0:0:0:
64,192,71789,1,8,0:0:0:0:
192,192,71789,1,0,0:0:0:0:
320,192,71864,1,2,0:0:0:0:
448,192,71864,1,4,0:0:0:0:
64,192,72014,1,0,0:0:0:0:
448,192,72014,1,0,0:0:0:0:
64,192,72164,1,8,0:0:0:0:
192,192,72164,1,0,0:0:0:0:
320,192,72164,1,0,0:0:0:0:
192,192,72314,1,0,0:0:0:0:
448,192,72314,1,0,0:0:0:0:
320,192,72464,1,2,0:0:0:0:
448,192,72464,1,0,0:0:0:0:
64,192,72614,1,2,0:0:0:0:
192,192,72614,1,0,0:0:0:0:
64,192,72764,1,8,0:0:0:0:
320,192,72764,1,0,0:0:0:0:
448,192,72764,1,0,0:0:0:0:
192,192,72914,1,0,0:0:0:0:
448,192,72914,1,0,0:0:0:0:
64,192,72989,1,0,0:0:0:0:
320,192,73064,1,2,0:0:0:0:
448,192,73064,1,0,0:0:0:0:
64,192,73214,1,0,0:0:0:0:
192,192,73214,1,0,0:0:0:0:
64,192,73364,1,8,0:0:0:0:
320,192,73364,1,0,0:0:0:0:
448,192,73364,1,0,0:0:0:0:
192,192,73439,1,0,0:0:0:0:
448,192,73514,1,0,0:0:0:0:
64,192,73664,1,2,0:0:0:0:
192,192,73664,1,0,0:0:0:0:
320,192,73739,1,0,0:0:0:0:
64,192,73814,1,2,0:0:0:0:
448,192,73814,1,0,0:0:0:0:
192,192,73964,1,8,0:0:0:0:
320,192,73964,1,0,0:0:0:0:
448,192,73964,1,0,0:0:0:0:
64,192,74114,1,0,0:0:0:0:
320,192,74114,1,0,0:0:0:0:
64,192,74264,1,2,0:0:0:0:
192,192,74264,1,0,0:0:0:0:
320,192,74414,1,8,0:0:0:0:
448,192,74414,1,0,0:0:0:0:
448,192,74489,1,0,0:0:0:0:
64,192,74564,1,8,0:0:0:0:
192,192,74564,1,0,0:0:0:0:
192,192,74639,1,0,0:0:0:0:
320,192,74714,1,2,0:0:0:0:
448,192,74714,1,0,0:0:0:0:
64,192,74789,1,2,0:0:0:0:
192,192,74864,1,2,0:0:0:0:
448,192,74864,1,0,0:0:0:0:
320,192,74939,1,0,0:0:0:0:
64,192,75014,1,2,0:0:0:0:
192,192,75014,1,0,0:0:0:0:
448,192,75089,1,2,0:0:0:0:
64,192,75164,1,2,0:0:0:0:
320,192,75164,1,0,0:0:0:0:
64,192,75239,1,2,0:0:0:0:
448,192,75314,1,2,0:0:0:0:
448,192,75389,1,2,0:0:0:0:
64,192,75464,1,8,0:0:0:0:
192,192,75464,1,4,0:0:0:0:
320,192,75464,1,0,0:0:0:0:
192,192,75614,1,2,0:0:0:0:
448,192,75614,1,0,0:0:0:0:
64,192,75764,1,8,0:0:0:0:
192,192,75764,1,0,0:0:0:0:
448,192,75764,1,0,0:0:0:0:
320,192,75914,1,2,0:0:0:0:
320,192,75989,1,2,0:0:0:0:
64,192,76064,1,8,0:0:0:0:
192,192,76064,1,0,0:0:0:0:
448,192,76064,1,0,0:0:0:0:
64,192,76214,1,2,0:0:0:0:
320,192,76214,1,0,0:0:0:0:
192,192,76364,1,8,0:0:0:0:
320,192,76364,1,0,0:0:0:0:
448,192,76364,1,0,0:0:0:0:
64,192,76514,1,2,0:0:0:0:
64,192,76589,1,2,0:0:0:0:
192,192,76664,1,8,0:0:0:0:
320,192,76664,1,0,0:0:0:0:
448,192,76664,1,0,0:0:0:0:
64,192,76814,1,2,0:0:0:0:
448,192,76814,1,0,0:0:0:0:
64,192,76964,1,8,0:0:0:0:
192,192,76964,1,0,0:0:0:0:
320,192,76964,1,0,0:0:0:0:
448,192,77114,1,2,0:0:0:0:
448,192,77189,1,2,0:0:0:0:
64,192,77264,1,8,0:0:0:0:
192,192,77264,1,0,0:0:0:0:
320,192,77264,1,0,0:0:0:0:
192,192,77414,1,2,0:0:0:0:
448,192,77414,1,0,0:0:0:0:
64,192,77564,1,8,0:0:0:0:
320,192,77564,1,0,0:0:0:0:
448,192,77564,1,0,0:0:0:0:
192,192,77714,1,2,0:0:0:0:
320,192,77714,1,0,0:0:0:0:
64,192,77864,1,8,0:0:0:0:
192,192,77864,1,0,0:0:0:0:
448,192,77864,1,0,0:0:0:0:
64,192,78014,1,2,0:0:0:0:
320,192,78014,1,0,0:0:0:0:
64,192,78164,1,8,0:0:0:0:
192,192,78164,1,4,0:0:0:0:
320,192,78164,1,0,0:0:0:0:
448,192,78164,1,0,0:0:0:0:
320,192,78464,1,2,0:0:0:0:
448,192,78464,1,0,0:0:0:0:
64,192,78539,1,8,0:0:0:0:
192,192,78539,1,0,0:0:0:0:
64,192,78614,1,8,0:0:0:0:
192,192,78614,1,0,0:0:0:0:
320,192,78689,1,8,0:0:0:0:
448,192,78689,1,0,0:0:0:0:
64,192,78764,1,2,0:0:0:0:
192,192,78764,1,0,0:0:0:0:
320,192,78839,1,8,0:0:0:0:
448,192,78839,1,0,0:0:0:0:
320,192,78914,1,8,0:0:0:0:
448,192,78914,1,0,0:0:0:0:
192,192,78989,1,8,0:0:0:0:
64,192,79064,1,2,0:0:0:0:
320,192,79064,1,4,0:0:0:0:
448,192,79064,128,0,79514:0:0:0:0:
64,192,79514,1,2,0:0:0:0:
64,192,79589,1,2,0:0:0:0:
192,192,79664,1,8,0:0:0:0:
320,192,79664,1,4,0:0:0:0:
448,192,79664,1,0,0:0:0:0:
320,192,79814,1,8,0:0:0:0:
448,192,79814,1,0,0:0:0:0:
64,192,79889,1,8,0:0:0:0:
192,192,79889,1,0,0:0:0:0:
320,192,79964,1,2,0:0:0:0:
448,192,79964,1,0,0:0:0:0:
64,192,80039,1,8,0:0:0:0:
192,192,80039,1,0,0:0:0:0:
320,192,80114,1,8,0:0:0:0:
448,192,80114,1,0,0:0:0:0:
192,192,80189,1,8,0:0:0:0:
64,192,80264,128,2,80564:0:0:0:0:
320,192,80264,1,4,0:0:0:0:
448,192,80264,128,0,80414:0:0:0:0:
192,192,80414,128,0,80714:0:0:0:0:
320,192,80564,128,8,80714:0:0:0:0:
448,192,80564,128,0,80864:0:0:0:0:
64,192,80714,128,0,80864:0:0:0:0:
192,192,80864,128,2,81014:0:0:0:0:
320,192,80864,1,0,0:0:0:0:
64,192,81014,1,2,0:0:0:0:
448,192,81014,1,0,0:0:0:0:
64,192,81164,1,8,0:0:0:0:
320,192,81164,1,0,0:0:0:0:
448,192,81164,1,0,0:0:0:0:
192,192,81314,128,0,81464:0:0:0:0:
320,192,81464,128,2,81614:0:0:0:0:
448,192,81464,128,0,81764:0:0:0:0:
64,192,81614,128,0,81764:0:0:0:0:
192,192,81764,128,8,82064:0:0:0:0:
320,192,81764,128,0,81914:0:0:0:0:
64,192,81914,128,0,82064:0:0:0:0:
320,192,82064,128,2,82214:0:0:0:0:
448,192,82064,128,0,82364:0:0:0:0:
64,192,82214,1,2,0:0:0:0:
192,192,82214,1,0,0:0:0:0:
64,192,82364,1,8,0:0:0:0:
192,192,82364,1,0,0:0:0:0:
320,192,82364,1,0,0:0:0:0:
448,192,82514,128,0,82664:0:0:0:0:
64,192,82664,128,2,82964:0:0:0:0:
320,192,82664,128,0,82814:0:0:0:0:
192,192,82814,128,0,83114:0:0:0:0:
320,192,82964,128,8,83114:0:0:0:0:
448,192,82964,128,0,83114:0:0:0:0:
64,192,83114,128,0,83264:0:0:0:0:
320,192,83264,1,2,0:0:0:0:
448,192,83264,1,0,0:0:0:0:
192,192,83414,128,2,83564:0:0:0:0:
448,192,83414,128,0,83714:0:0:0:0:
64,192,83564,128,8,83864:0:0:0:0:
320,192,83564,128,0,83714:0:0:0:0:
192,192,83714,128,0,83864:0:0:0:0:
320,192,83864,1,2,0:0:0:0:
448,192,83864,128,0,83939:0:0:0:0:
448,192,84014,128,0,84089:0:0:0:0:
64,192,84164,128,8,84314:0:0:0:0:
192,192,84164,1,0,0:0:0:0:
448,192,84164,1,0,0:0:0:0:
320,192,84314,1,0,0:0:0:0:
64,192,84464,128,2,84764:0:0:0:0:
448,192,84464,128,0,84614:0:0:0:0:
192,192,84614,128,2,84764:0:0:0:0:
320,192,84614,1,0,0:0:0:0:
320,192,84764,1,8,0:0:0:0:
448,192,84764,1,0,0:0:0:0:
192,192,84914,1,0,0:0:0:0:
320,192,84989,1,0,0:0:0:0:
64,192,85064,128,2,86114:0:0:0:0:
448,192,85064,1,4,0:0:0:0:
192,192,85364,1,8,0:0:0:0:
448,192,85364,128,0,85514:0:0:0:0:
192,192,85514,1,0,0:0:0:0:
320,192,85664,1,2,0:0:0:0:
448,192,85664,1,0,0:0:0:0:
320,192,85814,1,2,0:0:0:0:
448,192,85814,1,0,0:0:0:0:
192,192,85964,128,8,86114:0:0:0:0:
448,192,85964,1,0,0:0:0:0:
320,192,86114,1,0,0:0:0:0:
64,192,86264,128,2,86414:0:0:0:0:
448,192,86264,128,0,86564:0:0:0:0:
192,192,86414,128,0,86714:0:0:0:0:
64,192,86564,128,8,86714:0:0:0:0:
320,192,86564,128,0,86714:0:0:0:0:
448,192,86714,128,0,86864:0:0:0:0:
64,192,86864,1,2,0:0:0:0:
192,192,86864,1,0,0:0:0:0:
320,192,87014,128,2,87164:0:0:0:0:
448,192,87014,1,0,0:0:0:0:
64,192,87164,1,8,0:0:0:0:
192,192,87164,1,0,0:0:0:0:
448,192,87164,1,0,0:0:0:0:
320,192,87239,1,0,0:0:0:0:
64,192,87314,1,0,0:0:0:0:
192,192,87464,1,2,0:0:0:0:
320,192,87464,128,4,87614:0:0:0:0:
448,192,87464,128,0,87764:0:0:0:0:
64,192,87614,128,0,87914:0:0:0:0:
192,192,87764,128,8,87914:0:0:0:0:
320,192,87764,128,0,87914:0:0:0:0:
448,192,87914,128,2,88064:0:0:0:0:
64,192,88064,1,8,0:0:0:0:
192,192,88064,1,0,0:0:0:0:
320,192,88064,1,0,0:0:0:0:
64,192,88214,1,2,0:0:0:0:
192,192,88214,128,0,88514:0:0:0:0:
64,192,88364,128,8,88514:0:0:0:0:
320,192,88364,1,0,0:0:0:0:
448,192,88364,1,0,0:0:0:0:
448,192,88514,128,2,88664:0:0:0:0:
64,192,88664,1,8,0:0:0:0:
192,192,88714,1,0,0:0:0:0:
320,192,88764,1,0,0:0:0:0:
448,192,88814,1,0,0:0:0:0:
64,192,88964,1,8,0:0:0:0:
192,192,88964,1,4,0:0:0:0:
320,192,88964,1,0,0:0:0:0:
448,192,88964,1,0,0:0:0:0:
320,192,89264,1,2,0:0:0:0:
448,192,89264,1,0,0:0:0:0:
64,192,89339,1,0,0:0:0:0:
320,192,89414,1,8,0:0:0:0:
448,192,89414,1,0,0:0:0:0:
64,192,89489,1,8,0:0:0:0:
192,192,89489,1,0,0:0:0:0:
320,192,89564,1,2,0:0:0:0:
448,192,89564,1,0,0:0:0:0:
64,192,89639,1,8,0:0:0:0:
192,192,89639,1,0,0:0:0:0:
320,192,89714,1,8,0:0:0:0:
448,192,89714,1,0,0:0:0:0:
192,192,89789,1,8,0:0:0:0:
64,192,89864,1,2,0:0:0:0:
320,192,89864,128,4,90914:0:0:0:0:
448,192,89864,128,0,90914:0:0:0:0:
192,192,90914,1,2,0:0:0:0:
192,192,90989,1,2,0:0:0:0:
64,192,91064,1,8,0:0:0:0:
320,192,91064,1,0,0:0:0:0:
448,192,91064,1,0,0:0:0:0:
192,192,91214,1,0,0:0:0:70:Tom1.wav
448,192,91214,1,0,0:0:0:0:
64,192,91289,1,0,0:0:0:70:Tom2.wav
320,192,91364,1,0,0:0:0:70:Tom2.wav
448,192,91364,1,0,0:0:0:0:
64,192,91439,1,8,0:0:0:0:
192,192,91439,1,0,0:0:0:0:
64,192,91514,1,8,0:0:0:0:
192,192,91514,1,0,0:0:0:0:
448,192,91514,1,0,0:0:0:0:
320,192,91664,1,2,0:0:0:0:
448,192,91664,1,0,0:0:0:0:
64,192,91739,1,8,0:0:0:0:
192,192,91739,1,0,0:0:0:0:
448,192,91739,1,0,0:0:0:0:
64,192,91814,1,8,0:0:0:0:
320,192,91889,1,2,0:0:0:0:
448,192,91889,1,0,0:0:0:0:
64,192,91964,1,2,0:0:0:0:
192,192,91964,1,0,0:0:0:0:
320,192,92114,1,2,0:0:0:0:
448,192,92114,1,0,0:0:0:0:
192,192,92189,1,2,0:0:0:0:
64,192,92264,128,2,92714:0:0:0:0:
320,192,92264,128,4,92514:0:0:0:0:
448,192,92264,128,0,92664:0:0:0:0:
192,192,92314,128,0,92564:0:0:0:0:
