osu file format v14

[General]
AudioFilename: audio.mp3
AudioLeadIn: 0
PreviewTime: 49008
Countdown: 0
SampleSet: Soft
StackLeniency: 0.7
Mode: 3
LetterboxInBreaks: 0
SpecialStyle: 0
WidescreenStoryboard: 1

[Editor]
DistanceSpacing: 0.6
BeatDivisor: 4
GridSize: 16
TimelineZoom: 2.599999

[Metadata]
Title:Heroine wa Heikin Ika. (Cut Ver.)
TitleUnicode:ヒロインは平均以下。 (Cut Ver.)
Artist:HoneyWorks feat. Minato Aqua
ArtistUnicode:HoneyWorks feat. 湊あくあ
Creator:Rivals_7
Version:Crisper's Standard
Source:告白実行委員会
Tags:achsanlovers sherly drum-hitnormal dudehacker Crisper Confession Executive Committee 涼海ひより suzumi hiyori gom shito 告白実行委員会 -FLYING SONGS- 恋してる Kokuhaku Jikkou Iinkai FLYING SONGS: Koishiteru hololive ホロライブ japanese pop jpop virtual youtuber vtuber j-pop
BeatmapID:3912457
BeatmapSetID:1898243

[Difficulty]
HPDrainRate:7
CircleSize:4
OverallDifficulty:7
ApproachRate:5
SliderMultiplier:1.4
SliderTickRate:1

[Events]
//Background and Video events
0,0,"lysherze.jpg",0,0
//Break Periods
//Storyboard Layer 0 (Background)
//Storyboard Layer 1 (Fail)
//Storyboard Layer 2 (Pass)
//Storyboard Layer 3 (Foreground)
//Storyboard Layer 4 (Overlay)
//Storyboard Sound Samples

[TimingPoints]
1064,300,4,2,1,60,1,0
49064,-100,4,2,1,60,0,1
79064,-100,4,2,1,60,0,0

[HitObjects]
64,192,1064,1,2,0:0:0:0:
448,192,1064,128,4,1364:0:0:0:0:
192,192,1364,128,0,1514:0:0:0:0:
320,192,1514,128,0,1664:0:0:0:0:
448,192,1664,128,0,1814:0:0:0:0:
64,192,1814,1,2,0:0:0:0:
192,192,1814,1,0,0:0:0:0:
320,192,1964,1,8,0:0:0:0:
448,192,1964,1,0,0:0:0:0:
64,192,2264,128,2,2564:0:0:0:0:
448,192,2264,1,4,0:0:0:0:
320,192,2564,128,0,2714:0:0:0:0:
192,192,2714,128,0,2864:0:0:0:70:Tom1.wav
64,192,2864,128,0,3014:0:0:0:0:
320,192,3014,1,0,0:0:0:70:Tom2.wav
192,192,3164,1,0,0:0:0:70:Tom2.wav
64,192,3464,1,2,0:0:0:0:
448,192,3464,128,4,3764:0:0:0:0:
192,192,3764,128,0,3914:0:0:0:70:Tom1.wav
64,192,3914,128,0,4214:0:0:0:0:
448,192,4064,1,0,0:0:0:70:Tom2.wav
320,192,4214,128,0,4514:0:0:0:70:Tom2.wav
192,192,4514,128,0,4664:0:0:0:0:
64,192,4664,1,2,0:0:0:0:
448,192,4664,1,4,0:0:0:0:
320,192,4814,128,0,4964:0:0:0:0:
192,192,4964,1,0,0:0:0:0:
192,192,5264,1,0,0:0:0:0:
320,192,5564,128,0,5864:0:0:0:0:
64,192,5864,1,2,0:0:0:0:
448,192,5864,1,4,0:0:0:0:
192,192,6014,1,0,0:0:0:0:
320,192,6164,1,2,0:0:0:0:
448,192,6164,1,0,0:0:0:0:
64,192,6314,1,10,0:0:0:0:
192,192,6464,1,2,0:0:0:0:
448,192,6464,1,8,0:0:0:0:
320,192,6614,1,10,0:0:0:0:
64,192,6764,1,2,0:0:0:0:
448,192,6764,1,8,0:0:0:0:
192,192,6914,1,10,0:0:0:0:
64,192,7064,1,2,0:0:0:0:
320,192,7064,1,8,0:0:0:0:
448,192,7214,1,10,0:0:0:0:
64,192,7364,1,2,0:0:0:0:
192,192,7364,1,0,0:0:0:0:
320,192,7514,1,8,0:0:0:0:
64,192,7664,1,8,0:0:0:0:
192,192,7664,128,0,7964:0:0:0:0:
320,192,7964,128,8,8264:0:0:0:0:
448,192,7964,1,0,0:0:0:0:
192,192,8264,1,0,0:0:0:0:
448,192,8414,1,0,0:0:0:0:
320,192,8564,1,0,0:0:0:0:
64,192,8714,1,0,0:0:0:0:
192,192,8864,1,0,0:0:0:0:
320,192,9014,1,0,0:0:0:0:
64,192,9164,1,0,0:0:0:0:
64,192,9464,1,2,0:0:0:0:
448,192,9464,1,4,0:0:0:0:
320,192,9614,1,0,0:0:0:0:
192,192,9764,1,8,0:0:0:0:
448,192,9764,1,0,0:0:0:0:
64,192,9914,1,0,0:0:0:0:
320,192,10064,1,2,0:0:0:0:
192,192,10214,1,2,0:0:0:0:
320,192,10364,1,8,0:0:0:0:
448,192,10364,1,0,0:0:0:0:
64,192,10664,1,2,0:0:0:0:
448,192,10664,1,0,0:0:0:0:
192,192,10814,1,0,0:0:0:0:
64,192,10964,1,8,0:0:0:0:
320,192,10964,1,0,0:0:0:0:
448,192,11114,1,0,0:0:0:0:
192,192,11264,1,2,0:0:0:0:
320,192,11414,1,2,0:0:0:0:
64,192,11564,1,8,0:0:0:0:
192,192,11564,1,0,0:0:0:0:
64,192,11864,1,2,0:0:0:0:
448,192,11864,1,0,0:0:0:0:
320,192,12014,1,0,0:0:0:0:
192,192,12164,1,8,0:0:0:0:
448,192,12164,1,0,0:0:0:0:
64,192,12314,1,0,0:0:0:0:
320,192,12464,1,2,0:0:0:0:
64,192,12614,1,2,0:0:0:0:
192,192,12764,1,8,0:0:0:0:
448,192,12764,1,0,0:0:0:0:
320,192,12914,1,0,0:0:0:0:
64,192,13064,1,2,0:0:0:0:
448,192,13064,1,0,0:0:0:0:
192,192,13214,1,0,0:0:0:0:
320,192,13364,1,8,0:0:0:0:
448,192,13364,1,0,0:0:0:0:
64,192,13664,1,2,0:0:0:0:
192,192,13664,1,0,0:0:0:0:
320,192,13814,1,2,0:0:0:0:
64,192,13964,128,8,14114:0:0:0:0:
448,192,13964,1,0,0:0:0:0:
192,192,14114,128,8,14264:0:0:0:0:
320,192,14264,1,2,0:0:0:0:
448,192,14264,128,4,14864:0:0:0:0:
64,192,14564,1,8,0:0:0:0:
192,192,14564,1,0,0:0:0:0:
320,192,14864,1,2,0:0:0:0:
192,192,15014,1,2,0:0:0:0:
64,192,15164,1,8,0:0:0:0:
448,192,15164,1,0,0:0:0:0:
192,192,15464,1,2,0:0:0:0:
448,192,15464,1,0,0:0:0:0:
64,192,15614,1,0,0:0:0:0:
192,192,15764,1,8,0:0:0:0:
320,192,15764,1,0,0:0:0:0:
448,192,15914,1,0,0:0:0:0:
64,192,16064,1,2,0:0:0:0:
320,192,16214,1,2,0:0:0:0:
64,192,16364,1,8,0:0:0:0:
192,192,16364,1,0,0:0:0:0:
64,192,16664,1,2,0:0:0:0:
448,192,16664,1,0,0:0:0:0:
320,192,16814,1,0,0:0:0:0:
192,192,16964,1,8,0:0:0:0:
448,192,16964,1,0,0:0:0:0:
64,192,17114,1,0,0:0:0:0:
320,192,17264,1,2,0:0:0:0:
64,192,17414,1,2,0:0:0:0:
192,192,17564,1,8,0:0:0:0:
448,192,17564,1,4,0:0:0:0:
320,192,17714,1,0,0:0:0:0:
64,192,17864,1,2,0:0:0:0:
448,192,17864,128,0,18164:0:0:0:0:
64,192,18164,128,2,18464:0:0:0:0:
192,192,18164,1,0,0:0:0:0:
192,192,18464,128,2,18764:0:0:0:0:
320,192,18464,1,0,0:0:0:0:
64,192,18764,1,2,0:0:0:0:
320,192,18764,128,0,19064:0:0:0:0:
64,192,19064,1,2,0:0:0:0:
448,192,19064,1,4,0:0:0:0:
192,192,19364,1,8,0:0:0:0:
448,192,19364,1,0,0:0:0:0:
320,192,19664,1,2,0:0:0:0:
192,192,19814,1,2,0:0:0:0:
64,192,19964,1,8,0:0:0:0:
448,192,19964,1,0,0:0:0:0:
320,192,20114,1,2,0:0:0:0:
320,192,20414,1,2,0:0:0:0:
64,192,20564,1,8,0:0:0:0:
192,192,20564,1,0,0:0:0:0:
320,192,20864,1,2,0:0:0:0:
64,192,21014,1,2,0:0:0:0:
192,192,21164,1,8,0:0:0:0:
448,192,21164,1,0,0:0:0:0:
64,192,21464,1,2,0:0:0:0:
448,192,21464,1,0,0:0:0:0:
64,192,21764,1,8,0:0:0:0:
320,192,21764,1,0,0:0:0:0:
192,192,22064,1,2,0:0:0:0:
320,192,22214,1,2,0:0:0:0:
64,192,22364,1,8,0:0:0:0:
448,192,22364,1,0,0:0:0:0:
192,192,22514,1,2,0:0:0:0:
192,192,22814,1,2,0:0:0:0:
320,192,22964,1,8,0:0:0:0:
448,192,22964,1,0,0:0:0:0:
64,192,23264,1,2,0:0:0:0:
448,192,23414,1,2,0:0:0:0:
192,192,23564,1,8,0:0:0:0:
320,192,23564,1,0,0:0:0:0:
64,192,23864,1,2,0:0:0:0:
448,192,23864,1,0,0:0:0:0:
64,192,24164,1,8,0:0:0:0:
192,192,24164,1,0,0:0:0:0:
448,192,24464,1,2,0:0:0:0:
192,192,24614,1,2,0:0:0:0:
64,192,24764,1,8,0:0:0:0:
320,192,24764,1,0,0:0:0:0:
448,192,24914,1,2,0:0:0:0:
448,192,25214,1,2,0:0:0:0:
64,192,25364,1,8,0:0:0:0:
192,192,25364,1,0,0:0:0:0:
320,192,25664,1,2,0:0:0:0:
64,192,25814,1,2,0:0:0:0:
192,192,25964,1,8,0:0:0:0:
448,192,25964,1,0,0:0:0:0:
64,192,26264,1,2,0:0:0:0:
448,192,26264,1,0,0:0:0:0:
64,192,26564,1,8,0:0:0:0:
320,192,26564,1,0,0:0:0:0:
192,192,26864,1,2,0:0:0:0:
320,192,27014,1,2,0:0:0:0:
64,192,27164,1,8,0:0:0:0:
448,192,27164,1,0,0:0:0:0:
192,192,27464,1,0,0:0:0:70:Tom1.wav
320,192,27614,1,0,0:0:0:70:Tom2.wav
64,192,27764,1,2,0:0:0:0:
448,192,27914,1,2,0:0:0:0:
64,192,28064,1,2,0:0:0:0:
192,192,28064,128,4,28214:0:0:0:0:
320,192,28214,128,8,28364:0:0:0:0:
64,192,28364,128,8,28514:0:0:0:0:
192,192,28514,128,8,28664:0:0:0:0:
320,192,28664,1,2,0:0:0:0:
448,192,28664,1,0,0:0:0:0:
64,192,28814,1,0,0:0:0:0:
192,192,28964,1,8,0:0:0:0:
448,192,28964,1,0,0:0:0:0:
64,192,29114,1,0,0:0:0:0:
448,192,29264,1,2,0:0:0:0:
192,192,29414,1,2,0:0:0:0:
64,192,29564,1,8,0:0:0:0:
448,192,29564,1,0,0:0:0:0:
320,192,29714,1,2,0:0:0:0:
64,192,29864,1,0,0:0:0:0:
448,192,30014,1,2,0:0:0:0:
64,192,30164,1,8,0:0:0:0:
320,192,30164,1,0,0:0:0:0:
192,192,30314,1,0,0:0:0:0:
320,192,30464,1,2,0:0:0:0:
64,192,30614,1,2,0:0:0:0:
320,192,30764,1,8,0:0:0:0:
448,192,30764,1,0,0:0:0:0:
64,192,31064,1,2,0:0:0:0:
192,192,31064,1,0,0:0:0:0:
448,192,31214,1,0,0:0:0:0:
64,192,31364,1,8,0:0:0:0:
320,192,31364,1,0,0:0:0:0:
448,192,31514,1,0,0:0:0:0:
64,192,31664,1,2,0:0:0:0:
320,192,31814,1,2,0:0:0:0:
64,192,31964,1,8,0:0:0:0:
448,192,31964,1,0,0:0:0:0:
192,192,32114,1,2,0:0:0:0:
448,192,32264,1,0,0:0:0:0:
192,192,32414,1,2,0:0:0:0:
64,192,32564,1,8,0:0:0:0:
448,192,32564,1,0,0:0:0:0:
320,192,32714,1,0,0:0:0:0:
192,192,32864,1,2,0:0:0:0:
320,192,33014,1,2,0:0:0:0:
64,192,33164,1,8,0:0:0:0:
448,192,33164,1,0,0:0:0:0:
192,192,33464,1,2,0:0:0:0:
320,192,33464,1,0,0:0:0:0:
64,192,33614,1,0,0:0:0:0:
320,192,33764,1,8,0:0:0:0:
448,192,33764,1,0,0:0:0:0:
192,192,33914,1,0,0:0:0:0:
320,192,34064,1,2,0:0:0:0:
64,192,34214,1,2,0:0:0:0:
192,192,34364,1,8,0:0:0:0:
320,192,34364,1,0,0:0:0:0:
448,192,34514,1,2,0:0:0:0:
192,192,34664,1,0,0:0:0:0:
448,192,34814,1,2,0:0:0:0:
64,192,34964,1,8,0:0:0:0:
192,192,34964,1,0,0:0:0:0:
320,192,35114,1,0,0:0:0:0:
192,192,35264,1,2,0:0:0:0:
64,192,35414,1,2,0:0:0:0:
320,192,35564,1,8,0:0:0:0:
448,192,35564,1,0,0:0:0:0:
64,192,35864,1,2,0:0:0:0:
192,192,35864,1,4,0:0:0:0:
320,192,36014,1,0,0:0:0:0:
64,192,36164,1,8,0:0:0:0:
192,192,36164,1,0,0:0:0:0:
320,192,36464,1,2,0:0:0:0:
448,192,36464,1,0,0:0:0:0:
192,192,36614,1,2,0:0:0:0:
320,192,36764,1,8,0:0:0:0:
448,192,36764,1,0,0:0:0:0:
64,192,37064,1,8,0:0:0:0:
192,192,37064,1,4,0:0:0:0:
192,192,37214,1,8,0:0:0:0:
320,192,37364,1,2,0:0:0:0:
320,192,37514,1,8,0:0:0:0:
64,192,37664,128,2,38264:0:0:0:0:
448,192,37664,1,0,0:0:0:0:
320,192,38264,1,4,0:0:0:0:
448,192,38264,1,2,0:0:0:0:
64,192,38564,1,8,0:0:0:0:
448,192,38564,1,0,0:0:0:0:
192,192,38714,1,8,0:0:0:0:
64,192,38864,1,2,0:0:0:0:
448,192,38864,1,0,0:0:0:0:
192,192,39164,1,8,0:0:0:0:
320,192,39164,1,0,0:0:0:0:
64,192,39464,1,2,0:0:0:0:
192,192,39464,1,0,0:0:0:0:
64,192,39764,1,8,0:0:0:0:
448,192,39764,1,0,0:0:0:0:
320,192,39914,1,8,0:0:0:0:
64,192,40064,1,0,0:0:0:0:
448,192,40064,1,0,0:0:0:0:
192,192,40364,1,8,0:0:0:0:
320,192,40364,1,0,0:0:0:0:
320,192,40664,1,2,0:0:0:0:
448,192,40664,1,0,0:0:0:0:
64,192,40964,1,8,0:0:0:0:
448,192,40964,1,0,0:0:0:0:
192,192,41114,1,8,0:0:0:0:
64,192,41264,1,2,0:0:0:0:
448,192,41264,1,0,0:0:0:0:
192,192,41564,1,8,0:0:0:0:
320,192,41564,1,0,0:0:0:0:
64,192,41864,1,2,0:0:0:0:
192,192,41864,1,0,0:0:0:0:
64,192,42164,1,8,0:0:0:0:
448,192,42164,1,0,0:0:0:0:
320,192,42314,1,8,0:0:0:0:
64,192,42464,1,0,0:0:0:0:
448,192,42464,1,0,0:0:0:0:
320,192,42764,128,8,42914:0:0:0:0:
448,192,42764,1,0,0:0:0:0:
192,192,42914,128,2,43064:0:0:0:0:
64,192,43064,1,8,0:0:0:0:
448,192,43064,1,4,0:0:0:0:
64,192,43364,1,8,0:0:0:0:
320,192,43364,1,0,0:0:0:0:
192,192,43514,1,2,0:0:0:0:
64,192,43664,1,8,0:0:0:0:
448,192,43664,1,0,0:0:0:0:
320,192,43814,1,2,0:0:0:0:
64,192,43964,1,8,0:0:0:0:
192,192,43964,128,0,44114:0:0:0:0:
320,192,44114,128,2,44264:0:0:0:0:
64,192,44264,1,8,0:0:0:0:
448,192,44264,1,0,0:0:0:0:
192,192,44564,1,8,0:0:0:0:
448,192,44564,1,4,0:0:0:0:
320,192,44714,1,8,0:0:0:0:
64,192,44864,1,2,0:0:0:0:
448,192,44864,1,0,0:0:0:0:
192,192,45014,1,2,0:0:0:0:
320,192,45164,128,2,45464:0:0:0:0:
448,192,45164,1,0,0:0:0:0:
64,192,45464,1,2,0:0:0:0:
192,192,45464,128,4,45664:0:0:0:0:
448,192,45664,128,0,45864:0:0:0:0:
320,192,45864,128,0,46064:0:0:0:0:
192,192,46064,128,0,46264:0:0:0:0:
448,192,46264,128,0,46464:0:0:0:0:
64,192,46464,128,0,46664:0:0:0:0:
320,192,46664,1,8,0:0:0:0:
448,192,46664,1,4,0:0:0:0:
64,192,46964,1,2,0:0:0:0:
192,192,46964,1,0,0:0:0:0:
320,192,47114,1,8,0:0:0:0:
64,192,47264,1,2,0:0:0:0:
448,192,47264,1,0,0:0:0:0:
192,192,47414,1,8,0:0:0:0:
320,192,47564,1,8,0:0:0:0:
448,192,47564,1,0,0:0:0:0:
192,192,47714,1,8,0:0:0:0:
64,192,47864,128,8,48014:0:0:0:0:
448,192,47864,1,0,0:0:0:0:
64,192,48164,1,2,0:0:0:0:
448,192,48164,128,0,48314:0:0:0:0:
64,192,48464,128,2,48764:0:0:0:0:
448,192,48464,1,0,0:0:0:0:
320,192,48764,128,8,49064:0:0:0:0:
64,192,49064,128,2,49214:0:0:0:0:
448,192,49064,1,4,0:0:0:0:
192,192,49214,128,0,49364:0:0:0:0:
320,192,49364,128,8,49514:0:0:0:0:
448,192,49364,1,0,0:0:0:0:
192,192,49514,128,0,49664:0:0:0:0:
64,192,49664,128,2,49814:0:0:0:0:
448,192,49664,1,0,0:0:0:0:
320,192,49814,1,2,0:0:0:0:
64,192,49964,1,8,0:0:0:0:
192,192,49964,1,0,0:0:0:0:
64,192,50264,1,2,0:0:0:0:
448,192,50264,128,0,50414:0:0:0:0:
320,192,50414,128,0,50564:0:0:0:0:
64,192,50564,1,8,0:0:0:0:
192,192,50564,128,0,50714:0:0:0:0:
320,192,50714,128,0,50864:0:0:0:0:
64,192,50864,1,2,0:0:0:0:
448,192,50864,128,0,51014:0:0:0:0:
192,192,51014,1,2,0:0:0:0:
320,192,51164,1,8,0:0:0:0:
448,192,51164,1,0,0:0:0:0:
64,192,51464,1,2,0:0:0:0:
192,192,51464,128,0,51614:0:0:0:0:
320,192,51614,128,0,51764:0:0:0:0:
64,192,51764,128,8,51914:0:0:0:0:
448,192,51764,1,0,0:0:0:0:
192,192,51914,128,0,52064:0:0:0:0:
320,192,52064,1,2,0:0:0:0:
448,192,52064,1,0,0:0:0:0:
192,192,52214,128,2,52364:0:0:0:0:
64,192,52364,1,8,0:0:0:0:
448,192,52364,128,0,52514:0:0:0:0:
320,192,52514,128,0,52664:0:0:0:0:
64,192,52664,1,2,0:0:0:0:
192,192,52664,1,0,0:0:0:0:
320,192,52814,128,0,52964:0:0:0:0:
64,192,52964,1,8,0:0:0:0:
448,192,52964,128,0,53114:0:0:0:0:
192,192,53264,128,2,53414:0:0:0:0:
320,192,53264,1,0,0:0:0:0:
64,192,53414,1,2,0:0:0:0:
320,192,53564,1,8,0:0:0:0:
448,192,53564,1,0,0:0:0:0:
192,192,53864,1,2,0:0:0:0:
448,192,53864,128,4,54014:0:0:0:0:
64,192,54014,128,0,54164:0:0:0:0:
320,192,54164,1,8,0:0:0:0:
448,192,54164,128,0,54314:0:0:0:0:
64,192,54314,128,0,54464:0:0:0:0:
192,192,54464,1,2,0:0:0:0:
448,192,54464,128,0,54614:0:0:0:0:
64,192,54614,128,2,54764:0:0:0:0:
320,192,54764,1,8,0:0:0:0:
448,192,54764,128,0,54914:0:0:0:0:
64,192,54914,128,0,55064:0:0:0:0:
192,192,55064,1,2,0:0:0:0:
448,192,55064,128,0,55214:0:0:0:0:
64,192,55214,128,0,55364:0:0:0:0:
320,192,55364,1,8,0:0:0:0:
448,192,55364,128,0,55514:0:0:0:0:
64,192,55514,128,0,55664:0:0:0:0:
192,192,55664,1,2,0:0:0:0:
320,192,55664,128,0,55964:0:0:0:0:
192,192,55964,128,8,56264:0:0:0:0:
448,192,55964,1,0,0:0:0:0:
320,192,56264,1,2,0:0:0:0:
448,192,56264,1,0,0:0:0:0:
64,192,56414,1,0,0:0:0:0:
320,192,56564,1,8,0:0:0:0:
448,192,56564,1,0,0:0:0:0:
192,192,56714,1,0,0:0:0:0:
64,192,56864,1,2,0:0:0:0:
448,192,56864,1,0,0:0:0:0:
320,192,57014,1,2,0:0:0:0:
64,192,57164,1,8,0:0:0:0:
192,192,57164,1,0,0:0:0:0:
64,192,57464,128,2,57614:0:0:0:0:
448,192,57464,128,4,57614:0:0:0:0:
320,192,57614,128,8,57764:0:0:0:0:
192,192,57764,128,2,57914:0:0:0:0:
64,192,57914,128,8,58064:0:0:0:0:
448,192,57914,128,0,58064:0:0:0:0:
192,192,58214,128,8,58664:0:0:0:0:
320,192,58214,128,0,58664:0:0:0:0:
64,192,58664,1,2,0:0:0:0:
448,192,58664,128,4,58814:0:0:0:0:
320,192,58814,128,0,58964:0:0:0:0:
64,192,58964,1,8,0:0:0:0:
192,192,58964,128,0,59114:0:0:0:0:
320,192,59114,128,0,59264:0:0:0:0:
64,192,59264,1,2,0:0:0:0:
448,192,59264,128,0,59414:0:0:0:0:
192,192,59414,1,2,0:0:0:0:
320,192,59564,1,8,0:0:0:0:
448,192,59564,1,0,0:0:0:0:
64,192,59864,128,2,60014:0:0:0:0:
448,192,59864,1,0,0:0:0:0:
192,192,60014,128,0,60164:0:0:0:0:
320,192,60164,128,8,60314:0:0:0:0:
448,192,60164,1,0,0:0:0:0:
192,192,60314,128,0,60464:0:0:0:0:
64,192,60464,128,2,60614:0:0:0:0:
448,192,60464,1,0,0:0:0:0:
320,192,60614,1,2,0:0:0:0:
64,192,60764,1,8,0:0:0:0:
192,192,60764,1,0,0:0:0:0:
320,192,61064,128,2,61214:0:0:0:0:
448,192,61064,1,0,0:0:0:0:
192,192,61214,128,0,61364:0:0:0:0:
64,192,61364,1,8,0:0:0:0:
448,192,61364,128,0,61514:0:0:0:0:
320,192,61514,128,0,61664:0:0:0:0:
64,192,61664,1,2,0:0:0:0:
192,192,61664,1,0,0:0:0:0:
320,192,61814,128,2,61964:0:0:0:0:
64,192,61964,128,8,62114:0:0:0:0:
448,192,61964,1,0,0:0:0:0:
192,192,62114,128,0,62264:0:0:0:0:
320,192,62264,1,2,0:0:0:0:
448,192,62264,1,0,0:0:0:0:
192,192,62414,128,0,62564:0:0:0:0:
64,192,62564,128,8,62714:0:0:0:0:
448,192,62564,1,0,0:0:0:0:
192,192,62864,1,2,0:0:0:0:
320,192,62864,128,0,63014:0:0:0:0:
448,192,63014,1,2,0:0:0:0:
64,192,63164,1,8,0:0:0:0:
192,192,63164,1,0,0:0:0:0:
64,192,63464,1,2,0:0:0:0:
320,192,63464,128,4,63614:0:0:0:0:
192,192,63614,128,0,63764:0:0:0:0:
320,192,63764,128,8,63914:0:0:0:0:
448,192,63764,1,0,0:0:0:0:
192,192,63914,128,0,64064:0:0:0:0:
64,192,64064,1,2,0:0:0:0:
320,192,64064,128,0,64214:0:0:0:0:
192,192,64214,128,2,64364:0:0:0:0:
320,192,64364,128,8,64514:0:0:0:0:
448,192,64364,1,0,0:0:0:0:
192,192,64514,128,0,64664:0:0:0:0:
64,192,64664,1,2,0:0:0:0:
320,192,64664,128,0,64814:0:0:0:0:
192,192,64814,128,0,64964:0:0:0:0:
320,192,64964,128,8,65114:0:0:0:0:
448,192,64964,1,0,0:0:0:0:
192,192,65114,128,0,65264:0:0:0:0:
64,192,65264,1,2,0:0:0:0:
448,192,65264,128,0,65564:0:0:0:0:
64,192,65564,128,8,65864:0:0:0:0:
320,192,65564,1,0,0:0:0:0:
320,192,65864,1,2,0:0:0:0:
448,192,65864,1,0,0:0:0:0:
192,192,66014,1,0,0:0:0:0:
320,192,66164,1,8,0:0:0:0:
448,192,66164,1,0,0:0:0:0:
192,192,66314,1,0,0:0:0:0:
64,192,66464,1,2,0:0:0:0:
448,192,66464,1,0,0:0:0:0:
320,192,66614,1,2,0:0:0:0:
64,192,66764,1,8,0:0:0:0:
192,192,66764,1,0,0:0:0:0:
320,192,66914,1,2,0:0:0:0:
64,192,67064,1,8,0:0:0:0:
192,192,67064,1,4,0:0:0:0:
64,192,67364,128,2,67664:0:0:0:0:
448,192,67364,1,0,0:0:0:0:
192,192,67664,1,8,0:0:0:0:
448,192,67664,128,0,67964:0:0:0:0:
192,192,67964,128,2,68264:0:0:0:0:
320,192,67964,1,0,0:0:0:0:
64,192,68264,1,4,0:0:0:0:
448,192,68264,1,2,0:0:0:0:
320,192,68564,128,8,68864:0:0:0:0:
448,192,68564,128,0,68864:0:0:0:0:
64,192,68864,1,2,0:0:0:0:
192,192,68864,1,0,0:0:0:0:
320,192,69014,1,2,0:0:0:0:
64,192,69164,1,8,0:0:0:0:
448,192,69164,1,0,0:0:0:0:
192,192,69464,1,2,0:0:0:0:
320,192,69464,1,0,0:0:0:0:
64,192,69614,128,0,69764:0:0:0:0:
320,192,69764,128,8,69914:0:0:0:0:
448,192,69764,1,0,0:0:0:0:
192,192,69914,128,0,70064:0:0:0:0:
64,192,70064,1,2,0:0:0:0:
448,192,70064,1,0,0:0:0:0:
320,192,70214,128,2,70364:0:0:0:0:
192,192,70364,128,8,70664:0:0:0:0:
448,192,70364,1,0,0:0:0:0:
64,192,70664,1,2,0:0:0:0:
320,192,70664,128,0,70964:0:0:0:0:
64,192,70964,128,8,71264:0:0:0:0:
448,192,70964,1,0,0:0:0:0:
192,192,71264,1,2,0:0:0:0:
448,192,71264,128,0,71564:0:0:0:0:
64,192,71564,1,2,0:0:0:0:
192,192,71564,128,0,71864:0:0:0:0:
320,192,71864,1,2,0:0:0:0:
448,192,71864,1,4,0:0:0:0:
64,192,72164,1,8,0:0:0:0:
448,192,72164,1,0,0:0:0:0:
64,192,72464,1,2,0:0:0:0:
192,192,72464,128,0,72614:0:0:0:0:
320,192,72614,128,2,72764:0:0:0:0:
64,192,72764,1,8,0:0:0:0:
448,192,72764,1,0,0:0:0:0:
192,192,73064,1,2,0:0:0:0:
320,192,73064,1,0,0:0:0:0:
320,192,73364,128,8,73514:0:0:0:0:
448,192,73364,1,0,0:0:0:0:
192,192,73514,128,0,73664:0:0:0:0:
64,192,73664,1,2,0:0:0:0:
448,192,73664,1,0,0:0:0:0:
320,192,73814,128,2,74264:0:0:0:0:
64,192,73964,1,8,0:0:0:0:
192,192,73964,1,0,0:0:0:0:
192,192,74264,128,2,74564:0:0:0:0:
448,192,74264,1,0,0:0:0:0:
64,192,74564,1,8,0:0:0:0:
320,192,74564,128,0,74864:0:0:0:0:
64,192,74864,128,2,75164:0:0:0:0:
448,192,74864,1,0,0:0:0:0:
320,192,75164,1,2,0:0:0:0:
448,192,75164,128,0,75464:0:0:0:0:
64,192,75464,1,8,0:0:0:0:
192,192,75464,1,4,0:0:0:0:
320,192,75614,1,2,0:0:0:0:
64,192,75764,1,8,0:0:0:0:
192,192,75764,1,0,0:0:0:0:
320,192,75914,1,2,0:0:0:0:
64,192,76064,1,8,0:0:0:0:
448,192,76064,1,0,0:0:0:0:
192,192,76214,1,2,0:0:0:0:
320,192,76364,1,8,0:0:0:0:
448,192,76364,1,0,0:0:0:0:
192,192,76514,1,2,0:0:0:0:
320,192,76664,1,8,0:0:0:0:
448,192,76664,1,0,0:0:0:0:
64,192,76814,1,2,0:0:0:0:
192,192,76964,1,8,0:0:0:0:
320,192,76964,1,0,0:0:0:0:
448,192,77114,1,2,0:0:0:0:
64,192,77264,1,8,0:0:0:0:
192,192,77264,1,0,0:0:0:0:
320,192,77414,1,2,0:0:0:0:
192,192,77564,1,8,0:0:0:0:
448,192,77564,1,0,0:0:0:0:
64,192,77714,1,2,0:0:0:0:
320,192,77864,1,8,0:0:0:0:
448,192,77864,128,0,78164:0:0:0:0:
64,192,78164,1,8,0:0:0:0:
192,192,78164,128,4,78464:0:0:0:0:
320,192,78464,128,2,78764:0:0:0:0:
448,192,78464,1,0,0:0:0:0:
64,192,78764,128,2,79064:0:0:0:0:
192,192,78764,1,0,0:0:0:0:
320,192,79064,128,2,79514:0:0:0:0:
448,192,79064,128,4,79514:0:0:0:0:
192,192,79514,1,2,0:0:0:0:
64,192,79664,1,8,0:0:0:0:
448,192,79664,1,4,0:0:0:0:
320,192,79814,1,8,0:0:0:0:
192,192,79964,1,2,0:0:0:0:
320,192,80114,1,8,0:0:0:0:
64,192,80264,1,2,0:0:0:0:
448,192,80264,1,4,0:0:0:0:
192,192,80414,1,0,0:0:0:0:
64,192,80564,1,8,0:0:0:0:
320,192,80564,1,0,0:0:0:0:
448,192,80714,1,0,0:0:0:0:
192,192,80864,1,2,0:0:0:0:
320,192,81014,1,2,0:0:0:0:
64,192,81164,1,8,0:0:0:0:
192,192,81164,1,0,0:0:0:0:
64,192,81464,1,2,0:0:0:0:
448,192,81464,1,0,0:0:0:0:
320,192,81614,1,0,0:0:0:0:
192,192,81764,1,8,0:0:0:0:
448,192,81764,1,0,0:0:0:0:
64,192,81914,1,0,0:0:0:0:
320,192,82064,1,2,0:0:0:0:
192,192,82214,1,2,0:0:0:0:
320,192,82364,1,8,0:0:0:0:
448,192,82364,1,0,0:0:0:0:
64,192,82664,1,2,0:0:0:0:
448,192,82664,1,0,0:0:0:0:
192,192,82814,1,0,0:0:0:0:
64,192,82964,1,8,0:0:0:0:
320,192,82964,1,0,0:0:0:0:
448,192,83114,1,0,0:0:0:0:
192,192,83264,1,2,0:0:0:0:
448,192,83414,1,2,0:0:0:0:
64,192,83564,1,8,0:0:0:0:
320,192,83564,1,0,0:0:0:0:
192,192,83714,1,0,0:0:0:0:
64,192,83864,1,2,0:0:0:0:
448,192,83864,1,0,0:0:0:0:
320,192,84014,1,0,0:0:0:0:
64,192,84164,1,8,0:0:0:0:
192,192,84164,1,0,0:0:0:0:
64,192,84464,1,2,0:0:0:0:
448,192,84464,1,0,0:0:0:0:
192,192,84614,1,2,0:0:0:0:
320,192,84764,1,8,0:0:0:0:
448,192,84764,1,0,0:0:0:0:
64,192,85064,128,2,85664:0:0:0:0:
192,192,85064,1,4,0:0:0:0:
320,192,85364,1,8,0:0:0:0:
448,192,85364,1,0,0:0:0:0:
192,192,85664,1,2,0:0:0:0:
320,192,85814,1,2,0:0:0:0:
64,192,85964,1,8,0:0:0:0:
448,192,85964,1,0,0:0:0:0:
64,192,86264,1,2,0:0:0:0:
320,192,86264,1,0,0:0:0:0:
448,192,86414,1,0,0:0:0:0:
192,192,86564,1,8,0:0:0:0:
320,192,86564,1,0,0:0:0:0:
64,192,86714,1,0,0:0:0:0:
448,192,86864,1,2,0:0:0:0:
192,192,87014,1,2,0:0:0:0:
320,192,87164,1,8,0:0:0:0:
448,192,87164,1,0,0:0:0:0:
64,192,87464,1,2,0:0:0:0:
448,192,87464,1,4,0:0:0:0:
192,192,87614,1,0,0:0:0:0:
64,192,87764,1,8,0:0:0:0:
320,192,87764,1,0,0:0:0:0:
448,192,87914,1,2,0:0:0:0:
64,192,88064,1,8,0:0:0:0:
192,192,88064,1,0,0:0:0:0:
448,192,88214,1,2,0:0:0:0:
64,192,88364,1,8,0:0:0:0:
320,192,88364,1,0,0:0:0:0:
192,192,88514,1,2,0:0:0:0:
320,192,88664,1,8,0:0:0:0:
448,192,88664,1,0,0:0:0:0:
64,192,88814,1,2,0:0:0:0:
192,192,88964,1,8,0:0:0:0:
448,192,88964,128,4,89264:0:0:0:0:
192,192,89264,128,2,89564:0:0:0:0:
320,192,89264,1,0,0:0:0:0:
64,192,89564,1,2,0:0:0:0:
320,192,89564,128,0,89864:0:0:0:0:
64,192,89864,128,2,90914:0:0:0:0:
448,192,89864,1,4,0:0:0:0:
192,192,90914,1,2,0:0:0:0:
320,192,91064,1,8,0:0:0:0:
448,192,91064,1,0,0:0:0:0:
64,192,91214,1,0,0:0:0:70:Tom1.wav
320,192,91364,1,0,0:0:0:70:Tom2.wav
448,192,91364,1,0,0:0:0:0:
192,192,91514,1,8,0:0:0:0:
64,192,91664,1,2,0:0:0:0:
320,192,91664,1,0,0:0:0:0:
448,192,91814,1,8,0:0:0:0:
192,192,91964,1,2,0:0:0:0:
320,192,92114,1,2,0:0:0:0:
64,192,92264,128,2,92714:0:0:0:0:
448,192,92264,128,4,92714:0:0:0:0:
