osu file format v14

[General]
AudioFilename: audio.mp3
AudioLeadIn: 0
PreviewTime: 213947
Countdown: 0
SampleSet: Soft
StackLeniency: 0.4
Mode: 0
LetterboxInBreaks: 0
WidescreenStoryboard: 1

[Editor]
DistanceSpacing: 0.8
BeatDivisor: 3
GridSize: 16
TimelineZoom: 1.5

[Metadata]
Title:Hokori Takaki Idol
TitleUnicode:誇り高きアイドル
Artist:HoneyWorks feat. Kotoha
ArtistUnicode:HoneyWorks feat. Kotoha
Creator:aundy
Version:Hard
Source:
Tags:arronchu1207 lit120 -Hakurei- jpop j-pop japanese pop 告白実行委員会 -FLYING SONGS- 愛してる Kokuhaku Jikkou Iinkai Aishiteru Mona Narumi 成海 萌奈 A Proud Confession Executive Committee
BeatmapID:3783818
BeatmapSetID:1840881

[Difficulty]
HPDrainRate:4
CircleSize:3.5
OverallDifficulty:6
ApproachRate:8
SliderMultiplier:1.4
SliderTickRate:1

[Events]
//Background and Video events
0,0,"wwwwwwww.jpg",0,0
Video,0,"video.mp4"
//Break Periods
2,46979,56149
2,116375,121209
2,156858,166029
2,203123,212836
//Storyboard Layer 0 (Background)
//Storyboard Layer 1 (Fail)
//Storyboard Layer 2 (Pass)
//Storyboard Layer 3 (Foreground)
//Storyboard Layer 4 (Overlay)
//Storyboard Sound Samples

[TimingPoints]
514,361.44578313253,4,2,2,50,1,0
514,-111.111111111111,4,2,2,50,0,0
11718,-111.111111111111,4,2,1,50,0,0
12080,-100,4,2,1,70,0,0
23646,-111.111111111111,4,2,2,50,0,0
34489,-111.111111111111,4,2,1,50,0,0
35212,-111.111111111111,4,2,1,60,0,0
46779,-111.111111111111,4,2,1,50,0,0
56899,-111.111111111111,4,2,1,60,0,0
57622,-111.111111111111,4,2,1,70,0,0
58345,-100,4,2,1,70,0,0
64128,-100,4,2,1,60,0,0
69911,-90.9090909090909,4,2,1,80,0,1
81477,-100,4,2,1,70,0,0
93044,-111.111111111111,4,2,1,55,0,0
104610,-111.111111111111,4,2,1,60,0,0
116176,-111.111111111111,4,2,1,60,0,0
121959,-111.111111111111,4,2,1,60,0,0
127020,-111.111111111111,4,2,1,70,0,0
127742,-100,4,2,1,70,0,0
139309,-90.9090909090909,4,2,1,80,0,1
156658,-90.9090909090909,4,2,1,40,0,0
168224,-111.111111111111,4,2,1,60,0,0
179791,-100,4,2,1,70,0,0
191357,-125,4,2,1,60,0,0
214489,-100,4,2,1,60,0,0
226056,-90.9090909090909,4,2,1,80,0,1
237622,-100,4,2,1,70,0,0

[Colours]
Combo1 : 255,192,0
Combo2 : 176,255,255
Combo3 : 64,150,255
Combo4 : 255,255,151

[HitObjects]
83,237,514,6,0,P|105:196|235:203,1,188.999994232178,6|2,3:2|3:2,0:0:0:0:
283,116,1236,2,0,P|324:104|357:94,1,62.9999980773926,10|0,0:2|0:0,0:0:0:0:
395,170,1598,2,0,P|425:179|455:187,1,62.9999980773926,2|0,0:0|0:0,0:0:0:0:
512,285,1959,6,0,B|442:266|461:315|389:297,1,125.999996154785,2|2,3:2|3:2,0:0:0:0:
322,241,2501,1,2,0:0:0:0:
322,241,2682,2,0,P|291:238|264:254,1,62.9999980773926,10|0,0:2|0:0,0:0:0:0:
227,335,3044,2,0,P|200:350|169:348,1,62.9999980773926,2|2,0:0|3:2,0:0:0:0:
63,323,3405,6,0,B|51:274|33:195|33:195|49:224|80:231,1,188.999994232178,2|2,3:2|3:2,0:0:0:0:
110,148,4128,2,0,P|140:138|170:130,1,62.9999980773926,10|0,0:2|0:0,0:0:0:0:
223,201,4489,2,0,P|253:209|283:218,1,62.9999980773926,2|0,0:0|0:0,0:0:0:0:
373,152,4851,6,0,P|394:109|354:40,1,125.999996154785,2|2,0:0|3:2,0:0:0:0:
283,2,5393,1,2,3:2:0:0:
283,2,5574,2,0,P|273:32|265:62,1,62.9999980773926,10|2,0:2|3:2,0:0:0:0:
196,117,5935,2,0,P|205:147|213:177,1,62.9999980773926,2|2,0:0|0:0,0:0:0:0:
283,283,6297,6,0,P|308:248|387:254,1,125.999996154785,2|2,3:2|0:0,0:0:0:0:
434,324,6839,1,0,3:2:0:0:
368,383,7020,1,10,0:2:0:0:
368,383,7381,2,0,P|359:352|350:322,1,62.9999980773926,2|2,0:0|0:0,0:0:0:0:
466,240,7742,6,0,P|474:209|499:115,1,125.999996154785,2|2,0:0|3:2,0:0:0:0:
459,38,8285,1,0,0:0:0:0:
459,38,8465,2,0,P|434:73|355:67,1,125.999996154785,10|2,0:2|0:0,0:0:0:0:
292,9,9007,1,2,3:2:0:0:
206,84,9188,6,0,P|175:92|81:117,1,125.999996154785,2|2,3:2|0:0,0:0:0:0:
25,182,9730,1,0,3:2:0:0:
72,256,9911,1,10,0:2:0:0:
72,256,10273,2,0,P|103:259|130:243,1,62.9999980773926,2|2,0:0|0:0,0:0:0:0:
210,168,10634,6,0,B|280:149|261:198|333:180,2,125.999996154785,2|2|10,0:0|3:2|0:2,0:0:0:0:
210,168,11718,5,10,0:2:0:0:
214,153,11808,1,10,0:2:0:0:
219,138,11899,1,10,0:2:0:0:
223,123,11989,1,10,0:2:0:0:
228,108,12080,6,0,P|279:64|342:86,1,140,6|8,3:2|0:2,0:0:0:0:
368,176,12622,1,0,3:2:0:0:
368,176,12712,1,8,0:2:0:0:
368,176,12803,2,0,P|398:166|444:152,1,70,0|0,3:2|3:2,0:0:0:0:
495,231,13164,2,0,P|467:251|432:250,1,70,10|0,0:2|0:0,0:0:0:0:
359,316,13526,6,0,B|279:295|300:350|223:327,1,140,2|8,3:2|0:2,0:0:0:0:
181,251,14068,1,0,3:2:0:0:
181,251,14158,1,8,0:2:0:0:
181,251,14248,1,2,3:2:0:0:
109,317,14429,1,0,3:2:0:0:
26,264,14610,1,10,0:2:0:0:
26,264,14971,6,0,P|36:234|75:121,1,140,2|8,3:2|0:2,0:0:0:0:
140,61,15513,1,0,3:2:0:0:
140,61,15604,1,8,0:2:0:0:
140,61,15694,2,0,P|174:60|202:80,1,70,2|0,3:2|3:2,0:0:0:0:
261,158,16056,2,0,P|289:137|323:138,1,70,8|0,0:2|0:0,0:0:0:0:
395,40,16417,6,0,P|417:106|440:172,1,140,2|10,3:2|0:2,0:0:0:0:
505,245,16959,1,0,0:0:0:0:
505,245,17050,1,8,0:2:0:0:
505,245,17140,1,2,3:2:0:0:
430,308,17321,1,0,3:2:0:0:
363,236,17501,1,10,0:2:0:0:
363,236,17863,6,0,P|299:214|249:258,1,140,6|8,3:2|0:2,0:0:0:0:
204,345,18405,1,2,0:0:0:0:
204,345,18495,1,10,0:2:0:0:
204,345,18586,2,0,P|170:333|137:323,1,70,2|0,3:2|3:2,0:0:0:0:
79,244,18947,2,0,P|107:223|141:224,1,70,10|0,0:2|0:0,0:0:0:0:
249,258,19309,6,0,P|226:191|203:125,1,140,2|8,3:2|0:2,0:0:0:0:
154,53,19851,1,0,3:2:0:0:
154,53,19941,1,8,0:2:0:0:
154,53,20032,1,2,3:2:0:0:
91,128,20212,1,0,3:2:0:0:
1,87,20393,1,8,0:2:0:0:
1,87,20754,6,0,B|41:158|-16:152|25:221,1,140,2|8,3:2|0:2,0:0:0:0:
103,279,21297,1,0,3:2:0:0:
103,279,21387,1,8,0:2:0:0:
103,279,21477,2,0,P|136:267|169:257,1,70,0|0,3:2|3:2,0:0:0:0:
238,186,21839,2,0,P|271:196|304:207,1,70,10|0,0:2|0:0,0:0:0:0:
400,303,22200,5,2,3:2:0:0:
404,295,22290,1,8,0:2:0:0:
408,286,22381,1,0,3:2:0:0:
484,224,22562,1,12,0:2:0:0:
484,224,22923,6,0,P|472:190|462:157,1,70,0|8,3:2|0:2,0:0:0:0:
451,127,23194,1,8,0:2:0:0:
451,127,23285,1,8,0:2:0:0:
502,43,23465,2,0,L|469:32,1,35,8|4,0:3|0:3,0:0:0:0:
442,5,23646,6,0,P|411:14|381:22,2,62.9999980773926,6|2|2,3:2|0:0|0:0,0:0:0:0:
383,90,24188,2,0,P|347:46|279:49,1,125.999996154785,2|8,0:0|0:2,0:0:0:0:
214,103,24730,1,2,0:0:0:0:
214,103,25092,6,0,P|183:112|153:120,2,62.9999980773926,2|2|2,0:0|0:0|0:0,0:0:0:0:
272,169,25634,2,0,P|253:229|236:289,1,125.999996154785,2|8,0:0|0:2,0:0:0:0:
170,348,26176,1,2,0:0:0:0:
170,348,26538,6,0,P|143:332|112:335,1,62.9999980773926,2|2,0:0|0:0,0:0:0:0:
36,381,26899,1,2,0:0:0:0:
36,381,27080,2,0,P|18:320|0:260,1,125.999996154785,2|10,0:0|0:2,0:0:0:0:
61,197,27622,2,0,P|69:166|77:136,1,62.9999980773926,2|2,0:0|0:0,0:0:0:0:
37,56,27983,6,0,P|94:41|147:84,1,125.999996154785,2|8,3:2|0:2,0:0:0:0:
194,152,28526,1,0,0:0:0:0:
194,152,28706,2,0,P|224:143|254:136,1,62.9999980773926,0|8,0:0|0:2,0:0:0:0:
314,69,29068,2,0,P|344:76|374:84,1,62.9999980773926,2|10,0:0|0:0,0:0:0:0:
464,119,29429,6,0,P|461:88|477:61,2,62.9999980773926,2|2|2,3:2|0:0|0:0,0:0:0:0:
508,195,29971,2,0,P|489:255|472:315,1,125.999996154785,2|8,0:0|0:2,0:0:0:0:
403,371,30513,1,2,0:0:0:0:
403,371,30875,6,0,P|376:355|345:358,1,62.9999980773926,2|2,3:2|0:0,0:0:0:0:
260,381,31236,1,10,0:0:0:0:
260,381,31417,2,0,P|245:324|288:271,1,125.999996154785,2|8,0:0|0:2,0:0:0:0:
367,248,31959,2,0,P|374:218|382:188,1,62.9999980773926,2|10,0:0|0:0,0:0:0:0:
301,88,32321,6,0,P|294:58|286:28,2,62.9999980773926,2|2|10,3:2|0:0|0:0,0:0:0:0:
247,158,32863,2,0,P|198:120|139:135,1,125.999996154785,2|10,0:0|0:2,0:0:0:0:
77,197,33405,2,0,P|46:188|15:181,1,62.9999980773926,2|2,0:0|0:0,0:0:0:0:
67,297,33767,6,0,P|127:277|187:260,1,125.999996154785,2|8,0:0|0:2,0:0:0:0:
265,303,34309,1,0,0:0:0:0:
343,263,34489,1,8,0:3:0:0:
343,263,34580,1,8,0:2:0:0:
343,263,34670,2,0,L|352:232,4,31.4999990386963,8|8|8|8|4,0:2|0:2|0:2|0:2|0:3,0:0:0:0:
501,233,35212,6,0,P|470:224|439:217,1,62.9999980773926,6|2,3:2|0:0,0:0:0:0:
391,142,35574,2,0,P|360:149|329:157,1,62.9999980773926,10|2,0:2|0:0,0:0:0:0:
305,172,35845,1,8,0:2:0:0:
305,172,35935,1,0,3:2:0:0:
260,248,36116,1,0,3:2:0:0:
209,175,36297,2,0,P|179:139|133:139,1,94.499997116089,10|0,0:2|0:0,0:0:0:0:
104,153,36658,6,0,P|95:184|88:215,1,62.9999980773926,2|2,3:2|0:0,0:0:0:0:
26,277,37020,1,10,0:2:0:0:
76,361,37200,1,2,0:0:0:0:
76,361,37291,1,8,0:2:0:0:
76,361,37381,2,0,P|106:352|136:345,1,62.9999980773926,0|0,3:2|3:2,0:0:0:0:
222,384,37742,1,10,0:2:0:0:
222,384,38104,6,0,P|228:353|237:323,1,62.9999980773926,2|2,3:2|0:0,0:0:0:0:
290,252,38465,1,10,0:2:0:0:
349,331,38646,1,2,0:0:0:0:
349,331,38736,1,8,0:2:0:0:
349,331,38827,2,0,P|379:333|406:317,1,62.9999980773926,0|2,3:2|3:2,0:0:0:0:
458,246,39188,2,0,P|460:215|444:188,1,62.9999980773926,10|2,0:2|0:0,0:0:0:0:
344,150,39550,6,0,P|326:89|307:29,1,125.999996154785,2|8,3:2|0:2,0:0:0:0:
392,3,40092,1,0,3:2:0:0:
392,3,40182,1,8,0:2:0:0:
392,3,40273,2,0,P|422:9|452:18,1,62.9999980773926,0|0,3:2|3:2,0:0:0:0:
512,94,40634,2,0,P|481:100|451:109,1,62.9999980773926,10|2,0:2|0:0,0:0:0:0:
347,182,40995,6,0,P|316:173|286:166,1,62.9999980773926,2|2,3:2|0:0,0:0:0:0:
233,94,41357,2,0,P|201:92|175:108,1,62.9999980773926,10|2,0:2|0:0,0:0:0:0:
158,137,41628,1,8,0:2:0:0:
158,137,41718,1,0,3:2:0:0:
78,97,41899,1,0,3:2:0:0:
18,162,42080,2,0,P|19:207|54:236,1,94.499997116089,10|0,0:2|0:0,0:0:0:0:
89,252,42441,6,0,P|119:243|149:236,1,62.9999980773926,2|2,3:2|0:0,0:0:0:0:
229,196,42803,1,10,0:2:0:0:
309,252,42983,1,2,0:0:0:0:
309,252,43074,1,8,0:2:0:0:
309,252,43164,2,0,P|311:282|295:309,1,62.9999980773926,0|0,3:2|3:2,0:0:0:0:
221,358,43526,1,10,0:2:0:0:
221,358,43887,6,0,P|215:327|206:297,1,62.9999980773926,2|2,3:2|0:0,0:0:0:0:
148,229,44248,1,10,0:2:0:0:
195,154,44429,1,2,0:0:0:0:
195,154,44520,1,8,0:2:0:0:
195,154,44610,2,0,P|225:151|252:167,1,62.9999980773926,2|0,3:2|3:2,0:0:0:0:
323,220,44971,2,0,P|353:222|380:206,1,62.9999980773926,10|2,0:2|0:0,0:0:0:0:
452,116,45333,5,2,3:2:0:0:
452,116,45513,1,0,3:2:0:0:
387,55,45694,2,0,B|317:36|336:85|264:67,2,125.999996154785,10|4|4,0:2|0:3|0:3,0:0:0:0:
452,116,46598,1,4,0:3:0:0:
416,197,46779,5,6,3:2:0:0:
416,197,56899,6,0,P|385:187|354:181,1,62.9999980773926,2|8,0:2|0:3,0:0:0:0:
326,181,57170,1,8,0:3:0:0:
326,181,57260,1,4,0:3:0:0:
339,66,57441,1,0,3:2:0:0:
333,75,57532,1,0,3:2:0:0:
325,87,57622,2,0,P|279:93|248:128,2,94.499997116089,14|14|14,0:2|0:2|0:2,0:0:0:0:
461,73,58345,6,0,P|437:142|387:281,1,210,6|2,3:2|0:0,0:0:0:0:
448,340,59068,6,0,P|362:358|300:266,1,210,6|2,3:2|0:0,0:0:0:0:
357,197,59791,6,0,P|258:183|208:269,1,210,6|2,3:2|0:0,0:0:0:0:
164,356,60513,6,0,P|109:330|33:301,1,140,6|4,3:2|0:3,0:0:0:0:
0,54,61236,6,0,B|118:19|79:107|203:68,1,210,6|2,3:2|0:0,0:0:0:0:
271,11,61959,6,0,P|284:109|198:159,1,210,6|2,3:2|0:0,0:0:0:0:
201,67,62682,6,0,P|299:54|349:140,1,210,6|2,3:2|0:0,0:0:0:0:
335,230,63405,6,0,P|365:220|411:206,1,70,6|0,3:2|0:0,0:0:0:0:
438,204,63676,1,8,0:2:0:0:
438,204,63767,1,10,0:2:0:0:
383,314,63947,5,8,0:3:0:0:
383,314,64038,1,4,0:3:0:0:
383,314,64128,2,0,P|333:228|234:241,1,210,6|2,3:2|0:0,0:0:0:0:
193,330,64851,6,0,B|135:313|58:289|58:289|91:289|119:260,1,210,6|4,3:2|0:3,0:0:0:0:
135,232,65483,5,4,0:3:0:0:
135,232,65574,2,0,P|184:146|283:159,1,210,6|2,3:2|0:0,0:0:0:0:
355,223,66297,6,0,P|385:213|431:199,1,70,6|8,3:2|0:0,0:0:0:0:
481,123,66658,1,10,0:0:0:0:
469,110,66748,1,8,0:0:0:0:
453,102,66838,1,8,0:3:0:0:
436,99,66929,1,4,0:3:0:0:
419,102,67020,6,0,P|385:90|352:80,1,70,6|0,3:2|0:0,0:0:0:0:
291,3,67381,2,0,P|257:13|224:24,1,70,2|2,3:2|0:0,0:0:0:0:
146,82,67742,1,14,3:2:0:0:
146,82,67923,1,10,0:2:0:0:
77,12,68104,1,10,0:2:0:0:
7,81,68285,1,10,0:2:0:0:
7,81,69911,6,0,P|16:112|29:161,1,77.0000023498536,6|8,3:2|0:2,0:0:0:0:
106,226,70273,1,2,3:2:0:0:
32,293,70453,1,10,0:2:0:0:
108,358,70634,2,0,P|136:333|173:337,1,77.0000023498536,2|8,3:2|0:2,0:0:0:0:
267,372,70995,2,0,L|277:334,2,38.5000011749268,2|0|8,3:2|3:2|0:2,0:0:0:0:
347,278,71357,6,0,P|419:293|473:242,1,154.000004699707,2|2,3:2|3:2,0:0:0:0:
509,148,71899,1,10,0:2:0:0:
390,50,72080,2,0,P|379:87|371:125,1,77.0000023498536,2|8,3:2|0:2,0:0:0:0:
296,177,72441,1,2,3:2:0:0:
296,177,72532,1,0,3:2:0:0:
296,177,72622,1,10,0:2:0:0:
227,103,72803,6,0,P|189:98|161:123,1,77.0000023498536,2|8,3:2|0:2,0:0:0:0:
90,193,73164,2,0,P|127:202|164:213,1,77.0000023498536,2|10,3:2|0:2,0:0:0:0:
248,269,73526,2,0,P|175:253|121:304,1,154.000004699707,2|2,3:2|3:2,0:0:0:0:
113,337,73977,1,0,3:2:0:0:
113,337,74068,1,8,0:2:0:0:
20,266,74248,6,0,P|11:229|0:192,1,77.0000023498536,2|8,3:2|0:2,0:0:0:0:
46,102,74610,1,2,3:2:0:0:
134,148,74791,1,10,0:2:0:0:
202,75,74971,2,0,P|239:69|267:93,1,77.0000023498536,2|8,3:2|0:2,0:0:0:0:
330,179,75333,5,10,0:2:0:0:
327,188,75423,1,8,0:2:0:0:
324,197,75513,1,10,0:2:0:0:
321,206,75604,1,8,0:2:0:0:
319,215,75694,6,0,P|329:251|339:289,2,77.0000023498536,6|10|2,3:2|0:2|3:2,0:0:0:0:
226,176,76236,1,10,0:2:0:0:
298,106,76417,2,0,B|388:83|359:143|449:116,1,154.000004699707,2|2,3:2|3:2,0:0:0:0:
476,104,76869,1,0,3:2:0:0:
476,104,76959,1,8,0:2:0:0:
512,225,77140,6,0,P|439:209|385:260,1,154.000004699707,2|2,3:2|3:2,0:0:0:0:
419,353,77682,1,10,0:2:0:0:
293,254,77863,2,0,P|282:290|272:328,1,77.0000023498536,2|8,3:2|0:2,0:0:0:0:
152,325,78224,1,2,3:2:0:0:
152,325,78315,1,0,3:2:0:0:
152,325,78405,1,10,0:2:0:0:
208,241,78586,6,0,P|217:203|228:166,2,77.0000023498536,2|10|2,3:2|0:2|3:2,0:0:0:0:
272,328,79128,1,10,0:2:0:0:
178,381,79309,2,0,P|149:356|112:362,1,77.0000023498536,2|8,3:2|0:2,0:0:0:0:
12,350,79670,2,0,L|2:312,2,38.5000011749268,2|0|10,3:2|3:2|0:2,0:0:0:0:
63,242,80032,6,0,P|72:205|101:86,1,154.000004699707,2|2,3:2|3:2,0:0:0:0:
172,23,80574,1,10,0:2:0:0:
256,76,80754,1,6,3:2:0:0:
256,76,80845,1,8,0:2:0:0:
256,76,80935,2,0,L|303:61,1,38.5000011749268,8|8,0:2|0:2,0:0:0:0:
319,36,81116,2,0,L|355:47,3,38.5000011749268,10|10|10|10,0:2|0:2|0:2|0:2,0:0:0:0:
387,77,81477,6,0,P|438:33|501:55,1,140,6|8,3:2|0:2,0:0:0:0:
474,155,82020,1,0,3:2:0:0:
474,155,82110,1,8,0:2:0:0:
474,155,82200,2,0,P|484:188|495:221,1,70,0|0,3:2|3:2,0:0:0:0:
429,294,82562,2,0,P|395:282|362:272,1,70,10|0,0:2|0:0,0:0:0:0:
307,358,82923,6,0,B|231:380|252:325|172:346,1,140,2|8,3:2|0:2,0:0:0:0:
120,267,83465,1,0,3:2:0:0:
120,267,83556,1,8,0:2:0:0:
120,267,83646,1,2,3:2:0:0:
37,313,83827,1,0,3:2:0:0:
97,384,84007,1,10,0:2:0:0:
97,384,84369,6,0,P|107:354|146:241,1,140,2|8,3:2|0:2,0:0:0:0:
153,161,84911,1,0,3:2:0:0:
153,161,85002,1,8,0:2:0:0:
153,161,85092,2,0,P|125:140|90:141,1,70,2|0,3:2|3:2,0:0:0:0:
9,87,85453,2,0,P|20:53|30:20,1,70,8|0,0:2|0:0,0:0:0:0:
140,11,85815,6,0,P|164:48|256:59,2,140,2|10|2,3:2|0:2|3:2,0:0:0:0:
152,196,86899,1,10,0:2:0:0:
150,204,86989,1,8,0:2:0:0:
147,212,87079,1,8,0:2:0:0:
145,221,87170,1,8,0:2:0:0:
142,229,87260,6,0,P|165:295|188:361,1,140,6|8,3:2|0:2,0:0:0:0:
270,308,87803,1,2,0:0:0:0:
270,308,87893,1,10,0:2:0:0:
270,308,87983,2,0,P|297:287|332:288,1,70,2|0,3:2|3:2,0:0:0:0:
393,364,88345,2,0,P|426:352|459:342,1,70,10|0,0:2|0:0,0:0:0:0:
512,240,88706,6,0,P|477:196|396:195,1,140,2|8,3:2|0:2,0:0:0:0:
325,257,89248,1,0,3:2:0:0:
325,257,89339,1,8,0:2:0:0:
325,257,89429,1,2,3:2:0:0:
248,195,89610,1,0,3:2:0:0:
282,103,89791,1,8,0:2:0:0:
282,103,90152,6,0,P|348:80|414:57,1,140,2|8,3:2|0:2,0:0:0:0:
492,132,90694,1,0,3:2:0:0:
492,132,90785,1,8,0:2:0:0:
492,132,90875,2,0,P|492:166|471:193,1,70,0|0,3:2|3:2,0:0:0:0:
384,240,91236,2,0,P|351:228|317:217,1,70,10|0,0:2|3:2,0:0:0:0:
285,209,91507,1,0,3:2:0:0:
285,209,91598,1,14,0:2:0:0:
250,335,91959,6,0,L|213:321,3,35,8|8|8|8,0:2|0:2|0:2|0:2,0:0:0:0:
189,345,92321,2,0,L|156:357,3,35,8|8|8|8,0:2|0:2|0:2|0:3,0:0:0:0:
122,338,92682,1,4,0:3:0:0:
55,282,92862,1,4,0:3:0:0:
55,282,92953,1,4,0:3:0:0:
55,282,93044,6,0,P|63:251|71:221,2,62.9999980773926,6|2|2,3:2|0:2|3:2,0:0:0:0:
0,193,93586,1,2,0:2:0:0:
0,193,93767,2,0,P|60:195|100:149,1,125.999996154785,0|2,3:2|3:2,0:0:0:0:
201,5,94489,6,0,P|231:13|261:20,1,62.9999980773926,2|2,3:2|0:2,0:0:0:0:
306,97,94851,2,0,P|336:89|366:81,1,62.9999980773926,2|2,3:2|0:2,0:0:0:0:
430,19,95212,2,0,P|411:79|394:139,1,125.999996154785,0|2,3:2|3:2,0:0:0:0:
455,305,95935,6,0,P|482:289|513:292,2,62.9999980773926,2|2|2,3:2|0:2|3:2,0:0:0:0:
397,371,96477,2,0,P|336:351|276:334,1,125.999996154785,2|2,0:2|0:2,0:0:0:0:
223,262,97020,2,0,P|207:235|209:204,1,62.9999980773926,2|2,3:2|0:2,0:0:0:0:
286,161,97381,2,0,P|316:168|347:176,2,62.9999980773926,2|0|0,3:2|0:0|3:2,0:0:0:0:
203,5,98104,6,0,P|163:51|102:49,1,125.999996154785,0|2,3:2|3:2,0:0:0:0:
22,10,98646,1,2,0:2:0:0:
0,110,98827,6,0,P|7:140|15:171,2,62.9999980773926,2|2|2,3:2|0:2|3:2,0:0:0:0:
83,80,99369,1,2,0:2:0:0:
83,80,99550,2,0,P|144:100|204:117,1,125.999996154785,0|2,3:2|3:2,0:0:0:0:
150,316,100273,6,0,P|142:285|134:254,2,62.9999980773926,2|2|2,3:2|0:2|3:2,0:0:0:0:
210,380,100815,2,0,P|250:334|311:336,1,125.999996154785,2|0,0:2|0:0,0:0:0:0:
385,382,101357,2,0,P|415:374|446:366,1,62.9999980773926,2|2,3:2|0:2,0:0:0:0:
455,259,101718,6,0,P|486:257|512:273,2,62.9999980773926,2|2|2,3:2|0:2|3:2,0:0:0:0:
372,291,102260,2,0,P|418:250|416:190,1,125.999996154785,2|2,0:2|0:2,0:0:0:0:
354,125,102803,2,0,P|323:132|293:140,1,62.9999980773926,2|8,3:2|0:3,0:0:0:0:
262,159,103074,1,8,0:3:0:0:
262,159,103164,2,0,P|231:150|201:143,2,62.9999980773926,4|4|12,3:0|0:3|0:2,0:0:0:0:
68,333,103887,6,0,P|98:324|129:318,1,62.9999980773926,8|8,0:3|0:2,0:0:0:0:
161,329,104158,1,8,0:2:0:0:
161,329,104248,2,0,L|191:335,2,31.4999990386963,8|8|4,0:2|0:2|0:3,0:0:0:0:
248,248,104610,6,0,P|274:231|305:233,1,62.9999980773926,6|2,3:2|0:0,0:0:0:0:
376,286,104971,2,0,P|407:287|433:271,1,62.9999980773926,10|2,0:2|0:0,0:0:0:0:
454,246,105242,1,8,0:2:0:0:
454,246,105333,1,0,3:2:0:0:
488,165,105513,1,0,3:2:0:0:
419,109,105694,2,0,P|412:78|395:12,1,94.499997116089,10|0,0:2|0:0,0:0:0:0:
370,0,106056,6,0,P|339:6|309:15,1,62.9999980773926,2|2,3:2|0:0,0:0:0:0:
254,85,106417,1,10,0:2:0:0:
185,33,106598,1,2,0:0:0:0:
185,33,106689,1,8,0:2:0:0:
185,33,106779,2,0,P|158:16|127:18,1,62.9999980773926,0|0,3:2|3:2,0:0:0:0:
47,56,107140,1,10,0:2:0:0:
47,56,107501,6,0,P|56:86|62:117,1,62.9999980773926,2|2,3:2|0:0,0:0:0:0:
14,191,107863,1,10,0:2:0:0:
82,262,108044,1,2,0:0:0:0:
82,262,108134,1,8,0:2:0:0:
82,262,108225,2,0,P|108:245|139:247,1,62.9999980773926,0|2,3:2|3:2,0:0:0:0:
202,308,108586,2,0,P|233:309|259:293,1,62.9999980773926,10|2,0:2|0:0,0:0:0:0:
292,190,108947,6,0,P|310:129|329:69,1,125.999996154785,2|8,3:2|0:2,0:0:0:0:
414,35,109489,1,0,0:0:0:0:
414,35,109580,1,8,0:2:0:0:
414,35,109670,2,0,P|445:33|471:49,1,62.9999980773926,0|0,3:2|3:2,0:0:0:0:
500,133,110032,2,0,P|491:163|484:193,1,62.9999980773926,10|2,0:2|0:0,0:0:0:0:
444,284,110393,6,0,P|413:275|383:268,1,62.9999980773926,2|2,3:2|0:0,0:0:0:0:
335,193,110754,2,0,P|304:201|274:208,1,62.9999980773926,10|2,0:2|0:0,0:0:0:0:
243,224,111026,1,8,0:2:0:0:
243,224,111116,1,0,3:2:0:0:
171,172,111297,1,0,3:2:0:0:
105,230,111477,2,0,B|95:284|122:271|114:322,1,94.499997116089,10|0,0:2|0:0,0:0:0:0:
88,348,111839,6,0,P|56:349|30:333,1,62.9999980773926,2|2,3:2|0:0,0:0:0:0:
1,249,112200,1,10,0:2:0:0:
45,176,112381,1,2,0:0:0:0:
45,176,112471,1,8,0:2:0:0:
45,176,112562,2,0,P|37:145|29:115,1,62.9999980773926,0|0,3:2|3:2,0:0:0:0:
44,28,112923,1,10,0:2:0:0:
44,28,113285,6,0,P|74:33|105:43,1,62.9999980773926,2|2,3:2|0:0,0:0:0:0:
171,101,113646,1,10,0:2:0:0:
233,39,113827,1,2,0:0:0:0:
233,39,113918,1,8,0:2:0:0:
233,39,114008,2,0,P|259:22|290:25,1,62.9999980773926,2|0,3:2|3:2,0:0:0:0:
332,103,114369,2,0,P|358:119|389:116,1,62.9999980773926,10|2,0:2|0:0,0:0:0:0:
463,47,114730,5,2,3:2:0:0:
463,47,114911,1,0,3:2:0:0:
512,119,115092,2,0,P|503:149|496:179,1,62.9999980773926,10|8,0:2|0:0,0:0:0:0:
490,213,115363,1,8,0:0:0:0:
490,213,115453,1,8,0:3:0:0:
420,267,115634,2,0,L|377:250,2,31.4999990386963,8|8|4,0:3|0:3|0:3,0:0:0:0:
465,356,115995,6,0,L|494:344,2,31.4999990386963,4|4|6,0:3|0:3|3:2,0:0:0:0:
198,260,121959,6,0,P|228:251|259:245,1,62.9999980773926,6|2,3:2|0:0,0:0:0:0:
321,182,122321,2,0,P|351:187|382:197,1,62.9999980773926,2|2,3:2|0:0,0:0:0:0:
444,259,122682,2,0,P|437:200|490:158,1,125.999996154785,2|2,3:2|3:2,0:0:0:0:
396,5,123405,6,0,P|387:35|381:66,1,62.9999980773926,2|0,3:2|0:0,0:0:0:0:
319,129,123767,2,0,P|288:119|257:113,1,62.9999980773926,2|0,3:2|0:0,0:0:0:0:
190,56,124128,2,0,P|200:87|224:191,1,125.999996154785,2|0,3:2|3:2,0:0:0:0:
279,344,124851,6,0,P|247:345|221:329,1,62.9999980773926,2|2,3:2|0:0,0:0:0:0:
174,255,125212,2,0,P|142:253|116:269,1,62.9999980773926,2|2,3:2|0:0,0:0:0:0:
87,353,125574,2,0,P|73:291|55:231,1,125.999996154785,2|2,3:2|3:2,0:0:0:0:
14,152,126116,2,0,L|25:113,2,31.4999990386963,8|8|8,0:3|0:3|3:3,0:0:0:0:
89,72,126477,5,8,0:3:0:0:
89,72,126568,1,8,0:3:0:0:
89,72,126658,2,0,L|129:87,3,31.4999990386963,4|4|4|4,3:3|0:3|0:3|0:3,0:0:0:0:
157,61,127020,6,0,P|194:33|240:34,2,94.499997116089,14|14|14,0:2|0:2|0:2,0:0:0:0:
228,127,127742,6,0,B|211:185|187:262|187:262|187:229|158:201,1,210,6|2,3:2|0:0,0:0:0:0:
92,273,128465,6,0,P|141:358|240:345,1,210,6|2,3:2|0:0,0:0:0:0:
287,267,129188,6,0,P|385:253|435:339,1,210,6|2,3:2|0:0,0:0:0:0:
437,247,129911,6,0,P|461:181|491:118,1,140,6|8,3:2|0:3,0:0:0:0:
451,40,130453,5,4,0:3:0:0:
451,40,130544,1,4,0:3:0:0:
451,40,130634,2,0,B|333:5|372:93|248:54,1,210,6|2,3:2|0:0,0:0:0:0:
188,121,131357,6,0,B|159:93|159:60|159:60|135:137|118:195,1,210,6|4,3:2|0:3,0:0:0:0:
90,220,131989,5,4,0:3:0:0:
90,220,132080,2,0,P|188:206|238:292,1,210,6|2,3:2|0:0,0:0:0:0:
212,384,132803,6,0,P|182:374|136:360,1,70,6|8,3:2|0:3,0:0:0:0:
115,354,133074,1,8,0:3:0:0:
115,354,133164,1,8,0:3:0:0:
17,353,133345,5,4,0:3:0:0:
17,353,133436,1,4,0:3:0:0:
17,353,133526,2,0,P|67:267|166:280,1,210,6|10,3:2|0:0,0:0:0:0:
195,295,134158,5,8,0:0:0:0:
195,295,134248,2,0,P|258:264|323:241,1,140,6|8,3:2|0:3,0:0:0:0:
411,214,134791,1,4,0:3:0:0:
454,134,134971,6,0,B|336:99|375:187|251:148,1,210,6|2,3:2|0:0,0:0:0:0:
193,79,135694,2,0,P|159:89|126:100,1,70,6|8,3:2|0:2,0:0:0:0:
40,132,136056,5,4,0:3:0:0:
44,156,136146,1,4,0:3:0:0:
58,177,136237,1,4,0:3:0:0:
81,189,136327,1,4,0:3:0:0:
108,191,136417,6,0,P|141:179|174:169,1,70,14|0,0:2|0:0,0:0:0:0:
263,192,136779,2,0,P|274:225|284:258,1,70,10|10,0:2|0:2,0:0:0:0:
311,345,137140,1,14,0:2:0:0:
311,345,137321,1,8,0:2:0:0:
396,376,137501,2,0,L|439:361,1,35,10|8,0:2|0:2,0:0:0:0:
460,330,137682,2,0,L|493:341,1,35,10|8,0:2|0:2,0:0:0:0:
493,341,139309,6,0,P|482:304|472:266,1,77.0000023498536,6|8,3:2|0:2,0:0:0:0:
404,193,139670,1,2,3:2:0:0:
466,114,139851,1,10,0:2:0:0:
389,49,140032,2,0,P|351:44|323:69,1,77.0000023498536,2|8,3:2|0:2,0:0:0:0:
264,150,140393,2,0,L|226:140,2,38.5000011749268,2|0|8,3:2|3:2|0:2,0:0:0:0:
319,247,140754,6,0,B|230:224|257:286|171:261,1,154.000004699707,2|2,3:2|3:2,0:0:0:0:
116,345,141297,1,10,0:2:0:0:
19,256,141477,2,0,P|10:218|0:181,1,77.0000023498536,2|8,3:2|0:2,0:0:0:0:
65,111,141839,1,2,3:2:0:0:
65,111,141929,1,0,3:2:0:0:
65,111,142020,1,10,0:2:0:0:
136,179,142200,6,0,P|173:184|201:160,1,77.0000023498536,2|8,3:2|0:2,0:0:0:0:
276,92,142562,1,2,3:2:0:0:
276,92,142742,1,10,0:2:0:0:
361,144,142923,2,0,P|350:180|318:301,1,154.000004699707,2|2,3:2|3:2,0:0:0:0:
316,324,143375,1,0,3:2:0:0:
316,324,143465,1,8,0:2:0:0:
416,373,143646,6,0,P|453:378|481:354,1,77.0000023498536,2|8,3:2|0:2,0:0:0:0:
509,257,144007,1,2,3:2:0:0:
434,189,144188,1,10,0:2:0:0:
353,248,144369,2,0,P|344:210|333:173,1,77.0000023498536,2|8,3:2|0:2,0:0:0:0:
269,96,144730,5,10,0:2:0:0:
251,89,144820,1,8,0:2:0:0:
232,90,144910,1,10,0:2:0:0:
215,99,145001,1,8,0:2:0:0:
203,114,145092,6,0,P|212:151|223:188,2,77.0000023498536,6|10|2,3:2|0:2|3:2,0:0:0:0:
130,44,145634,1,10,0:2:0:0:
48,102,145815,2,0,B|25:191|87:164|62:250,1,154.000004699707,2|2,3:2|3:2,0:0:0:0:
51,278,146267,1,0,3:2:0:0:
51,278,146357,1,8,0:2:0:0:
129,378,146538,6,0,P|183:327|255:343,1,154.000004699707,2|2,3:2|3:2,0:0:0:0:
338,287,147080,1,10,0:2:0:0:
420,371,147260,2,0,P|456:358|493:349,1,77.0000023498536,2|8,3:2|0:2,0:0:0:0:
497,251,147622,1,2,3:2:0:0:
497,251,147712,1,0,3:2:0:0:
497,251,147803,1,10,0:2:0:0:
416,178,147983,6,0,P|410:140|434:112,2,77.0000023498536,2|10|2,3:2|0:2|3:2,0:0:0:0:
368,267,148526,1,10,0:2:0:0:
282,216,148706,2,0,P|244:225|207:236,1,77.0000023498536,2|8,3:2|0:2,0:0:0:0:
131,302,149068,2,0,L|93:292,2,38.5000011749268,2|0|10,3:2|3:2|0:2,0:0:0:0:
35,226,149429,5,6,3:2:0:0:
37,216,149519,1,0,0:0:0:0:
40,207,149609,1,8,0:2:0:0:
43,198,149700,1,8,0:2:0:0:
45,189,149791,2,0,P|34:152|25:114,1,77.0000023498536,10|10,0:2|0:2,0:0:0:0:
81,31,150152,5,2,3:2:0:0:
81,31,150242,1,8,0:2:0:0:
81,31,150333,2,0,L|119:41,3,38.5000011749268,8|8|8|8,0:2|0:2|0:2|0:3,0:0:0:0:
143,83,150694,1,4,0:3:0:0:
230,156,150875,6,0,P|238:118|249:81,2,77.0000023498536,14|2|2,0:2|3:2|3:2,0:0:0:0:
310,254,151417,6,0,P|299:290|290:328,2,77.0000023498536,14|2|2,0:2|3:2|3:2,0:0:0:0:
402,179,151959,5,14,0:2:0:0:
402,179,152140,2,0,P|438:172|467:196,1,77.0000023498536,2|2,3:2|3:2,0:0:0:0:
512,308,152501,5,14,0:2:0:0:
512,308,152682,2,0,P|474:316|437:327,1,77.0000023498536,0|0,3:2|3:2,0:0:0:0:
352,382,153044,6,0,P|315:371|277:362,1,77.0000023498536,14|10,0:2|0:2,0:0:0:0:
245,352,153315,1,8,0:2:0:0:
245,352,153405,1,10,0:2:0:0:
169,285,153586,1,4,0:3:0:0:
164,274,153676,1,4,0:3:0:0:
158,263,153767,6,0,P|166:225|177:188,2,77.0000023498536,14|2|2,0:2|3:2|3:2,0:0:0:0:
54,309,154309,6,0,P|64:345|73:383,2,77.0000023498536,14|2|2,0:2|3:2|3:2,0:0:0:0:
0,218,154851,5,14,0:2:0:0:
0,218,155032,2,0,P|36:224|65:200,1,77.0000023498536,2|2,3:2|3:2,0:0:0:0:
104,104,155393,5,14,0:2:0:0:
104,104,155574,2,0,P|141:111|178:122,1,77.0000023498536,0|0,3:2|3:2,0:0:0:0:
256,167,155935,6,0,P|266:136|277:104,2,51.3333348999024,14|0|8,0:2|3:2|0:3,0:0:0:0:
317,87,156297,2,0,P|307:56|296:24,2,51.3333348999024,0|8|4,3:2|0:3|0:3,0:0:0:0:
252,13,156658,5,6,3:2:0:0:
256,192,166779,12,4,167863,0:3:0:0:
252,201,168224,6,0,P|277:168|318:162,1,83.9999974365235,6|0,3:2|0:0,0:0:0:0:
345,188,168586,2,0,L|433:168,1,83.9999974365235,10|2,0:2|3:2,0:0:0:0:
457,149,168947,2,0,L|497:163,2,41.9999987182618,2|0|0,3:2|3:2|3:2,0:0:0:0:
442,116,169309,1,10,0:2:0:0:
310,31,169670,6,0,P|282:61|241:64,1,83.9999974365235,2|2,3:2|3:2,0:0:0:0:
205,40,170032,2,0,L|192:0,2,41.9999987182618,10|2|2,0:2|3:2|0:0,0:0:0:0:
174,77,170393,1,2,3:2:0:0:
174,77,170574,1,0,3:2:0:0:
99,37,170754,1,10,0:2:0:0:
45,154,171116,6,0,P|60:204|72:254,1,83.9999974365235,2|2,3:2|3:2,0:0:0:0:
49,263,171477,2,0,P|92:260|121:294,1,83.9999974365235,10|2,0:2|3:2,0:0:0:0:
136,323,171839,2,0,L|122:362,2,41.9999987182618,2|0|0,3:2|3:2|3:2,0:0:0:0:
172,307,172200,1,10,0:2:0:0:
283,365,172562,6,0,P|313:337|354:338,1,83.9999974365235,2|2,3:2|3:2,0:0:0:0:
393,348,172923,2,0,P|420:317|420:276,1,83.9999974365235,10|2,0:2|0:0,0:0:0:0:
399,241,173285,1,2,3:2:0:0:
399,241,173465,1,0,3:2:0:0:
455,172,173646,1,10,0:2:0:0:
362,21,174007,6,0,P|322:8|281:-2,1,83.9999974365235,6|2,3:2|3:2,0:0:0:0:
245,19,174369,2,0,P|224:53|233:93,1,83.9999974365235,10|2,0:2|3:2,0:0:0:0:
259,126,174730,2,0,L|298:112,2,41.9999987182618,2|0|0,3:2|0:0|0:0,0:0:0:0:
241,165,175092,1,10,0:2:0:0:
399,277,175453,6,0,P|396:318|366:346,1,83.9999974365235,2|2,3:2|3:2,0:0:0:0:
323,329,175815,2,0,L|232:349,1,83.9999974365235,10|2,0:2|3:2,0:0:0:0:
205,319,176176,2,0,L|218:279,2,41.9999987182618,2|0|0,3:2|0:0|0:0,0:0:0:0:
162,327,176538,1,10,0:2:0:0:
109,148,176899,6,0,P|96:188|86:228,1,83.9999974365235,2|2,3:2|3:2,0:0:0:0:
47,266,177260,2,0,P|92:268|123:302,1,83.9999974365235,10|0,0:2|0:0,0:0:0:0:
143,335,177622,2,0,L|129:375,2,41.9999987182618,2|0|0,3:2|0:0|0:0,0:0:0:0:
194,322,177983,5,10,0:2:0:0:
194,322,178074,1,8,0:3:0:0:
194,322,178164,1,4,0:3:0:0:
263,375,178345,2,0,P|322:355|383:338,1,125.999996154785,10|0,0:2|3:2,0:0:0:0:
449,283,178887,1,0,3:2:0:0:
449,283,179068,2,0,P|462:228|469:200,1,62.9999980773926,10|8,0:2|0:2,0:0:0:0:
397,172,179429,2,0,P|384:117|377:89,1,62.9999980773926,10|8,0:2|0:2,0:0:0:0:
439,19,179791,6,0,P|396:71|330:60,1,140,6|8,3:2|0:2,0:0:0:0:
259,9,180333,1,0,3:2:0:0:
259,9,180423,1,8,0:2:0:0:
259,9,180514,2,0,P|229:19|183:33,1,70,0|0,3:2|3:2,0:0:0:0:
138,106,180875,2,0,P|103:106|75:86,1,70,10|0,0:2|0:0,0:0:0:0:
1,22,181236,6,0,P|24:92|43:164,1,140,2|8,3:2|0:2,0:0:0:0:
50,254,181779,1,0,3:2:0:0:
50,254,181869,1,8,0:2:0:0:
50,254,181959,1,2,3:2:0:0:
139,214,182140,1,0,3:2:0:0:
192,295,182321,1,10,0:2:0:0:
192,295,182682,6,0,B|272:274|251:329|328:306,1,140,2|8,3:2|0:2,0:0:0:0:
405,365,183224,1,0,3:2:0:0:
405,365,183315,1,8,0:2:0:0:
405,365,183405,2,0,P|439:365|467:345,1,70,2|0,3:2|3:2,0:0:0:0:
510,257,183767,2,0,P|499:223|488:190,1,70,8|0,0:2|0:0,0:0:0:0:
380,178,184128,6,0,P|447:179|493:128,2,140,2|10|2,3:2|0:2|3:2,0:0:0:0:
308,110,185032,1,0,3:2:0:0:
308,110,185122,1,8,0:2:0:0:
308,110,185212,2,0,P|318:76|329:43,1,70,10|8,0:2|0:2,0:0:0:0:
342,15,185483,1,8,0:2:0:0:
342,15,185574,6,0,B|262:-6|283:49|206:26,1,140,6|8,3:2|0:2,0:0:0:0:
57,153,186297,2,0,P|80:223|99:295,1,140,2|10,3:2|0:2,0:0:0:0:
164,358,186839,1,0,0:0:0:0:
239,295,187020,6,0,P|306:291|352:341,1,140,2|8,3:2|0:2,0:0:0:0:
432,282,187562,1,0,3:2:0:0:
432,282,187652,1,8,0:2:0:0:
432,282,187742,1,2,3:2:0:0:
369,205,187923,1,0,3:2:0:0:
294,268,188104,1,8,0:2:0:0:
294,268,188465,6,0,P|275:200|253:133,1,140,2|8,3:2|0:2,0:0:0:0:
302,48,189007,1,0,3:2:0:0:
302,48,189098,1,8,0:2:0:0:
302,48,189188,2,0,P|336:47|364:67,1,70,0|0,3:2|3:2,0:0:0:0:
449,16,189550,2,0,P|468:44|468:78,1,70,10|0,0:2|0:0,0:0:0:0:
434,171,189911,5,6,3:2:0:0:
479,258,190092,1,8,0:2:0:0:
479,258,190182,1,8,0:2:0:0:
479,258,190273,2,0,L|465:298,3,35,8|8|8|8,0:2|0:2|0:2|0:2,0:0:0:0:
440,331,190634,6,0,P|378:317|359:313,1,70,6|0,3:2|0:0,0:0:0:0:
297,262,190995,2,0,L|287:210,2,46.6666666666667,4|4|4,0:3|0:3|0:3,0:0:0:0:
255,307,191357,6,0,P|220:348|155:337,1,112,6|2,3:2|0:2,0:0:0:0:
45,263,192080,2,0,P|66:196|82:139,1,112,2|2,0:2|0:2,0:0:0:0:
183,54,192803,2,0,B|251:40|228:76|295:62,2,112,2|2|2,0:2|0:2|0:2,0:0:0:0:
78,156,193887,1,0,0:0:0:0:
199,236,194248,6,0,P|234:195|299:206,1,112,2|2,0:2|0:2,0:0:0:0:
410,277,194971,2,0,P|356:292|303:310,1,112,2|2,0:2|0:2,0:0:0:0:
288,198,195694,2,0,P|303:144|321:91,2,112,2|0|2,0:2|0:0|0:0,0:0:0:0:
283,344,196779,6,0,P|256:336|229:328,1,56,0|0,0:0|3:2,0:0:0:0:
174,377,197140,2,0,P|158:323|140:270,1,112,2|2,3:2|0:2,0:0:0:0:
48,157,197863,2,0,P|63:103|81:50,1,112,2|2,0:2|0:2,0:0:0:0:
214,4,198586,2,0,P|249:45|314:34,1,112,2|2,0:2|0:2,0:0:0:0:
304,42,199309,1,2,0:2:0:0:
304,42,200032,6,0,P|339:31|373:19,2,56,2|2|2,0:2|0:2|0:2,0:0:0:0:
262,108,200574,1,2,0:2:0:0:
310,169,200754,2,0,P|292:222|276:275,1,112,2|2,0:2|0:2,0:0:0:0:
276,275,201477,1,2,0:2:0:0:
276,275,202923,5,2,0:2:0:0:
276,275,213586,5,0,3:2:0:0:
276,275,213676,1,0,3:2:0:0:
276,275,213767,2,0,P|259:226|243:188,2,84,14|14|14,0:2|0:2|0:2,0:0:0:0:
314,357,214489,6,0,P|363:271|462:284,1,210,6|2,3:2|0:0,0:0:0:0:
400,217,215212,6,0,B|371:245|371:278|371:278|347:201|330:143,1,210,6|4,3:2|0:3,0:0:0:0:
337,52,215935,6,0,P|287:137|188:124,1,210,6|2,3:2|0:0,0:0:0:0:
113,176,216658,6,0,P|88:110|58:47,1,140,6|4,3:2|0:3,0:0:0:0:
17,224,217381,6,0,B|135:189|96:277|220:238,1,210,6|2,3:2|0:0,0:0:0:0:
286,178,218104,2,0,B|236:162|207:205|207:205|225:254|243:332,1,210,6|4,3:2|0:3,0:0:0:0:
259,350,218736,5,4,0:3:0:0:
259,350,218827,2,0,P|323:323|390:301,1,140,6|10,3:2|0:0,0:0:0:0:
467,253,219369,1,10,0:0:0:0:
467,253,219459,1,8,0:0:0:0:
467,253,219550,2,0,P|476:216|499:146,1,105,6|8,3:2|0:3,0:0:0:0:
512,116,219911,1,8,0:3:0:0:
434,38,220092,5,4,0:3:0:0:
434,38,220182,1,4,0:3:0:0:
434,38,220273,2,0,P|402:85|315:91,1,140,6|10,3:2|0:2,0:0:0:0:
259,40,220815,1,2,0:0:0:0:
259,40,220905,1,8,0:0:0:0:
259,40,220995,2,0,L|222:53,3,35,6|8|10|8,3:2|0:0|0:0|0:0,0:0:0:0:
195,85,221357,2,0,L|161:73,3,35,10|8|8|8,0:0|0:0|0:0|0:0,0:0:0:0:
125,47,221718,6,0,P|109:114|95:186,1,140,14|10,3:2|0:0,0:0:0:0:
26,243,222260,1,10,0:0:0:0:
85,325,222441,1,6,3:2:0:0:
85,325,222531,1,8,0:0:0:0:
85,325,222621,2,0,L|73:358,2,35,8|8|2,0:0|0:0|3:2,0:0:0:0:
153,264,222983,1,10,0:0:0:0:
225,208,223164,6,0,P|259:207|286:228,1,70,6|8,3:2|0:0,0:0:0:0:
317,259,223435,1,8,0:0:0:0:
317,259,223526,2,0,P|351:259|378:238,1,70,10|10,0:0|0:0,0:0:0:0:
397,152,223887,5,6,3:2:0:0:
397,152,224068,1,10,0:0:0:0:
333,87,224248,1,10,0:0:0:0:
376,6,224429,1,10,0:0:0:0:
376,6,225333,5,8,0:0:0:0:
333,87,225513,1,8,0:3:0:0:
333,87,225604,1,4,0:3:0:0:
333,87,225694,2,0,P|351:108|357:80,1,70,14|2,0:0|0:0,0:0:0:0:
280,17,226056,6,0,P|243:28|205:38,1,77.0000023498536,6|8,3:2|0:2,0:0:0:0:
147,119,226417,1,2,3:2:0:0:
63,63,226598,1,10,0:2:0:0:
5,145,226779,2,0,P|16:182|26:220,1,77.0000023498536,2|8,3:2|0:2,0:0:0:0:
87,298,227140,2,0,L|77:336,2,38.5000011749268,2|0|8,3:2|3:2|0:2,0:0:0:0:
179,259,227501,6,0,P|251:242|305:293,1,154.000004699707,2|2,3:2|3:2,0:0:0:0:
358,378,228044,1,10,0:2:0:0:
491,346,228224,2,0,P|498:308|509:271,1,77.0000023498536,2|8,3:2|0:2,0:0:0:0:
503,183,228586,1,2,3:2:0:0:
503,183,228676,1,0,3:2:0:0:
503,183,228767,1,10,0:2:0:0:
446,92,228947,6,0,P|408:86|380:110,1,77.0000023498536,2|8,3:2|0:2,0:0:0:0:
320,192,229309,2,0,P|283:181|245:172,1,77.0000023498536,2|10,3:2|0:2,0:0:0:0:
196,84,229670,2,0,B|110:59|137:121|48:98,1,154.000004699707,2|2,3:2|3:2,0:0:0:0:
14,91,230122,1,0,3:2:0:0:
14,91,230212,1,8,0:2:0:0:
36,188,230393,6,0,P|25:224|16:262,1,77.0000023498536,2|8,3:2|0:2,0:0:0:0:
63,350,230754,1,2,3:2:0:0:
139,284,230935,1,10,0:2:0:0:
211,353,231116,2,0,P|239:328|276:334,1,77.0000023498536,2|8,3:2|0:2,0:0:0:0:
375,316,231477,5,10,0:2:0:0:
377,306,231567,1,8,0:2:0:0:
379,297,231657,1,10,0:2:0:0:
381,287,231748,1,8,0:2:0:0:
384,278,231839,6,0,P|375:240|364:203,2,77.0000023498536,6|10|2,3:2|0:2|3:2,0:0:0:0:
460,343,232381,1,10,0:2:0:0:
367,381,232562,2,0,P|330:370|292:361,1,77.0000023498536,2|10,3:2|0:2,0:0:0:0:
207,331,232923,1,2,3:2:0:0:
207,331,233013,1,0,3:2:0:0:
207,331,233104,1,8,0:2:0:0:
118,378,233285,6,0,P|98:303|77:229,1,154.000004699707,2|2,3:2|3:2,0:0:0:0:
65,200,233736,1,0,3:2:0:0:
65,200,233827,1,10,0:2:0:0:
115,113,234007,2,0,P|152:107|180:131,1,77.0000023498536,2|8,3:2|0:2,0:0:0:0:
249,205,234369,2,0,L|287:195,2,38.5000011749268,2|0|10,3:2|3:2|0:2,0:0:0:0:
347,144,234730,6,0,P|355:106|366:69,2,77.0000023498536,2|10|2,3:2|0:2|3:2,0:0:0:0:
416,216,235273,1,10,0:2:0:0:
357,296,235453,2,0,P|320:289|291:314,1,77.0000023498536,2|8,3:2|0:2,0:0:0:0:
224,384,235815,1,2,3:2:0:0:
224,384,235905,1,0,3:2:0:0:
224,384,235995,1,10,0:2:0:0:
144,322,236176,6,0,P|126:250|177:196,1,154.000004699707,6|4,3:2|0:3,0:0:0:0:
268,153,236718,1,4,0:3:0:0:
268,153,236809,1,0,3:2:0:0:
268,153,236899,1,14,0:2:0:0:
344,233,237080,2,0,L|391:218,1,38.5000011749268,8|8,0:2|0:2,0:0:0:0:
407,193,237261,2,0,L|443:204,3,38.5000011749268,10|10|10|10,0:2|0:2|0:2|0:2,0:0:0:0:
470,236,237622,6,0,P|491:299|447:349,1,140,6|12,3:2|0:2,0:0:0:0:
361,384,238164,1,0,3:2:0:0:
361,384,238254,1,8,0:2:0:0:
361,384,238344,2,0,P|327:372|294:362,1,70,0|0,3:2|3:2,0:0:0:0:
246,275,238706,2,0,P|212:285|179:296,1,70,10|0,0:2|0:0,0:0:0:0:
121,376,239068,6,0,P|111:346|72:233,1,140,2|8,3:2|0:2,0:0:0:0:
9,186,239610,1,0,3:2:0:0:
9,186,239700,1,8,0:2:0:0:
9,186,239791,1,2,3:2:0:0:
64,105,239971,1,0,3:2:0:0:
141,165,240152,1,10,0:2:0:0:
141,165,240513,6,0,P|207:142|273:119,1,140,2|8,3:2|0:2,0:0:0:0:
323,37,241056,1,0,3:2:0:0:
323,37,241146,1,8,0:2:0:0:
323,37,241236,2,0,P|357:36|384:57,1,70,2|0,3:2|3:2,0:0:0:0:
480,61,241598,2,0,P|480:95|459:122,1,70,8|0,0:2|0:0,0:0:0:0:
367,153,241959,6,0,P|378:186|388:220,1,70,2|0,3:2|0:0,0:0:0:0:
473,259,242321,2,0,P|405:255|359:305,1,140,14|2,0:2|3:2,0:0:0:0:
258,299,242863,1,8,0:2:0:0:
229,200,243044,1,10,0:2:0:0:
225,182,243134,1,0,0:0:0:0:
221,165,243224,1,8,0:2:0:0:
217,148,243315,1,8,0:2:0:0:
215,131,243405,6,0,P|238:65|261:-1,1,140,6|10,3:2|0:2,0:0:0:0:
348,64,243947,1,2,0:0:0:0:
348,64,244038,1,10,0:2:0:0:
348,64,244128,2,0,P|381:52|414:43,1,70,2|0,3:2|3:2,0:0:0:0:
488,107,244489,2,0,P|476:140|467:173,1,70,10|0,0:2|0:0,0:0:0:0:
495,268,244851,6,0,P|460:224|379:223,1,140,2|8,3:2|0:2,0:0:0:0:
305,284,245393,1,0,3:2:0:0:
305,284,245483,1,8,0:2:0:0:
305,284,245574,1,2,3:2:0:0:
227,224,245754,1,0,3:2:0:0:
166,301,245935,1,8,0:2:0:0:
166,301,246297,6,0,P|143:235|120:169,1,140,2|8,3:2|0:2,0:0:0:0:
179,93,246839,1,0,3:2:0:0:
179,93,246929,1,8,0:2:0:0:
179,93,247020,2,0,P|213:93|240:114,1,70,0|0,3:2|3:2,0:0:0:0:
298,193,247381,2,0,P|332:182|365:172,1,70,14|0,0:2|0:0,0:0:0:0:
446,114,247742,5,2,3:2:0:0:
446,114,247833,1,8,0:2:0:0:
446,114,247923,2,0,L|433:74,3,35,8|8|8|8,0:2|0:2|0:2|0:3,0:0:0:0:
462,39,248285,1,4,0:3:0:0:
375,5,248465,5,14,0:2:0:0:
375,5,248646,1,10,0:2:0:0:
305,74,248827,1,10,0:2:0:0:
226,15,249007,1,10,0:2:0:0:
