osu file format v14

[General]
AudioFilename: audio.mp3
AudioLeadIn: 0
PreviewTime: 213947
Countdown: 0
SampleSet: Soft
StackLeniency: 0.2
Mode: 0
LetterboxInBreaks: 0
WidescreenStoryboard: 1

[Editor]
DistanceSpacing: 0.8
BeatDivisor: 4
GridSize: 8
TimelineZoom: 1.5

[Metadata]
Title:Hokori Takaki Idol
TitleUnicode:誇り高きアイドル
Artist:HoneyWorks feat. Kotoha
ArtistUnicode:HoneyWorks feat. Kotoha
Creator:aundy
Version:Chu's Insane
Source:
Tags:arronchu1207 lit120 -Hakurei- jpop j-pop japanese pop 告白実行委員会 -FLYING SONGS- 愛してる Kokuhaku Jikkou Iinkai Aishiteru Mona Narumi 成海 萌奈 A Proud Confession Executive Committee
BeatmapID:3781987
BeatmapSetID:1840881

[Difficulty]
HPDrainRate:5
CircleSize:4
OverallDifficulty:8
ApproachRate:9
SliderMultiplier:1.6
SliderTickRate:1

[Events]
//Background and Video events
0,0,"wwwwwwww.jpg",0,0
Video,0,"video.mp4"
//Break Periods
2,156858,161841
2,203122,212986
//Storyboard Layer 0 (Background)
//Storyboard Layer 1 (Fail)
//Storyboard Layer 2 (Pass)
//Storyboard Layer 3 (Foreground)
//Storyboard Layer 4 (Overlay)
//Storyboard Sound Samples

[TimingPoints]
514,361.44578313253,4,2,2,50,1,0
514,-125,4,2,2,50,0,0
10634,-200,4,2,2,50,0,0
11718,-200,4,2,1,50,0,0
12080,-105.263157894737,4,2,1,70,0,0
23646,-125,4,2,2,50,0,0
34489,-125,4,2,1,50,0,0
35212,-105.263157894737,4,2,1,60,0,0
46779,-105.263157894737,4,2,1,50,0,0
47140,-125,4,2,1,50,0,0
56899,-125,4,2,1,60,0,0
57622,-125,4,2,1,70,0,0
58345,-105.263157894737,4,2,1,70,0,0
64128,-105.263157894737,4,2,1,60,0,0
68465,-200,4,2,1,60,0,0
69911,-95.2380952380952,4,2,1,80,0,1
81477,-105.263157894737,4,2,1,70,0,0
93044,-125,4,2,1,55,0,0
104610,-105.263157894737,4,2,1,60,0,0
116176,-125,4,2,1,60,0,0
127020,-125,4,2,1,70,0,0
127742,-105.263157894737,4,2,1,70,0,0
137863,-200,4,2,1,70,0,0
139309,-95.2380952380952,4,2,1,80,0,1
156658,-95.2380952380952,4,2,1,40,0,0
162441,-142.857142857143,4,2,1,40,0,0
168224,-117.647058823529,4,2,1,60,0,0
179791,-105.263157894737,4,2,1,70,0,0
191357,-125,4,2,1,60,0,0
201477,-200,4,2,1,60,0,0
213586,-105.263157894737,4,2,1,60,0,0
213767,-76.9230769230769,4,2,1,60,0,0
214489,-105.263157894737,4,2,1,60,0,0
225694,-76.9230769230769,4,2,1,60,0,0
226056,-95.2380952380952,4,2,1,80,0,1
237622,-105.263157894737,4,2,1,70,0,0

[Colours]
Combo1 : 255,192,0
Combo2 : 176,255,255
Combo3 : 64,150,255
Combo4 : 255,255,151

[HitObjects]
133,90,514,6,0,B|139:30|196:1|234:-3|267:49|210:64,1,192,6|2,3:2|3:2,0:0:0:0:
212,63,1236,2,0,P|208:26|202:-5,1,64,10|0,0:2|0:0,0:0:0:0:
327,48,1598,2,0,P|321:79|318:111,1,64,2|0,0:0|0:0,0:0:0:0:
361,228,1959,6,0,B|355:168|298:139|260:135|227:187|284:202,1,192,2|2,3:2|0:0,0:0:0:0:
282,201,2682,2,0,P|286:164|292:133,1,64,10|0,0:2|0:0,0:0:0:0:
167,186,3044,2,0,P|172:217|175:249,1,64,2|2,0:0|3:2,0:0:0:0:
311,384,3405,6,0,B|284:352|223:346|184:378|184:378|213:366|245:372,1,192,2|2,3:2|3:2,0:0:0:0:
235,370,4128,2,0,P|238:338|243:306,1,64,10|0,0:2|0:0,0:0:0:0:
167,186,4489,2,0,P|172:217|175:249,1,64,2|0,0:0|0:0,0:0:0:0:
235,370,4851,6,0,B|262:338|323:332|362:364|362:364|333:352|301:358,1,192,2|2,0:0|3:2,0:0:0:0:
311,356,5574,2,0,P|307:324|302:292,1,64,10|2,0:2|3:2,0:0:0:0:
379,172,5935,2,0,P|373:203|370:235,1,64,2|2,0:0|0:0,0:0:0:0:
280,186,6297,6,0,P|259:146|286:63,1,128,2|2,3:2|0:0,0:0:0:0:
279,69,6839,1,0,3:2:0:0:
356,15,7020,2,0,P|386:22|420:25,1,64,10|0,0:2|0:0,0:0:0:0:
512,100,7381,2,0,P|480:102|448:109,1,64,2|2,0:0|0:0,0:0:0:0:
280,186,7742,6,0,P|244:155|158:171,1,128,2|2,0:0|3:2,0:0:0:0:
168,162,8285,1,0,0:0:0:0:
93,109,8465,2,0,P|88:75|83:46,1,64,10|2,0:2|0:0,0:0:0:0:
157,225,8827,2,0,P|162:193|168:162,1,64,2|2,0:0|3:2,0:0:0:0:
34,309,9188,6,0,P|82:294|156:333,1,128,2|2,3:2|0:0,0:0:0:0:
149,324,9730,1,0,3:2:0:0:
235,379,9911,2,0,P|239:345|245:315,1,64,10|2,0:2|0:0,0:0:0:0:
342,266,10273,2,0,P|338:234|332:202,1,64,2|2,0:0|0:0,0:0:0:0:
271,120,10634,6,0,P|311:123|347:93,2,80,2|2|10,0:0|3:2|0:2,0:0:0:0:
84,29,11718,1,10,0:2:0:0:
88,25,11809,1,10,0:2:0:0:
92,21,11899,1,10,0:2:0:0:
96,17,11989,1,10,0:2:0:0:
100,13,12080,6,0,L|90:100,1,75.9999999999999,6|0,3:2|0:0,0:0:0:0:
15,242,12441,2,0,P|1:204|13:160,1,75.9999999999999,8|0,0:2|3:2,0:0:0:0:
85,200,12712,1,8,0:2:0:0:
91,200,12803,2,0,L|170:205,1,75.9999999999999,0|0,3:2|3:2,0:0:0:0:
230,338,13164,2,0,L|151:343,1,75.9999999999999,10|0,0:2|0:0,0:0:0:0:
292,257,13526,6,0,P|332:249|372:273,1,75.9999999999999,2|0,3:2|0:0,0:0:0:0:
497,340,13887,1,8,0:2:0:0:
443,226,14068,1,0,3:2:0:0:
439,219,14158,1,8,0:2:0:0:
435,212,14248,2,0,L|446:135,1,75.9999999999999,2|0,3:2|3:2,0:0:0:0:
353,8,14610,2,0,L|363:83,1,75.9999999999999,10|0,0:2|0:0,0:0:0:0:
265,188,14971,6,0,P|229:199|186:186,1,75.9999999999999,2|0,3:2|0:0,0:0:0:0:
63,120,15333,1,8,0:2:0:0:
173,5,15513,1,0,3:2:0:0:
177,11,15604,1,8,0:2:0:0:
182,17,15694,2,0,L|172:94,1,75.9999999999999,2|0,3:2|3:2,0:0:0:0:
72,195,16056,2,0,L|62:119,1,75.9999999999999,8|0,0:2|0:0,0:0:0:0:
155,295,16417,6,0,P|104:282|19:330,1,152,2|10,3:2|0:2,0:0:0:0:
230,364,16959,1,0,0:0:0:0:
235,358,17050,1,8,0:2:0:0:
239,352,17140,2,0,L|251:274,1,75.9999999999999,2|0,3:2|3:2,0:0:0:0:
168,61,17501,2,0,P|135:105|155:167,1,114,10|0,0:2|0:0,0:0:0:0:
222,195,17863,6,0,L|374:178,1,152,6|8,3:2|0:2,0:0:0:0:
488,30,18405,1,2,0:0:0:0:
481,32,18495,1,10,0:2:0:0:
474,34,18586,2,0,P|458:75|463:113,1,75.9999999999999,2|0,3:2|3:2,0:0:0:0:
386,250,18947,2,0,P|387:212|372:177,1,75.9999999999999,10|0,0:2|0:0,0:0:0:0:
506,367,19309,6,0,B|471:360|452:337|452:337|408:334|354:352,1,152,2|8,3:2|0:2,0:0:0:0:
219,174,19941,1,8,0:2:0:0:
220,180,20032,2,0,L|234:266,1,75.9999999999999,2|0,3:2|3:2,0:0:0:0:
326,198,20393,2,0,P|334:155|321:118,1,75.9999999999999,8|0,0:2|0:0,0:0:0:0:
154,295,20754,6,0,P|209:281|290:334,1,152,2|8,3:2|0:2,0:0:0:0:
452,208,21387,1,8,0:2:0:0:
452,214,21477,2,0,L|446:292,1,75.9999999999999,0|0,3:2|3:2,0:0:0:0:
370,160,21839,2,0,P|358:121|372:82,1,75.9999999999999,10|0,0:2|0:0,0:0:0:0:
464,11,22200,5,2,3:2:0:0:
483,17,22291,1,8,0:2:0:0:
502,22,22381,1,0,3:2:0:0:
367,88,22562,2,0,P|329:102|263:54,1,114,12|0,0:2|0:0,0:0:0:0:
224,0,22923,5,0,3:2:0:0:
106,104,23104,1,8,0:2:0:0:
110,130,23194,1,8,0:2:0:0:
114,156,23285,1,8,0:2:0:0:
227,257,23465,1,8,0:3:0:0:
222,262,23556,1,4,0:3:0:0:
217,267,23646,6,0,L|228:193,2,64,6|2|2,3:2|0:0|0:0,0:0:0:0:
255,347,24188,1,2,0:0:0:0:
146,321,24369,2,0,P|201:308|257:350,1,128,0|2,0:0|0:0,0:0:0:0:
434,212,25092,6,0,L|423:138,2,64,2|2|2,0:0|0:0|0:0,0:0:0:0:
395,292,25634,1,2,0:0:0:0:
505,266,25815,2,0,P|450:253|394:295,1,128,0|2,0:0|0:0,0:0:0:0:
227,200,26538,6,0,P|220:166|227:136,1,64,2|2,0:0|0:0,0:0:0:0:
298,23,26899,2,0,P|304:54|297:85,1,64,2|2,0:0|0:0,0:0:0:0:
226,137,27260,2,0,L|94:121,1,128,0|2,0:0|0:0,0:0:0:0:
2,296,27983,6,0,P|33:268|118:278,1,128,2|8,3:2|0:2,0:0:0:0:
114,275,28526,1,0,0:0:0:0:
135,371,28706,2,0,L|64:358,1,64,0|8,0:0|0:2,0:0:0:0:
265,291,29068,2,0,L|194:304,1,64,2|10,0:0|0:0,0:0:0:0:
381,378,29429,6,0,P|347:362|320:364,2,64,2|2|2,3:2|0:0|0:0,0:0:0:0:
464,338,29971,1,2,0:0:0:0:
483,221,30152,2,0,P|456:265|469:345,1,128,0|2,0:0|0:0,0:0:0:0:
312,215,30875,6,0,P|346:199|373:201,2,64,2|2|10,3:2|0:0|0:0,0:0:0:0:
229,175,31417,1,2,0:0:0:0:
210,58,31598,2,0,P|237:102|224:182,1,128,0|2,0:0|0:0,0:0:0:0:
18,200,32321,6,0,P|15:160|10:135,1,64,2|2,3:2|0:0,0:0:0:0:
112,184,32682,2,0,P|106:215|104:247,1,64,10|2,0:0|0:0,0:0:0:0:
32,310,33044,2,0,P|79:294|148:337,1,128,0|2,0:0|0:0,0:0:0:0:
284,256,33767,6,0,L|269:388,1,128,2|8,0:0|0:2,0:0:0:0:
269,383,34309,1,0,0:0:0:0:
376,320,34489,1,8,0:3:0:0:
398,315,34580,1,8,0:2:0:0:
420,318,34670,1,8,0:2:0:0:
439,329,34760,1,8,0:2:0:0:
454,345,34851,2,0,L|459:382,2,32,8|8|4,0:2|0:2|0:3,0:0:0:0:
377,234,35212,6,0,P|366:193|375:158,1,75.9999999999999,6|2,3:2|0:0,0:0:0:0:
449,108,35574,1,10,0:2:0:0:
335,30,35754,1,2,0:0:0:0:
328,28,35845,1,8,0:2:0:0:
321,26,35935,2,0,L|242:34,1,75.9999999999999,0|0,3:2|3:2,0:0:0:0:
160,155,36297,2,0,P|193:143|264:185,1,114,10|0,0:2|0:0,0:0:0:0:
269,194,36658,6,0,L|280:116,1,75.9999999999999,2|2,3:2|0:0,0:0:0:0:
187,254,37020,1,10,0:2:0:0:
316,339,37200,1,2,0:0:0:0:
323,335,37291,1,8,0:2:0:0:
330,332,37381,2,0,P|345:291|335:252,1,75.9999999999999,0|0,3:2|3:2,0:0:0:0:
435,306,37742,2,0,L|510:317,1,75.9999999999999,10|2,0:2|0:0,0:0:0:0:
398,165,38104,6,0,L|323:176,1,75.9999999999999,2|2,3:2|0:0,0:0:0:0:
186,129,38465,1,10,0:2:0:0:
274,10,38646,1,2,0:0:0:0:
280,14,38736,1,8,0:2:0:0:
286,18,38827,2,0,P|294:64|278:99,1,75.9999999999999,0|2,3:2|3:2,0:0:0:0:
162,216,39188,1,10,0:2:0:0:
121,59,39369,1,2,0:0:0:0:
265,195,39550,6,0,L|245:355,1,152,2|8,3:2|0:2,0:0:0:0:
84,381,40092,1,0,3:2:0:0:
78,376,40182,1,8,0:2:0:0:
72,370,40273,2,0,P|64:330|76:292,1,75.9999999999999,0|0,3:2|3:2,0:0:0:0:
182,197,40634,2,0,L|102:209,1,75.9999999999999,10|2,0:2|0:0,0:0:0:0:
0,108,40995,6,0,L|75:119,1,75.9999999999999,2|2,3:2|0:0,0:0:0:0:
248,40,41357,1,10,0:2:0:0:
160,0,41538,1,2,0:0:0:0:
155,4,41628,1,8,0:2:0:0:
150,9,41718,2,0,L|159:96,1,75.9999999999999,0|0,3:2|3:2,0:0:0:0:
258,187,42080,2,0,P|285:160|365:174,1,114,10|0,0:2|0:0,0:0:0:0:
369,178,42441,6,0,L|358:258,1,75.9999999999999,2|2,3:2|0:0,0:0:0:0:
277,384,42803,1,10,0:2:0:0:
159,298,42983,1,2,0:0:0:0:
164,294,43074,1,8,0:2:0:0:
169,290,43164,2,0,P|203:280|249:300,1,75.9999999999999,0|0,3:2|3:2,0:0:0:0:
352,374,43526,2,0,L|274:384,1,75.9999999999999,10|2,0:2|0:0,0:0:0:0:
358,253,43887,6,0,L|433:262,1,75.9999999999999,2|2,3:2|0:0,0:0:0:0:
502,203,44248,1,10,0:2:0:0:
403,84,44429,1,2,0:0:0:0:
398,89,44520,1,8,0:2:0:0:
394,94,44610,2,0,L|403:169,1,75.9999999999999,2|0,3:2|3:2,0:0:0:0:
492,81,44971,2,0,P|509:42|502:4,1,75.9999999999999,10|2,0:2|0:0,0:0:0:0:
298,78,45333,5,2,3:2:0:0:
309,168,45513,1,0,3:2:0:0:
321,258,45694,2,0,P|316:306|311:348,1,75.9999999999999,10|0,0:2|0:0,0:0:0:0:
140,384,46056,2,0,P|122:350|136:273,1,114,4|8,0:3|0:3,0:0:0:0:
152,262,46417,2,0,P|190:272|227:277,1,75.9999999999999,4|4,0:3|0:3,0:0:0:0:
80,197,46779,5,6,3:2:0:0:
80,197,46959,1,2,0:0:0:0:
168,90,47140,2,0,P|161:134|159:163,1,64,2|2,0:0|0:0,0:0:0:0:
105,37,47501,2,0,P|141:6|226:31,1,128,2|2,0:0|0:0,0:0:0:0:
341,148,48224,5,2,0:0:0:0:
363,58,48586,1,2,0:0:0:0:
277,82,48947,1,2,0:0:0:0:
463,203,49670,6,0,P|467:166|473:137,1,64,2|2,0:0|0:0,0:0:0:0:
417,278,50032,2,0,P|423:309|426:341,1,64,2|2,0:0|0:0,0:0:0:0:
348,222,50393,2,0,P|380:196|465:204,1,128,2|2,0:0|0:0,0:0:0:0:
426,341,51116,6,0,P|376:332|293:323,1,128,2|0,0:0|0:0,0:0:0:0:
299,323,51658,1,0,0:0:0:0:
218,369,51839,2,0,P|207:333|209:302,1,64
270,235,52200,2,0,P|281:199|279:168,1,64,0|2,0:0|3:2,0:0:0:0:
198,68,52562,5,2,3:2:0:0:
198,68,52742,1,2,0:2:0:0:
123,117,52923,2,0,L|56:109,1,64,2|2,0:2|0:2,0:0:0:0:
198,68,53285,2,0,P|229:42|314:57,1,128,2|2,0:2|0:2,0:0:0:0:
472,186,54007,5,2,0:2:0:0:
432,51,54369,1,2,0:2:0:0:
338,145,54730,1,2,0:2:0:0:
338,145,55453,6,0,P|345:183|348:213,1,64,2|2,0:2|0:2,0:0:0:0:
412,275,55815,2,0,P|405:313|402:343,1,64,2|2,0:2|0:2,0:0:0:0:
316,294,56176,1,2,0:2:0:0:
432,166,56538,1,2,0:2:0:0:
273,81,56899,6,0,L|203:88,1,64,2|8,0:2|0:3,0:0:0:0:
180,70,57170,1,8,0:3:0:0:
180,70,57260,2,0,L|110:63,1,64,4|0,0:3|3:2,0:0:0:0:
86,87,57532,1,0,3:2:0:0:
86,87,57622,5,14,0:2:0:0:
29,293,57893,5,14,0:2:0:0:
227,230,58164,5,14,0:2:0:0:
121,192,58345,2,0,L|143:347,1,152,6|2,3:2|0:0,0:0:0:0:
142,342,58887,1,2,0:0:0:0:
349,269,59068,2,0,P|376:229|363:124,1,152,6|2,3:2|0:0,0:0:0:0:
366,129,59610,1,2,0:0:0:0:
212,40,59791,6,0,L|371:20,1,152,6|2,3:2|0:0,0:0:0:0:
362,21,60333,1,2,0:0:0:0:
262,168,60513,2,0,L|142:155,1,114,6|0,3:2|0:0,0:0:0:0:
133,146,60875,2,0,P|116:187|128:228,1,75.9999999999999,4|2,0:3|0:0,0:0:0:0:
214,328,61236,6,0,P|164:312|70:382,1,152,6|2,3:2|0:0,0:0:0:0:
80,356,61779,1,2,0:0:0:0:
220,226,61959,2,0,L|387:249,1,152,6|2,3:2|0:0,0:0:0:0:
370,246,62501,1,2,0:0:0:0:
509,102,62682,2,0,P|467:116|378:65,1,152,6|2,3:2|0:0,0:0:0:0:
378,66,63224,1,2,0:0:0:0:
233,1,63405,6,0,L|247:125,1,114,6|8,3:2|0:2,0:0:0:0:
236,132,63767,1,10,0:2:0:0:
112,257,63947,1,8,0:3:0:0:
104,254,64038,1,4,0:3:0:0:
95,250,64128,6,0,P|91:214|110:166,1,75.9999999999999,6|2,3:2|0:0,0:0:0:0:
182,313,64489,2,0,P|187:351|169:397,1,75.9999999999999,2|2,0:0|0:0,0:0:0:0:
23,356,64851,6,0,L|107:342,1,75.9999999999999,6|2,3:2|0:0,0:0:0:0:
296,178,65212,2,0,L|219:166,1,75.9999999999999,2|4,0:0|0:3,0:0:0:0:
157,227,65483,1,4,0:3:0:0:
164,230,65574,6,0,P|193:177|172:83,1,152,6|2,3:2|0:0,0:0:0:0:
109,38,66116,1,2,0:0:0:0:
264,76,66297,2,0,L|354:63,1,75.9999999999999,6|8,3:2|0:0,0:0:0:0:
425,54,66568,1,8,0:0:0:0:
420,62,66658,2,0,L|415:116,1,37.9999999999999,10|8,0:0|0:0,0:0:0:0:
472,159,66839,2,0,L|477:214,1,37.9999999999999,8|4,0:3|0:3,0:0:0:0:
414,251,67020,6,0,P|370:264|333:242,1,75.9999999999999,6|0,3:2|0:0,0:0:0:0:
205,176,67381,1,2,3:2:0:0:
205,176,67562,1,2,0:0:0:0:
318,38,67742,2,0,L|308:125,1,75.9999999999999,14|10,3:2|0:2,0:0:0:0:
225,268,68104,1,10,0:2:0:0:
91,123,68285,1,10,0:2:0:0:
152,49,68465,6,0,P|180:41|228:62,2,80
147,55,69550,2,0,L|154:128,1,60,2|2,0:0|0:0,0:0:0:0:
93,186,69911,6,0,P|53:191|14:161,1,84,6|8,3:2|0:2,0:0:0:0:
147,55,70273,1,2,3:2:0:0:
259,159,70453,1,10,0:2:0:0:
147,55,70634,2,0,L|234:72,1,84,2|8,3:2|0:2,0:0:0:0:
393,17,70995,1,2,3:2:0:0:
391,11,71086,1,0,3:2:0:0:
389,5,71176,1,8,0:2:0:0:
365,107,71357,6,0,P|353:155|374:197,1,84,2|8,3:2|0:2,0:0:0:0:
510,273,71718,2,0,L|417:257,1,84,2|10,3:2|0:2,0:0:0:0:
291,375,72080,1,2,3:2:0:0:
382,358,72260,1,8,0:2:0:0:
238,285,72441,1,2,3:2:0:0:
232,283,72532,1,0,3:2:0:0:
226,281,72622,1,10,0:2:0:0:
316,135,72803,6,0,P|327:175|304:228,1,84,2|8,3:2|0:2,0:0:0:0:
132,254,73164,1,2,3:2:0:0:
233,172,73345,1,10,0:2:0:0:
123,71,73526,2,0,L|137:159,1,84,2|8,3:2|0:2,0:0:0:0:
226,281,73887,1,2,3:2:0:0:
232,283,73977,1,0,3:2:0:0:
238,285,74068,1,8,0:2:0:0:
393,223,74248,6,0,P|349:206|304:220,1,84,2|8,3:2|0:2,0:0:0:0:
249,378,74610,1,2,3:2:0:0:
344,303,74791,1,10,0:2:0:0:
227,185,74971,2,0,L|130:199,1,84,2|8,3:2|0:2,0:0:0:0:
389,71,75333,1,10,0:2:0:0:
375,40,75423,1,8,0:2:0:0:
347,23,75513,1,10,0:2:0:0:
314,23,75604,1,8,0:2:0:0:
286,40,75694,6,0,P|295:84|298:125,1,84,6|10,3:2|0:2,0:0:0:0:
485,242,76056,2,0,P|489:200|497:159,1,84,2|10,3:2|0:2,0:0:0:0:
344,303,76417,1,2,3:2:0:0:
505,343,76598,1,10,0:2:0:0:
393,216,76779,1,2,3:2:0:0:
394,222,76869,1,0,3:2:0:0:
395,228,76959,1,8,0:2:0:0:
265,356,77140,6,0,P|248:309|269:254,1,84,2|8,3:2|0:2,0:0:0:0:
368,143,77501,1,2,3:2:0:0:
344,303,77682,1,10,0:2:0:0:
192,204,77863,2,0,L|285:184,1,84,2|8,3:2|0:2,0:0:0:0:
381,54,78224,1,2,3:2:0:0:
382,48,78315,1,0,3:2:0:0:
383,42,78405,1,10,0:2:0:0:
284,89,78586,5,2,3:2:0:0:
431,210,78767,1,10,0:2:0:0:
281,78,78947,1,2,3:2:0:0:
429,222,79128,1,10,0:2:0:0:
197,126,79309,2,0,P|181:85|195:43,1,84,2|8,3:2|0:2,0:0:0:0:
287,180,79670,1,2,3:2:0:0:
286,187,79760,1,0,3:2:0:0:
285,194,79851,1,10,0:2:0:0:
111,293,80032,6,0,L|22:282,1,84,2|8,3:2|0:2,0:0:0:0:
193,228,80393,1,2,3:2:0:0:
176,371,80574,1,10,0:2:0:0:
103,193,80754,2,0,P|86:155|96:115,1,84,6|8,3:2|0:2,0:0:0:0:
143,49,81026,1,8,0:2:0:0:
149,53,81116,2,0,L|203:46,1,42,10|10,0:2|0:2,0:0:0:0:
265,3,81297,2,0,L|306:8,1,42,10|10,0:2|0:2,0:0:0:0:
385,33,81477,6,0,L|375:118,1,75.9999999999999,6|0,3:2|0:0,0:0:0:0:
512,208,81839,2,0,P|474:194|430:206,1,75.9999999999999,8|0,0:2|3:2,0:0:0:0:
470,278,82110,1,8,0:2:0:0:
470,284,82200,2,0,L|475:363,1,75.9999999999999,0|0,3:2|3:2,0:0:0:0:
293,323,82562,2,0,P|328:312|372:328,1,75.9999999999999,10|0,0:2|0:0,0:0:0:0:
227,246,82923,6,0,L|143:235,1,75.9999999999999,2|0,3:2|0:0,0:0:0:0:
15,289,83285,1,8,0:2:0:0:
68,171,83465,1,0,3:2:0:0:
72,164,83556,1,8,0:2:0:0:
76,157,83646,2,0,P|77:120|62:83,1,75.9999999999999,2|0,3:2|3:2,0:0:0:0:
190,10,84007,2,0,P|177:45|177:83,1,75.9999999999999,10|0,0:2|0:0,0:0:0:0:
247,199,84369,6,0,L|168:190,1,75.9999999999999,2|0,3:2|0:0,0:0:0:0:
62,84,84730,1,8,0:2:0:0:
190,10,84911,1,0,3:2:0:0:
194,16,85001,1,8,0:2:0:0:
199,22,85092,2,0,P|205:60|189:99,1,75.9999999999999,2|0,3:2|3:2,0:0:0:0:
57,186,85453,2,0,L|47:110,1,75.9999999999999,8|0,0:2|0:0,0:0:0:0:
133,237,85815,6,0,P|86:278|-2:260,1,152,2|10,3:2|0:2,0:0:0:0:
212,166,86357,1,0,3:2:0:0:
217,172,86447,1,8,0:2:0:0:
221,178,86538,2,0,L|233:256,1,75.9999999999999,2|0,3:2|3:2,0:0:0:0:
134,104,86899,1,10,0:2:0:0:
120,76,86989,1,8,0:2:0:0:
126,46,87080,1,8,0:2:0:0:
145,22,87170,1,8,0:2:0:0:
174,14,87260,6,0,L|326:31,1,152,6|8,3:2|0:2,0:0:0:0:
488,6,87803,1,2,0:0:0:0:
481,8,87893,1,10,0:2:0:0:
474,10,87983,2,0,P|458:51|463:89,1,75.9999999999999,2|0,3:2|3:2,0:0:0:0:
384,197,88345,2,0,L|369:113,1,75.9999999999999,10|0,0:2|0:0,0:0:0:0:
494,309,88706,6,0,B|459:302|440:279|440:279|396:276|342:294,1,152,2|8,3:2|0:2,0:0:0:0:
156,359,89339,1,8,0:2:0:0:
150,358,89429,2,0,L|64:344,1,75.9999999999999,2|0,3:2|3:2,0:0:0:0:
235,300,89791,2,0,P|243:257|230:220,1,75.9999999999999,8|0,0:2|0:0,0:0:0:0:
150,181,90152,6,0,P|205:195|286:142,1,152,2|8,3:2|0:2,0:0:0:0:
142,22,90785,1,8,0:2:0:0:
136,22,90875,2,0,L|58:16,1,75.9999999999999,0|0,3:2|3:2,0:0:0:0:
13,169,91236,2,0,P|1:130|15:91,1,75.9999999999999,10|0,0:2|3:2,0:0:0:0:
82,217,91507,1,0,3:2:0:0:
87,221,91598,6,0,L|76:345,1,114,14|0,0:2|0:0,0:0:0:0:
149,377,91959,2,0,L|197:369,3,37.9999999999999,8|8|8|8,0:2|0:2|0:2|0:2,0:0:0:0:
249,315,92321,2,0,L|297:323,3,37.9999999999999,8|8|8|8,0:2|0:2|0:2|0:3,0:0:0:0:
354,368,92682,1,4,0:3:0:0:
368,373,92773,1,4,0:3:0:0:
383,373,92863,1,4,0:3:0:0:
397,369,92953,1,4,0:3:0:0:
407,362,93044,6,0,P|411:327|416:296,1,64,6|2,3:2|0:2,0:0:0:0:
350,230,93405,2,0,P|346:195|341:164,1,64,2|2,3:2|0:2,0:0:0:0:
469,76,93767,2,0,P|478:113|427:194,1,128,0|2,3:2|3:2,0:0:0:0:
296,57,94489,6,0,P|253:63|227:69,1,64,2|2,3:2|0:2,0:0:0:0:
163,10,94851,2,0,P|120:4|94:-2,1,64,2|2,3:2|0:2,0:0:0:0:
3,125,95212,2,0,P|41:91|120:98,1,128,0|2,3:2|3:2,0:0:0:0:
246,225,95935,6,0,P|239:266|237:292,1,64,2|2,3:2|0:2,0:0:0:0:
151,339,96297,2,0,P|147:307|142:275,1,64,2|2,3:2|0:2,0:0:0:0:
251,218,96658,2,0,P|284:250|372:239,1,128,0|2,3:2|3:2,0:0:0:0:
437,178,97200,1,2,0:2:0:0:
376,99,97381,6,0,P|324:91|246:77,2,128,2|0|0,3:2|3:2|3:2,0:0:0:0:
511,233,98465,1,2,3:2:0:0:
511,233,98646,1,2,0:2:0:0:
428,271,98827,6,0,P|424:234|418:206,1,64,2|2,3:2|0:2,0:0:0:0:
501,321,99188,2,0,P|494:352|491:384,1,64,2|2,3:2|0:2,0:0:0:0:
360,340,99550,2,0,P|304:328|244:368,1,128,0|2,3:2|3:2,0:0:0:0:
75,287,100273,6,0,P|115:291|145:296,1,64,2|2,3:2|0:2,0:0:0:0:
86,200,100634,2,0,P|126:204|156:209,1,64,2|2,3:2|0:2,0:0:0:0:
17,134,100995,2,0,P|10:70|53:18,1,128,0|2,3:2|3:2,0:0:0:0:
275,2,101718,6,0,P|267:42|264:68,1,64,2|2,3:2|0:2,0:0:0:0:
367,114,102080,2,0,P|363:82|357:51,1,64,2|2,3:2|0:2,0:0:0:0:
325,192,102441,2,0,P|357:163|446:177,1,128,0|2,3:2|3:2,0:0:0:0:
498,306,102983,1,8,0:3:0:0:
493,300,103074,1,8,0:3:0:0:
490,293,103164,6,0,P|495:253|504:221,1,64,4|4,3:0|0:3,0:0:0:0:
402,348,103526,2,0,L|268:366,1,128,12|8,0:2|0:3,0:0:0:0:
195,358,103977,1,8,0:2:0:0:
195,358,104068,2,0,L|202:315,1,32,8|8,0:2|0:2,0:0:0:0:
218,245,104248,2,0,L|261:252,1,32,8|8,0:2|0:2,0:0:0:0:
170,178,104429,2,0,L|127:185,1,32,4|0,0:3|0:0,0:0:0:0:
228,106,104610,6,0,P|269:95|304:104,1,75.9999999999999,6|2,3:2|0:0,0:0:0:0:
354,178,104971,1,10,0:2:0:0:
428,35,105152,1,2,0:0:0:0:
423,38,105242,1,8,0:2:0:0:
419,42,105333,2,0,L|427:121,1,75.9999999999999,0|0,3:2|3:2,0:0:0:0:
492,268,105694,2,0,P|444:239|373:281,1,114,10|0,0:2|0:0,0:0:0:0:
380,269,106056,6,0,L|290:252,1,75.9999999999999,2|2,3:2|0:0,0:0:0:0:
161,219,106417,1,10,0:2:0:0:
197,384,106598,1,2,0:0:0:0:
204,380,106688,1,8,0:2:0:0:
211,377,106779,2,0,P|226:336|216:297,1,75.9999999999999,0|0,3:2|3:2,0:0:0:0:
85,207,107140,2,0,L|160:218,1,75.9999999999999,10|2,0:2|0:0,0:0:0:0:
323,157,107501,6,0,L|248:168,1,75.9999999999999,2|2,3:2|0:0,0:0:0:0:
109,75,107863,1,10,0:2:0:0:
200,0,108044,1,2,0:0:0:0:
206,4,108134,1,8,0:2:0:0:
212,8,108224,2,0,P|220:54|204:89,1,75.9999999999999,0|2,3:2|3:2,0:0:0:0:
160,218,108586,1,10,0:2:0:0:
109,75,108767,1,2,0:0:0:0:
247,168,108947,6,0,L|227:328,1,152,2|8,3:2|0:2,0:0:0:0:
85,381,109489,1,0,0:0:0:0:
79,376,109580,1,8,0:2:0:0:
73,370,109670,2,0,L|21:377,2,37.9999999999999,0|8|0,3:2|0:0|3:2,0:0:0:0:
134,268,110032,2,0,P|136:223|122:188,1,75.9999999999999,10|2,0:2|0:0,0:0:0:0:
1,108,110393,6,0,L|76:119,1,75.9999999999999,2|2,3:2|0:0,0:0:0:0:
249,40,110754,1,10,0:2:0:0:
161,0,110935,1,2,0:0:0:0:
156,4,111026,1,8,0:2:0:0:
151,9,111116,2,0,L|160:96,1,75.9999999999999,0|0,3:2|3:2,0:0:0:0:
243,200,111477,1,10,0:2:0:0:
371,129,111658,1,2,0:0:0:0:
333,211,111839,6,0,P|323:255|322:291,1,75.9999999999999,2|2,3:2|0:0,0:0:0:0:
423,384,112200,1,10,0:2:0:0:
508,256,112381,1,2,0:0:0:0:
503,252,112471,1,8,0:2:0:0:
498,248,112562,2,0,L|418:258,1,75.9999999999999,0|0,3:2|3:2,0:0:0:0:
329,376,112923,2,0,L|251:366,1,75.9999999999999,10|2,0:2|0:0,0:0:0:0:
156,258,113285,6,0,P|151:224|167:185,1,75.9999999999999,2|2,3:2|0:0,0:0:0:0:
300,120,113646,1,10,0:2:0:0:
207,0,113827,1,2,0:0:0:0:
202,5,113917,1,8,0:2:0:0:
198,10,114007,2,0,L|207:85,1,75.9999999999999,2|0,3:2|3:2,0:0:0:0:
376,176,114369,2,0,P|393:137|386:99,1,75.9999999999999,10|2,0:2|0:0,0:0:0:0:
273,237,114730,5,2,3:2:0:0:
276,246,114821,1,8,0:0:0:0:
279,254,114911,1,0,3:2:0:0:
389,343,115092,2,0,P|437:338|479:333,1,75.9999999999999,10|8,0:2|0:0,0:0:0:0:
503,258,115363,1,8,0:0:0:0:
506,253,115453,2,0,P|507:198|487:168,1,75.9999999999999,8|8,0:3|0:3,0:0:0:0:
422,148,115724,1,8,0:3:0:0:
415,147,115815,1,4,0:3:0:0:
270,48,115995,1,4,0:3:0:0:
268,39,116086,1,4,0:3:0:0:
272,31,116176,6,0,P|316:38|345:40,1,64,6|2,3:2|0:0,0:0:0:0:
286,135,116538,2,0,P|242:142|213:144,1,64,2|2,0:0|0:0,0:0:0:0:
335,39,116899,2,0,P|394:21|445:56,1,128,2|2,0:0|0:0,0:0:0:0:
506,204,117622,5,2,0:0:0:0:
483,293,117983,1,2,0:0:0:0:
460,382,118345,1,2,0:0:0:0:
247,217,119068,6,0,P|251:180|257:151,1,64,2|2,0:0|0:0,0:0:0:0:
201,292,119429,2,0,P|207:323|210:355,1,64,2|2,0:0|0:0,0:0:0:0:
132,236,119791,2,0,P|164:210|249:218,1,128,2|2,0:0|0:0,0:0:0:0:
426,340,120513,6,0,P|376:331|293:322,1,128,2|0,0:0|0:0,0:0:0:0:
300,323,121056,1,0,0:0:0:0:
210,355,121236,2,0,P|207:323|201:292,1,64
247,217,121598,2,0,P|251:180|257:151,1,64
199,68,121959,5,6,3:2:0:0:
199,68,122140,1,2,0:0:0:0:
124,117,122321,2,0,L|57:109,1,64,2|2,3:2|0:0,0:0:0:0:
199,68,122682,2,0,P|230:42|315:57,1,128,2|2,3:2|3:2,0:0:0:0:
478,24,123405,6,0,L|466:97,1,64,2|0,3:2|0:0,0:0:0:0:
401,203,123767,2,0,L|388:136,1,64,2|0,3:2|0:0,0:0:0:0:
485,249,124128,2,0,P|498:289|463:367,1,128,2|0,3:2|3:2,0:0:0:0:
308,283,124851,6,0,L|292:147,1,128,2|2,3:2|3:2,0:0:0:0:
293,155,125393,1,2,0:0:0:0:
342,74,125574,2,0,P|383:53|455:109,1,128,2|2,3:2|3:2,0:0:0:0:
508,222,126116,1,8,0:3:0:0:
503,227,126206,1,8,0:3:0:0:
499,232,126297,6,0,L|429:225,1,64,8|8,3:3|0:3,0:0:0:0:
369,180,126568,1,8,0:3:0:0:
363,182,126658,2,0,L|307:187,1,32,4|4,3:3|0:3,0:0:0:0:
258,231,126839,2,0,L|202:226,1,32,4|4,0:3|0:3,0:0:0:0:
161,168,127020,5,14,0:2:0:0:
213,355,127291,5,14,0:2:0:0:
5,273,127562,5,14,0:2:0:0:
75,182,127742,2,0,L|97:337,1,152,6|2,3:2|0:0,0:0:0:0:
96,332,128285,1,2,0:0:0:0:
216,243,128465,2,0,P|243:203|230:98,1,152,6|2,3:2|0:0,0:0:0:0:
233,103,129007,1,2,0:0:0:0:
120,24,129188,6,0,L|279:4,1,152,6|2,3:2|0:0,0:0:0:0:
270,5,129730,1,2,0:0:0:0:
388,101,129911,2,0,L|375:221,1,114,6|8,3:2|0:3,0:0:0:0:
366,230,130273,2,0,P|403:225|436:241,1,75.9999999999999,8|4,0:3|0:3,0:0:0:0:
307,323,130634,6,0,P|257:307|163:377,1,152,6|2,3:2|0:0,0:0:0:0:
173,351,131176,1,2,0:0:0:0:
63,253,131357,2,0,L|86:86,1,152,6|2,3:2|0:0,0:0:0:0:
171,30,131899,1,4,0:3:0:0:
172,42,131989,1,4,0:3:0:0:
173,54,132080,2,0,P|131:68|42:17,1,152,6|2,3:2|0:0,0:0:0:0:
42,18,132622,1,2,0:0:0:0:
176,156,132803,6,0,L|185:241,1,75.9999999999999,6|8,3:2|0:3,0:0:0:0:
165,311,133074,1,8,0:3:0:0:
162,319,133164,1,8,0:3:0:0:
306,383,133345,1,4,0:3:0:0:
314,380,133435,1,4,0:3:0:0:
323,376,133526,6,0,P|342:329|301:233,1,152,6|10,3:2|0:0,0:0:0:0:
443,158,134068,1,10,0:0:0:0:
438,162,134158,1,8,0:0:0:0:
433,166,134248,6,0,L|446:249,1,75.9999999999999,6|8,3:2|0:3,0:0:0:0:
492,307,134520,2,0,L|485:362,1,37.9999999999999,8|8,0:3|0:3,0:0:0:0:
320,337,134791,1,4,0:3:0:0:
316,329,134881,1,4,0:3:0:0:
312,321,134971,6,0,P|262:300|178:353,1,152,6|2,3:2|0:0,0:0:0:0:
60,253,135513,1,2,0:0:0:0:
195,154,135694,1,6,3:2:0:0:
159,246,135875,1,8,0:2:0:0:
34,155,136056,1,4,0:3:0:0:
30,149,136146,1,4,0:3:0:0:
26,143,136236,1,4,0:3:0:0:
22,137,136327,1,4,0:3:0:0:
18,131,136417,6,0,P|23:88|31:50,1,75.9999999999999,14|0,0:2|0:0,0:0:0:0:
195,154,136779,1,10,0:2:0:0:
45,244,136959,1,10,0:2:0:0:
188,130,137140,2,0,L|275:141,1,75.9999999999999,14|8,0:2|0:2,0:0:0:0:
330,86,137411,1,8,0:2:0:0:
334,82,137501,2,0,L|328:38,1,37.9999999999999,10|8,0:2|0:2,0:0:0:0:
398,143,137682,2,0,L|392:180,1,37.9999999999999,10|8,0:2|0:2,0:0:0:0:
439,66,137863,6,0,P|467:58|515:79,1,80
398,143,138405,1,0,0:0:0:0:
398,143,138586,1,0,0:0:0:0:
476,354,138947,2,0,L|482:295,1,60,2|2,0:0|0:0,0:0:0:0:
423,236,139309,6,0,P|383:231|344:261,1,84,6|8,3:2|0:2,0:0:0:0:
216,358,139670,1,2,3:2:0:0:
268,200,139851,1,10,0:2:0:0:
216,358,140032,2,0,L|199:271,1,84,2|8,3:2|0:2,0:0:0:0:
287,109,140393,1,2,3:2:0:0:
293,111,140483,1,0,3:2:0:0:
299,113,140574,1,8,0:2:0:0:
122,196,140754,6,0,P|82:208|42:195,1,84,2|8,3:2|0:2,0:0:0:0:
8,24,141116,1,2,3:2:0:0:
160,107,141297,1,10,0:2:0:0:
8,24,141477,2,0,L|90:38,1,84,2|8,3:2|0:2,0:0:0:0:
215,189,141839,1,2,3:2:0:0:
213,195,141929,1,0,3:2:0:0:
211,201,142020,1,10,0:2:0:0:
41,275,142200,6,0,P|30:235|53:182,1,84,2|8,3:2|0:2,0:0:0:0:
185,293,142562,1,2,3:2:0:0:
41,378,142742,1,10,0:2:0:0:
185,293,142923,2,0,L|273:307,1,84,2|8,3:2|0:2,0:0:0:0:
413,226,143285,1,2,3:2:0:0:
419,224,143375,1,0,3:2:0:0:
425,222,143465,1,8,0:2:0:0:
295,109,143646,6,0,P|278:153|292:198,1,84,2|8,3:2|0:2,0:0:0:0:
336,373,144007,1,2,3:2:0:0:
425,222,144188,1,10,0:2:0:0:
267,306,144369,2,0,L|185:293,1,84,2|8,3:2|0:2,0:0:0:0:
0,230,144730,1,10,0:2:0:0:
14,199,144821,1,8,0:2:0:0:
42,182,144911,1,10,0:2:0:0:
75,182,145001,1,8,0:2:0:0:
103,199,145092,6,0,P|95:157|91:116,1,84,6|10,3:2|0:2,0:0:0:0:
267,2,145453,2,0,P|262:43|254:85,1,84,2|10,3:2|0:2,0:0:0:0:
103,199,145815,1,2,3:2:0:0:
160,34,145995,1,10,0:2:0:0:
273,167,146176,1,2,3:2:0:0:
272,173,146267,1,0,3:2:0:0:
271,179,146357,1,8,0:2:0:0:
28,255,146538,6,0,P|11:208|32:153,1,84,2|8,3:2|0:2,0:0:0:0:
172,287,146899,1,2,3:2:0:0:
43,384,147080,1,10,0:2:0:0:
254,304,147260,2,0,L|161:284,1,84,2|8,3:2|0:2,0:0:0:0:
17,175,147622,1,2,3:2:0:0:
16,169,147712,1,0,3:2:0:0:
15,163,147803,1,10,0:2:0:0:
229,89,147983,5,2,3:2:0:0:
111,204,148164,1,10,0:2:0:0:
232,78,148345,1,2,3:2:0:0:
113,216,148526,1,10,0:2:0:0:
320,121,148706,2,0,P|336:80|322:38,1,84,2|8,3:2|0:2,0:0:0:0:
229,183,149068,1,2,3:2:0:0:
230,190,149158,1,0,3:2:0:0:
231,197,149248,1,10,0:2:0:0:
389,290,149429,6,0,L|395:243,1,42,6|0,3:2|0:0,0:0:0:0:
402,293,149610,2,0,L|408:246,1,42,8|8,0:2|0:2,0:0:0:0:
318,348,149791,1,10,0:2:0:0:
231,197,149971,6,0,L|225:150,1,42,10|8,0:2|0:2,0:0:0:0:
218,200,150152,2,0,L|212:153,1,42,2|8,3:2|0:2,0:0:0:0:
303,254,150333,1,8,0:2:0:0:
158,329,150513,1,8,0:2:0:0:
119,312,150604,1,8,0:3:0:0:
78,317,150694,1,4,0:3:0:0:
43,340,150785,1,4,0:3:0:0:
24,377,150875,5,14,0:2:0:0:
72,225,151056,2,0,L|85:313,1,84,2|2,3:2|3:2,0:0:0:0:
10,142,151417,5,14,0:2:0:0:
162,199,151598,2,0,P|118:220|78:212,1,84,2|2,3:2|3:2,0:0:0:0:
204,10,151959,5,14,0:2:0:0:
110,127,152140,1,2,3:2:0:0:
42,1,152321,5,2,3:2:0:0:
232,123,152501,2,0,P|291:132|384:63,1,168,14|0,0:2|3:2,0:0:0:0:
281,30,153044,5,14,0:2:0:0:
445,176,153224,1,10,0:2:0:0:
445,176,153315,1,8,0:2:0:0:
445,176,153405,1,10,0:2:0:0:
233,298,153586,1,4,0:3:0:0:
208,302,153676,1,4,0:3:0:0:
186,306,153767,5,14,0:2:0:0:
262,210,153947,2,0,L|357:223,1,84,2|2,3:2|3:2,0:0:0:0:
179,315,154309,5,14,0:2:0:0:
234,122,154489,2,0,P|257:177|246:219,1,84,2|2,3:2|3:2,0:0:0:0:
95,355,154851,5,14,0:2:0:0:
161,182,155032,1,2,3:2:0:0:
275,316,155212,5,2,3:2:0:0:
48,234,155393,2,0,P|42:159|88:80,1,168,14|0,0:2|3:2,0:0:0:0:
321,7,155935,5,14,0:2:0:0:
269,65,156056,2,0,P|261:102|262:132,1,55.9999982910157,0|8,3:2|0:3,0:0:0:0:
370,203,156297,1,0,3:2:0:0:
359,213,156417,2,0,P|351:176|352:140,1,55.9999982910157,8|4,0:3|0:3,0:0:0:0:
417,103,156658,5,6,3:2:0:0:
130,161,162441,6,0,B|136:109|174:103|229:96|245:199|169:238,1,224,2|2,0:0|0:0,0:0:0:0:
56,355,163887,6,0,B|25:335|19:291|19:291|52:333|95:354|158:347,1,224,2|2,0:0|0:0,0:0:0:0:
336,227,165333,6,0,B|370:215|387:178|387:178|356:342,1,224,2|2,0:0|0:0,0:0:0:0:
154,206,166779,6,0,P|103:184|199:136,1,224,2|2,0:0|0:0,0:0:0:0:
245,191,167863,2,0,L|231:282,1,83.9999999999999,4|0,0:3|0:0,0:0:0:0:
199,345,168224,6,0,P|252:326|295:353,1,90.6666683959961,6|0,3:2|0:0,0:0:0:0:
354,297,168586,2,0,L|446:317,1,90.6666683959961,10|2,0:2|3:2,0:0:0:0:
504,254,168947,2,0,L|492:188,2,45.3333341979981,2|0|0,3:2|3:2|3:2,0:0:0:0:
451,323,169309,1,10,0:2:0:0:
357,175,169670,6,0,L|367:106,2,45.3333341979981,2|2|2,3:2|3:2|3:2,0:0:0:0:
290,236,170032,2,0,P|288:276|301:297,2,45.3333341979981,10|2|2,0:2|3:2|0:0,0:0:0:0:
243,161,170393,6,0,L|174:148,1,68.0000000000002,2|0,3:2|3:2,0:0:0:0:
51,56,170754,2,0,L|120:43,1,68.0000000000002,10|0,0:2|0:0,0:0:0:0:
287,2,171116,6,0,L|344:13,2,45.3333341979981,2|2|2,3:2|3:2|3:2,0:0:0:0:
324,92,171477,2,0,L|381:81,2,45.3333341979981,10|2|2,0:2|3:2|3:2,0:0:0:0:
272,162,171839,1,2,3:2:0:0:
264,156,171959,2,0,P|268:192|281:217,1,45.3333341979981,0|0,3:2|3:2,0:0:0:0:
343,251,172200,1,10,0:2:0:0:
105,321,172562,6,0,L|96:381,2,45.3333341979981,2|2|2,3:2|3:2|3:2,0:0:0:0:
170,262,172923,1,10,0:2:0:0:
180,266,173044,2,0,L|173:221,1,45.3333341979981,2|2,3:2|0:0,0:0:0:0:
109,169,173285,2,0,P|63:157|41:168,1,68.0000000000002,2|0,3:2|3:2,0:0:0:0:
185,95,173646,2,0,P|217:103|248:90,1,68.0000000000002,10|8,0:2|0:3,0:0:0:0:
315,44,173917,1,8,0:3:0:0:
315,44,174007,6,0,L|308:-5,2,45.3333341979981,6|0|2,3:2|0:0|3:2,0:0:0:0:
392,81,174369,2,0,L|401:29,2,45.3333341979981,10|2|2,0:2|3:2|3:2,0:0:0:0:
336,153,174730,1,2,3:2:0:0:
326,147,174851,2,0,P|329:184|338:207,1,45.3333341979981
401,240,175092,1,10,0:2:0:0:
285,348,175453,6,0,L|336:357,2,45.3333341979981,2|0|2,3:2|0:0|3:2,0:0:0:0:
215,286,175815,1,10,0:2:0:0:
221,295,175935,2,0,P|192:305|170:301,1,45.3333341979981,2|2,3:2|3:2,0:0:0:0:
109,369,176176,1,2,3:2:0:0:
115,360,176297,2,0,P|86:350|62:354,1,45.3333341979981
21,286,176538,1,10,0:2:0:0:
208,173,176899,6,0,P|217:124|200:81,1,90.6666683959961,2|2,3:2|3:2,0:0:0:0:
107,58,177260,2,0,L|209:74,1,90.6666683959961,10|0,0:2|0:0,0:0:0:0:
282,10,177622,1,2,3:2:0:0:
294,16,177742,2,0,L|353:6,1,45.3333341979981
425,60,177983,6,0,L|418:103,3,34.0000000000001,10|8|4|4,0:2|0:3|0:3|0:3,0:0:0:0:
471,177,178345,1,10,0:2:0:0:
471,177,178706,5,0,3:2:0:0:
398,245,178887,1,0,3:2:0:0:
248,98,179068,5,10,0:2:0:0:
378,153,179248,1,8,0:2:0:0:
241,224,179429,5,10,0:2:0:0:
195,22,179610,1,8,0:2:0:0:
386,77,179791,6,0,L|377:152,1,75.9999999999999,6|0,3:2|0:0,0:0:0:0:
241,224,180152,2,0,P|279:210|323:222,1,75.9999999999999,8|0,0:2|3:2,0:0:0:0:
366,280,180423,1,8,0:2:0:0:
366,286,180513,2,0,L|371:365,1,75.9999999999999,0|0,3:2|3:2,0:0:0:0:
493,235,180875,2,0,P|504:200|488:156,1,75.9999999999999,10|0,0:2|0:0,0:0:0:0:
386,77,181236,6,0,L|302:88,1,75.9999999999999,2|0,3:2|0:0,0:0:0:0:
154,0,181598,1,8,0:2:0:0:
243,149,181779,1,0,3:2:0:0:
247,156,181869,1,8,0:2:0:0:
251,163,181959,2,0,P|252:200|237:237,1,75.9999999999999,2|0,3:2|3:2,0:0:0:0:
110,174,182321,2,0,P|97:139|97:101,1,75.9999999999999,10|0,0:2|0:0,0:0:0:0:
159,292,182682,6,0,P|199:276|299:327,1,152,2|8,3:2|0:2,0:0:0:0:
433,205,183224,1,0,3:2:0:0:
437,211,183315,1,8,0:2:0:0:
442,217,183405,2,0,P|448:255|432:294,1,75.9999999999999,2|0,3:2|3:2,0:0:0:0:
312,192,183767,2,0,L|302:116,1,75.9999999999999,8|0,0:2|0:0,0:0:0:0:
454,42,184128,6,0,B|417:60|376:54|376:54|354:24|306:19,1,152,2|10,3:2|0:2,0:0:0:0:
195,92,184670,1,0,3:2:0:0:
200,98,184760,1,8,0:2:0:0:
204,104,184851,2,0,P|208:148|186:192,1,75.9999999999999,2|0,3:2|3:2,0:0:0:0:
131,227,185122,1,8,0:2:0:0:
125,224,185212,1,10,0:2:0:0:
267,345,185393,2,0,B|260:363|260:363|267:395,1,37.9999999999999,8|8,0:2|0:2,0:0:0:0:
338,370,185574,6,0,L|183:353,1,152,6|8,3:2|0:2,0:0:0:0:
24,378,186116,1,2,0:0:0:0:
31,376,186206,1,10,0:2:0:0:
38,374,186297,2,0,P|54:333|49:295,1,75.9999999999999,2|0,3:2|3:2,0:0:0:0:
128,187,186658,2,0,L|143:271,1,75.9999999999999,10|0,0:2|0:0,0:0:0:0:
17,90,187020,6,0,P|65:107|155:68,1,152,2|8,3:2|0:2,0:0:0:0:
430,0,187652,1,8,0:2:0:0:
429,6,187742,2,0,L|415:92,1,75.9999999999999,2|0,3:2|3:2,0:0:0:0:
306,155,188104,2,0,P|296:118|305:81,1,75.9999999999999,8|0,0:2|0:0,0:0:0:0:
392,208,188465,6,0,P|337:194|256:247,1,152,2|8,3:2|0:2,0:0:0:0:
76,375,189098,1,8,0:2:0:0:
76,369,189188,2,0,L|70:291,1,75.9999999999999,0|0,3:2|3:2,0:0:0:0:
142,156,189550,2,0,P|154:195|140:234,1,75.9999999999999,10|0,0:2|0:0,0:0:0:0:
10,84,189911,5,6,3:2:0:0:
28,89,190001,1,8,0:2:0:0:
47,89,190092,1,8,0:2:0:0:
65,83,190182,1,8,0:2:0:0:
82,75,190273,6,0,L|90:26,3,37.9999999999999,8|8|8|8,0:2|0:2|0:2|0:2,0:0:0:0:
161,2,190634,1,6,3:2:0:0:
225,133,190815,1,0,0:0:0:0:
346,57,190995,2,0,P|341:28|342:-3,2,50.6666653137207,4|4|4,0:3|0:3|0:3,0:0:0:0:
409,120,191357,6,0,P|402:164|400:193,1,64,6|2,3:2|0:2,0:0:0:0:
327,303,191718,2,0,P|323:271|318:239,1,64,2|0,0:2|0:0,0:0:0:0:
398,367,192080,2,0,P|457:349|508:384,1,128,2|2,0:2|0:2,0:0:0:0:
327,303,192803,5,2,0:2:0:0:
238,323,193164,1,2,0:2:0:0:
149,343,193526,1,2,0:2:0:0:
118,178,194248,6,0,P|122:141|128:112,1,64,2|2,0:2|0:2,0:0:0:0:
21,164,194610,2,0,P|27:195|30:227,1,64,2|2,0:2|0:2,0:0:0:0:
127,114,194971,2,0,P|188:101|241:133,1,128,2|2,0:2|0:2,0:0:0:0:
398,20,195694,6,0,L|382:149,1,128,2|0,0:2|0:0,0:0:0:0:
382,147,196236,1,0,0:0:0:0:
447,214,196417,2,0,P|479:211|510:205,1,64,2|0,0:0|0:0,0:0:0:0:
378,275,196779,2,0,P|346:268|314:265,1,64,0|0,0:0|3:2,0:0:0:0:
170,376,197140,5,2,3:2:0:0:
170,376,197321,1,2,0:2:0:0:
234,308,197501,2,0,L|226:241,1,64,2|2,0:2|0:2,0:0:0:0:
143,288,197863,2,0,P|83:269|30:302,1,128,2|2,0:2|0:2,0:0:0:0:
181,161,198586,5,2,0:2:0:0:
153,74,198947,1,2,0:2:0:0:
242,93,199309,1,2,0:2:0:0:
374,271,200032,6,0,P|368:317|367:343,1,64,2|2,0:2|0:2,0:0:0:0:
271,229,200393,2,0,P|275:260|277:292,1,64,2|2,0:2|0:2,0:0:0:0:
352,182,200754,2,0,P|373:145|350:57,1,128,2|2,0:2|0:2,0:0:0:0:
175,42,201477,6,0,B|151:40|123:55|123:55|94:53|76:42|76:42|43:58|30:81|33:119|44:146|85:164|125:142|125:142|108:140|93:126,1,320,2|2,0:2|0:2,0:0:0:0:
151,185,213586,6,0,L|159:233,1,37.9999999999999,0|0,3:2|3:2,0:0:0:0:
140,176,213767,6,0,P|176:146|243:158,1,104,14|0,0:2|0:0,0:0:0:0:
296,103,214038,2,0,P|332:133|399:121,1,104,14|0,0:2|0:0,0:0:0:0:
453,84,214309,1,14,0:2:0:0:
511,281,214489,6,0,P|469:239|371:250,1,152,6|2,3:2|0:0,0:0:0:0:
381,242,215032,1,2,0:0:0:0:
286,379,215212,2,0,L|266:221,1,152,6|2,3:2|0:0,0:0:0:0:
372,91,215754,1,4,0:3:0:0:
365,97,215845,1,4,0:3:0:0:
357,101,215935,6,0,P|287:104|215:36,1,152,6|2,3:2|0:0,0:0:0:0:
43,75,216477,1,2,0:0:0:0:
125,22,216658,2,0,L|134:105,1,75.9999999999999,6|0,3:2|0:0,0:0:0:0:
86,162,216929,1,8,0:3:0:0:
83,168,217020,1,4,0:3:0:0:
212,249,217200,1,4,0:3:0:0:
97,384,217381,6,0,P|84:342|129:243,1,152,6|2,3:2|0:0,0:0:0:0:
124,246,217923,1,2,0:0:0:0:
318,200,218104,2,0,L|305:326,1,114,6|8,3:2|0:0,0:0:0:0:
315,333,218465,1,2,0:0:0:0:
460,363,218646,1,4,0:3:0:0:
468,371,218736,1,4,0:3:0:0:
475,379,218827,6,0,L|465:257,1,114,6|8,3:2|0:0,0:0:0:0:
504,195,219188,2,0,L|510:147,3,37.9999999999999,10|8|10|8,0:0|0:0|0:0|0:0,0:0:0:0:
465,91,219550,1,6,3:2:0:0:
330,187,219730,1,8,0:3:0:0:
263,30,219911,1,8,0:3:0:0:
253,30,220001,1,0,0:0:0:0:
244,31,220092,1,4,0:3:0:0:
234,31,220182,1,4,0:3:0:0:
225,32,220273,6,0,B|216:68|216:68|227:110,1,75.9999999999999,6|2,3:2|0:0,0:0:0:0:
123,210,220634,2,0,B|132:174|132:174|121:132,1,75.9999999999999,10|2,0:2|0:0,0:0:0:0:
68,79,220905,1,8,0:0:0:0:
59,80,220995,2,0,L|18:84,3,37.9999999999999,6|8|10|8,3:2|0:0|0:0|0:0,0:0:0:0:
44,161,221357,2,0,L|3:165,3,37.9999999999999,10|8|8|8,0:0|0:0|0:0|0:0,0:0:0:0:
32,244,221718,6,0,L|38:335,1,75.9999999999999,14|8,3:2|0:0,0:0:0:0:
216,369,222080,2,0,P|223:341|218:322,3,37.9999999999999,10|8|10|8,0:0|0:0|0:0|0:0,0:0:0:0:
285,284,222441,2,0,P|264:263|245:258,3,37.9999999999999,6|8|8|8,3:2|0:0|0:0|0:0,0:0:0:0:
196,210,222803,1,2,3:2:0:0:
187,214,222893,1,8,0:0:0:0:
178,216,222983,1,10,0:0:0:0:
168,216,223074,1,8,0:0:0:0:
159,215,223164,6,0,L|154:170,3,37.9999999999999,6|8|8|8,3:2|0:0|0:0|0:0,0:0:0:0:
213,117,223526,2,0,L|218:72,3,37.9999999999999,10|8|10|8,0:0|0:0|0:0|0:0,0:0:0:0:
168,11,223887,5,6,3:2:0:0:
337,153,224068,1,10,0:0:0:0:
91,96,224248,5,10,0:0:0:0:
283,5,224429,1,10,0:0:0:0:
283,5,225333,5,8,0:0:0:0:
283,14,225423,1,8,0:0:0:0:
284,23,225513,1,8,0:3:0:0:
285,33,225604,1,4,0:3:0:0:
287,43,225694,6,0,P|333:26|321:107,1,156,14|0,0:0|0:0,0:0:0:0:
261,164,226056,6,0,L|163:154,1,84,6|8,3:2|0:2,0:0:0:0:
26,44,226417,1,2,3:2:0:0:
89,198,226598,1,10,0:2:0:0:
26,44,226779,2,0,P|14:89|33:136,1,84,2|8,3:2|0:2,0:0:0:0:
168,248,227140,1,2,3:2:0:0:
166,254,227230,1,0,3:2:0:0:
164,260,227321,1,8,0:2:0:0:
39,363,227501,6,0,L|31:271,1,84,2|8,3:2|0:2,0:0:0:0:
123,95,227863,1,2,3:2:0:0:
164,260,228044,1,10,0:2:0:0:
6,183,228224,2,0,L|88:197,1,84,2|8,3:2|0:2,0:0:0:0:
250,297,228586,1,2,3:2:0:0:
248,303,228676,1,0,3:2:0:0:
246,309,228767,1,10,0:2:0:0:
79,378,228947,6,0,P|68:338|91:285,1,84,2|8,3:2|0:2,0:0:0:0:
265,193,229309,1,2,3:2:0:0:
154,340,229489,1,10,0:2:0:0:
265,193,229670,2,0,L|353:207,1,84,2|8,3:2|0:2,0:0:0:0:
487,118,230032,1,2,3:2:0:0:
493,116,230122,1,0,3:2:0:0:
499,114,230212,1,8,0:2:0:0:
321,28,230393,6,0,P|304:72|318:117,1,84,2|8,3:2|0:2,0:0:0:0:
432,258,230754,1,2,3:2:0:0:
499,114,230935,1,10,0:2:0:0:
347,206,231116,2,0,L|265:193,1,84,2|8,3:2|0:2,0:0:0:0:
82,364,231477,1,10,0:2:0:0:
96,333,231568,1,8,0:2:0:0:
124,316,231658,1,10,0:2:0:0:
157,316,231748,1,8,0:2:0:0:
185,333,231839,6,0,L|177:248,1,84,6|10,3:2|0:2,0:0:0:0:
40,154,232200,2,0,L|29:240,1,84,2|10,3:2|0:2,0:0:0:0:
223,79,232562,1,2,3:2:0:0:
47,31,232742,1,10,0:2:0:0:
141,172,232923,1,2,3:2:0:0:
147,171,233013,1,0,3:2:0:0:
153,170,233104,1,8,0:2:0:0:
251,0,233285,6,0,P|209:-5|171:10,1,84,2|8,3:2|0:2,0:0:0:0:
325,67,233646,1,2,3:2:0:0:
319,66,233736,1,0,3:2:0:0:
313,65,233827,1,10,0:2:0:0:
233,162,234007,2,0,L|223:79,1,84,2|8,3:2|0:2,0:0:0:0:
344,243,234369,1,2,3:2:0:0:
345,237,234459,1,0,3:2:0:0:
346,231,234550,1,10,0:2:0:0:
268,330,234730,5,2,3:2:0:0:
402,351,234911,1,10,0:2:0:0:
257,247,235092,5,2,3:2:0:0:
250,248,235182,1,0,3:2:0:0:
243,249,235273,1,10,0:2:0:0:
430,191,235453,2,0,P|446:153|441:108,1,84,2|8,3:2|0:2,0:0:0:0:
271,10,235815,1,2,3:2:0:0:
273,16,235905,1,0,3:2:0:0:
275,22,235995,1,10,0:2:0:0:
364,139,236176,6,0,L|321:129,3,42,6|8|8|8,3:2|0:2|0:2|0:3,0:0:0:0:
256,217,236538,1,4,0:3:0:0:
242,207,236628,1,4,0:3:0:0:
226,200,236718,1,4,0:3:0:0:
210,197,236809,1,0,3:2:0:0:
193,199,236899,1,14,0:2:0:0:
41,289,237080,5,8,0:2:0:0:
45,283,237170,1,8,0:2:0:0:
50,278,237260,2,0,P|77:271|96:273,1,42,10|10,0:2|0:2,0:0:0:0:
149,334,237441,2,0,P|176:341|195:339,1,42,10|10,0:2|0:2,0:0:0:0:
263,298,237622,6,0,L|257:210,1,75.9999999999999,6|0,3:2|0:0,0:0:0:0:
419,152,237983,2,0,P|381:166|337:154,1,75.9999999999999,12|0,0:2|3:2,0:0:0:0:
287,105,238254,1,8,0:2:0:0:
287,98,238345,2,0,L|292:19,1,75.9999999999999,0|0,3:2|3:2,0:0:0:0:
175,183,238706,2,0,P|164:218|180:262,1,75.9999999999999,10|0,0:2|0:0,0:0:0:0:
291,359,239068,6,0,L|207:370,1,75.9999999999999,2|0,3:2|0:0,0:0:0:0:
368,263,239429,1,8,0:2:0:0:
281,184,239610,1,0,3:2:0:0:
277,177,239700,1,8,0:2:0:0:
273,170,239791,2,0,P|272:133|287:96,1,75.9999999999999,2|0,3:2|3:2,0:0:0:0:
368,263,240152,2,0,P|381:298|381:336,1,75.9999999999999,10|0,0:2|0:0,0:0:0:0:
505,175,240513,6,0,P|457:191|362:130,1,152,2|8,3:2|0:2,0:0:0:0:
449,18,241056,1,0,3:2:0:0:
456,17,241146,1,8,0:2:0:0:
463,15,241236,2,0,P|469:53|453:92,1,75.9999999999999,2|0,3:2|3:2,0:0:0:0:
286,195,241598,2,0,L|276:119,1,75.9999999999999,8|0,0:2|0:0,0:0:0:0:
410,273,241959,6,0,B|323:257|345:320|240:291,1,152,2|14,3:2|0:2,0:0:0:0:
60,206,242592,1,8,0:2:0:0:
57,201,242682,2,0,L|45:123,1,75.9999999999999,2|8,3:2|0:2,0:0:0:0:
92,56,242953,1,8,0:2:0:0:
96,51,243044,1,10,0:2:0:0:
320,20,243224,1,8,0:2:0:0:
310,16,243315,1,8,0:2:0:0:
301,12,243405,6,0,P|246:60|266:141,1,152,6|10,3:2|0:2,0:0:0:0:
352,282,243947,1,2,0:0:0:0:
359,280,244038,1,10,0:2:0:0:
366,278,244128,2,0,L|377:199,1,75.9999999999999,2|0,3:2|3:2,0:0:0:0:
227,307,244489,2,0,L|237:382,1,75.9999999999999,10|0,0:2|0:0,0:0:0:0:
276,223,244851,6,0,P|222:208|137:273,1,152,2|8,3:2|0:2,0:0:0:0:
18,120,245483,1,8,0:2:0:0:
24,121,245574,2,0,L|110:135,1,75.9999999999999,2|0,3:2|3:2,0:0:0:0:
153,23,245935,2,0,P|110:15|73:28,1,75.9999999999999,8|0,0:2|0:0,0:0:0:0:
207,111,246297,6,0,L|359:91,1,152,2|8,3:2|0:2,0:0:0:0:
325,303,246929,1,8,0:2:0:0:
320,299,247020,2,0,P|313:267|327:218,1,75.9999999999999,0|0,3:2|3:2,0:0:0:0:
483,276,247381,2,0,L|405:265,1,75.9999999999999,14|0,0:2|0:0,0:0:0:0:
224,323,247742,5,2,3:2:0:0:
203,315,247833,1,8,0:2:0:0:
182,312,247923,1,8,0:2:0:0:
160,313,248013,1,8,0:2:0:0:
140,320,248104,1,8,0:2:0:0:
121,331,248194,1,8,0:3:0:0:
105,346,248285,1,4,0:3:0:0:
93,364,248375,1,4,0:3:0:0:
99,371,248465,6,0,L|87:291,1,75.9999999999999,14|10,0:2|0:2,0:0:0:0:
187,144,248827,1,10,0:2:0:0:
4,199,249007,2,0,L|42:206,1,37.9999999999999,10|0,0:2|0:0,0:0:0:0:
