osu file format v14

[General]
AudioFilename: audio.mp3
AudioLeadIn: 0
PreviewTime: 59445
Countdown: 0
SampleSet: Soft
StackLeniency: 0.3
Mode: 0
LetterboxInBreaks: 0
WidescreenStoryboard: 0

[Editor]
DistanceSpacing: 0.5
BeatDivisor: 4
GridSize: 32
TimelineZoom: 1.8

[Metadata]
Title:Ai ni Deai Koi wa Tsuzuku (Cut Ver.)
TitleUnicode:愛に出会い恋は続く (Cut Ver.)
Artist:HoneyWorks feat. Kotoha
ArtistUnicode:HoneyWorks feat. Kotoha
Creator:Wanpachi
Version:Insane
Source:
Tags:cycopton tsudzuku haniwa ハニーワークス haniiwaakusu jpop japanese pop j-pop cover sphere meets スフィア 一分一秒君と僕の ippun ichibyo kimito bokuno
BeatmapID:2945048
BeatmapSetID:1430006

[Difficulty]
HPDrainRate:5.5
CircleSize:3.8
OverallDifficulty:8
ApproachRate:8.7
SliderMultiplier:1.6
SliderTickRate:1

[Events]
//Background and Video events
0,0,"shiroi doresu.jpg",0,0
//Break Periods
//Storyboard Layer 0 (Background)
//Storyboard Layer 1 (Fail)
//Storyboard Layer 2 (Pass)
//Storyboard Layer 3 (Foreground)
//Storyboard Layer 4 (Overlay)
//Storyboard Sound Samples

[TimingPoints]
1320,300,4,2,0,50,1,0
1320,-250,4,2,0,50,0,0
9120,-166.666666666667,4,2,0,50,0,0
9720,300,4,2,0,70,1,0
9720,-125,4,2,0,70,0,0
19320,-166.666666666667,4,2,0,60,0,0
24045,-166.666666666667,4,2,0,5,0,0
24120,-166.666666666667,4,2,0,60,0,0
27645,-166.666666666667,4,2,0,5,0,0
27720,-125,4,2,0,60,0,0
28920,-125,4,2,0,70,0,0
37545,-125,4,2,0,5,0,0
37620,-125,4,2,0,70,0,0
38520,300,3,2,0,70,1,0
38520,-125,3,2,0,70,0,0
52920,-250,3,2,0,50,0,0
56445,-250,3,2,0,5,0,0
56520,-250,3,2,0,40,0,0
58320,-100,3,2,0,60,0,0
60120,300,4,2,0,80,1,1
60120,-100,4,2,0,80,0,1
60195,-100,4,2,0,80,0,0
69720,-100,4,2,0,80,0,1
69795,-100,4,2,0,80,0,0
79320,-100,4,2,0,60,0,0
82920,-166.666666666667,4,2,0,60,0,0
84120,-125,4,2,0,70,0,0
93720,375,4,2,0,50,1,0
93720,-250,4,2,0,50,0,0
95220,428.571428571429,4,2,0,50,1,0
95220,-250,4,2,0,50,0,0
96505,500,4,2,0,50,1,0
96505,-250,4,2,0,50,0,0
97005,600,4,2,0,50,1,0
97005,-250,4,2,0,50,0,0
98055,600,4,2,0,50,1,0
98055,-250,4,2,0,50,0,0
99255,600,4,2,0,50,1,0
99255,-250,4,2,0,50,0,0
99405,-250,4,2,0,50,0,0

[Colours]
Combo1 : 143,239,208
Combo2 : 189,239,143
Combo3 : 239,143,153
Combo4 : 239,163,143

[HitObjects]
350,303,9120,6,0,L|345:252,1,47.9999985351563,2|0,0:2|0:2,0:0:0:0:
394,195,9420,2,0,L|398:144,1,47.9999985351563,2|0,0:2|0:2,0:0:0:0:
254,36,9720,6,0,B|193:20|193:20|126:45,1,128,6|0,3:2|1:2,0:0:0:0:
132,42,10170,1,0,0:2:0:0:
192,177,10320,2,0,L|195:113,1,64,2|0,3:2|3:2,0:0:0:0:
65,104,10620,2,0,L|61:167,1,64,2|0,1:2|3:2,0:0:0:0:
125,243,10920,6,0,B|179:248|179:248|195:268|195:268|250:274,1,128,2|0,0:2|1:2,0:0:0:0:
243,273,11370,1,0,0:2:0:0:
390,357,11520,2,0,P|392:321|388:284,1,64,2|0,3:2|3:2,0:0:0:0:
320,164,11820,2,0,P|317:199|321:236,1,64,2|0,1:2|0:2,0:0:0:0:
460,225,12120,6,0,L|475:92,1,128,2|2,3:2|1:2,0:0:0:0:
391,77,12520,5,2,0:2:0:0:
386,119,12620,5,2,0:2:0:0:
381,161,12720,6,0,B|347:170|347:170|313:161,1,64,2|0,3:2|3:2,0:0:0:0:
226,56,13020,2,0,B|259:46|259:46|293:55,1,64,2|0,1:2|3:2,0:0:0:0:
188,175,13320,6,0,L|56:168,1,128,2|0,0:2|1:2,0:0:0:0:
60,168,13920,5,2,1:2:0:0:
86,345,14070,1,0,3:2:0:0:
220,281,14220,5,2,1:2:0:0:
136,248,14370,1,0,1:2:0:0:
184,376,14520,6,0,P|253:369|327:380,1,128,6|0,3:2|1:2,0:0:0:0:
310,375,14970,1,0,0:2:0:0:
404,327,15120,2,0,L|414:263,1,64,2|0,3:2|3:2,0:0:0:0:
298,189,15420,2,0,L|287:252,1,64,2|0,1:2|3:2,0:0:0:0:
397,151,15720,6,0,P|384:88|377:25,1,128,2|0,0:2|1:2,0:0:0:0:
377,24,16170,1,0,0:2:0:0:
297,98,16320,2,0,B|267:106|267:106|217:95,1,64,2|0,3:2|3:2,0:0:0:0:
121,5,16620,2,0,B|151:-3|151:-3|201:8,1,64,2|0,1:2|0:2,0:0:0:0:
105,142,16920,6,0,P|111:194|108:277,1,128,2|2,3:2|1:2,0:0:0:0:
174,340,17370,1,2,0:2:0:0:
30,318,17520,2,0,L|25:236,1,64,2|0,3:2|3:2,0:0:0:0:
140,124,17820,2,0,L|145:206,1,64,2|0,1:2|3:2,0:0:0:0:
174,340,18120,6,0,B|235:319|235:319|294:343,1,128,2|2,0:2|1:2,0:0:0:0:
335,281,18520,5,2,0:2:0:0:
295,264,18620,5,2,0:2:0:0:
256,248,18720,6,0,P|257:204|254:171,1,64,2|0,3:2|0:2,0:0:0:0:
286,34,19020,1,0,1:2:0:0:
167,59,19170,1,0,1:2:0:0:
167,59,19245,1,0,1:2:0:0:
167,59,19320,6,0,P|192:64|218:65,1,47.9999985351563,6|0,3:2|0:2,0:0:0:0:
272,111,19620,2,0,P|297:109|322:104,1,47.9999985351563,2|0,3:2|0:2,0:0:0:0:
390,21,19920,2,0,L|387:72,1,47.9999985351563,2|0,3:2|0:2,0:0:0:0:
433,126,20220,2,0,L|436:176,1,47.9999985351563,2|0,3:2|0:2,0:0:0:0:
496,265,20520,6,0,B|448:247|448:247|390:271,1,95.9999970703126,2|0,3:2|3:2,0:0:0:0:
407,264,21120,2,0,L|350:256,1,47.9999985351563,2|0,3:2|0:2,0:0:0:0:
313,194,21420,2,0,L|256:201,1,47.9999985351563,2|0,3:2|0:2,0:0:0:0:
166,263,21720,6,0,P|171:231|173:209,1,47.9999985351563,2|0,3:2|0:2,0:0:0:0:
207,149,22020,2,0,P|204:123|199:98,1,47.9999985351563,2|0,3:2|0:2,0:0:0:0:
107,49,22320,2,0,L|157:42,1,47.9999985351563,2|0,3:2|0:2,0:0:0:0:
67,111,22620,2,0,L|16:103,1,47.9999985351563,2|0,3:2|0:2,0:0:0:0:
111,170,22920,6,0,P|107:218|106:268,1,95.9999970703126,2|0,3:2|3:2,0:0:0:0:
106,265,23520,2,0,P|136:260|161:258,1,47.9999985351563,2|0,3:2|0:2,0:0:0:0:
233,234,23820,2,0,P|221:275|222:316,1,71.9999978027344,2|0,3:3|0:2,0:0:0:0:
233,324,24120,6,0,L|288:317,1,47.9999985351563,2|0,3:2|0:2,0:0:0:0:
345,359,24420,2,0,L|394:364,1,47.9999985351563,2|0,3:2|0:2,0:0:0:0:
442,261,24720,2,0,P|443:286|449:311,1,47.9999985351563,2|0,3:2|0:2,0:0:0:0:
381,206,25020,2,0,P|381:180|387:155,1,47.9999985351563,2|0,3:2|0:2,0:0:0:0:
447,83,25320,6,0,L|338:72,1,95.9999970703126,2|0,3:2|3:2,0:0:0:0:
351,74,25920,2,0,P|326:77|302:82,1,47.9999985351563,2|0,3:2|0:2,0:0:0:0:
254,30,26220,2,0,P|228:23|204:20,1,47.9999985351563,2|0,3:2|0:2,0:0:0:0:
93,11,26520,6,0,L|96:61,1,47.9999985351563,2|0,3:2|0:2,0:0:0:0:
165,89,26820,2,0,L|160:138,1,47.9999985351563,2|0,3:2|0:2,0:0:0:0:
48,172,27120,2,0,P|73:173|98:180,1,47.9999985351563,2|0,3:2|0:2,0:0:0:0:
146,240,27420,2,0,P|182:230|220:227,1,71.9999978027344,2|0,3:3|0:2,0:0:0:0:
247,237,27720,5,4,1:2:0:0:
317,382,27870,1,0,3:2:0:0:
425,283,28020,5,0,3:2:0:0:
344,277,28170,1,0,1:2:0:0:
344,277,28470,5,0,1:2:0:0:
443,129,28620,1,0,1:2:0:0:
292,88,28770,1,0,1:2:0:0:
332,167,28920,6,0,P|300:169|268:174,1,64,6|0,3:2|0:2,0:0:0:0:
142,121,29220,2,0,P|173:118|205:113,1,64,2|0,1:2|0:2,0:0:0:0:
85,260,29520,2,0,B|73:230|73:230|83:199,1,64,2|0,3:2|3:2,0:0:0:0:
210,283,29820,2,0,B|221:312|221:312|211:343,1,64,2|0,1:2|0:2,0:0:0:0:
268,174,30120,6,0,B|318:174|318:174|334:189|334:189|392:191,1,128,2|0,3:2|1:2,0:0:0:0:
390,191,30570,1,0,0:2:0:0:
486,166,30720,2,0,L|495:83,1,64,2|0,3:2|3:2,0:0:0:0:
373,41,31020,2,0,L|366:104,1,64,2|0,1:2|0:2,0:0:0:0:
268,174,31320,6,0,P|276:204|280:236,1,64,2|0,3:2|0:2,0:0:0:0:
425,341,31620,2,0,P|416:310|412:278,1,64,2|0,1:2|0:2,0:0:0:0:
285,365,31920,2,0,L|221:372,1,64,2|0,3:2|3:2,0:0:0:0:
91,272,32220,2,0,L|154:264,1,64,2|0,1:2|0:2,0:0:0:0:
301,110,32520,6,0,P|287:172|279:236,1,128,2|0,3:2|1:2,0:0:0:0:
279,236,33120,1,2,3:2:0:0:
187,147,33270,1,0,3:2:0:0:
271,32,33420,2,0,B|303:24|303:24|344:34,1,64,2|0,1:2|0:2,0:0:0:0:
447,158,33720,6,0,L|453:88,1,64,6|0,3:2|0:2,0:0:0:0:
319,173,34020,2,0,L|313:236,1,64,2|0,1:2|0:2,0:0:0:0:
436,281,34320,2,0,P|467:279|499:271,1,64,2|0,3:2|3:2,0:0:0:0:
339,364,34620,2,0,P|307:365|275:373,1,64,2|0,1:2|0:2,0:0:0:0:
140,324,34920,6,0,L|126:186,1,128,2|0,3:2|1:2,0:0:0:0:
127,196,35370,1,0,0:2:0:0:
236,237,35520,2,0,B|267:227|267:227|311:237,1,64,2|0,3:2|3:2,0:0:0:0:
153,104,35820,2,0,B|122:114|122:114|78:104,1,64,2|0,1:2|0:2,0:0:0:0:
267,47,36120,6,0,P|272:78|274:110,1,64,2|0,3:2|0:2,0:0:0:0:
400,188,36420,2,0,P|394:156|392:124,1,64,2|0,1:2|0:2,0:0:0:0:
236,237,36720,2,0,L|164:247,1,64,2|0,3:2|3:2,0:0:0:0:
345,318,37020,2,0,L|440:304,1,96,2|0,1:3|0:0,0:0:0:0:
472,299,37320,5,8,0:3:0:0:
377,121,37620,6,0,L|334:127,2,42.6666666666667,4|8|4,0:3|0:3|0:3,0:0:0:0:
419,113,37920,5,0,3:2:0:0:
472,299,38220,5,0,1:2:0:0:
429,305,38320,5,0,1:2:0:0:
387,311,38420,5,0,1:2:0:0:
345,317,38520,5,6,3:2:0:0:
209,204,38820,1,2,1:2:0:0:
355,52,39120,1,2,1:2:0:0:
180,25,39420,6,0,P|118:27|52:29,2,128,2|2|2,3:2|1:2|1:2,0:0:0:0:
282,127,40320,5,2,3:2:0:0:
129,232,40620,1,2,1:2:0:0:
345,317,40920,1,2,1:2:0:0:
152,357,41220,6,0,B|104:351|104:351|81:368|81:368|29:363,2,128,2|2|2,3:2|1:2|1:2,0:0:0:0:
259,227,42120,5,2,3:2:0:0:
92,53,42420,1,2,1:2:0:0:
59,263,42720,1,2,1:2:0:0:
260,55,43020,6,0,P|333:61|403:77,2,128,2|2|2,3:2|1:2|1:2,0:0:0:0:
42,205,43920,5,2,3:2:0:0:
20,296,44070,1,2,0:2:0:0:
110,270,44220,2,0,B|142:263|142:263|182:269,1,64,2|2,1:2|0:0,0:0:0:0:
187,360,44520,2,0,B|155:367|155:367|115:361,1,64,2|2,1:2|0:0,0:0:0:0:
265,300,44820,6,0,L|297:166,2,128,2|2|2,3:2|1:2|1:2,0:0:0:0:
450,47,45720,5,4,3:2:0:0:
306,18,46020,1,2,1:2:0:0:
188,189,46320,1,2,1:2:0:0:
34,135,46620,6,0,P|29:87|44:-2,2,128,2|2|2,3:2|1:2|1:2,0:0:0:0:
212,78,47520,5,2,3:2:0:0:
155,292,47820,1,2,1:2:0:0:
350,218,48120,1,2,1:2:0:0:
448,357,48420,5,2,3:2:0:0:
448,357,48720,1,2,1:2:0:0:
492,277,48870,1,0,1:2:0:0:
376,257,49020,2,0,P|379:216|373:182,1,64,0|0,1:0|1:0,0:0:0:0:
429,101,49320,5,2,3:2:0:0:
279,251,49620,1,2,1:2:0:0:
448,357,49920,1,2,1:2:0:0:
208,383,50220,6,0,P|145:374|81:370,2,128,2|2|2,3:2|1:2|1:2,0:0:0:0:
369,299,51120,5,2,3:2:0:0:
202,155,51420,1,2,1:2:0:0:
335,18,51720,1,2,1:2:0:0:
320,183,52020,5,2,3:2:0:0:
235,263,52320,1,8,0:3:0:0:
128,235,52620,1,4,0:3:0:0:
61,41,52920,6,0,P|92:34|125:25,2,64,2|2|2,0:2|0:2|0:2,0:0:0:0:
21,129,53820,2,0,P|51:138|84:147,2,64,2|2|2,0:2|0:2|0:2,0:0:0:0:
125,242,54720,6,0,P|148:220|172:196,2,64,2|2|2,0:2|0:2|0:2,0:0:0:0:
25,244,55620,2,0,P|32:275|41:307,1,64,2|2,0:2|0:2,0:0:0:0:
139,351,56220,1,2,0:2:0:0:
225,284,56520,6,0,B|279:289|279:289|293:300|293:300|348:306,1,128,2|2,0:2|0:2,0:0:0:0:
392,246,57420,1,2,0:2:0:0:
422,316,57720,1,2,0:2:0:0:
380,376,58020,1,2,0:2:0:0:
317,218,58320,6,0,B|322:179|322:179|314:138,1,80,6|0,3:2|0:2,0:0:0:0:
441,65,58620,2,0,B|436:104|436:104|443:144,1,80,0|0,1:2|1:2,0:0:0:0:
328,25,58920,2,0,P|289:20|238:13,1,80,8|8,0:3|0:3,0:0:0:0:
153,171,59220,2,0,P|192:176|232:181,1,80,4|4,0:3|0:3,0:0:0:0:
45,95,59520,5,2,3:2:0:0:
86,299,59670,1,0,1:2:0:0:
252,205,59820,5,6,1:2:0:0:
153,171,59970,1,0,1:2:0:0:
222,357,60120,6,0,P|307:349|395:361,1,160,6|0,1:1|1:2,0:0:0:0:
494,269,60570,1,0,0:2:0:0:
437,197,60720,2,0,L|337:202,1,80,2|0,3:2|3:2,0:0:0:0:
294,67,61020,2,0,L|373:63,1,80,2|0,1:2|0:2,0:0:0:0:
210,221,61320,6,0,L|50:213,1,160,2|0,3:2|1:2,0:0:0:0:
8,64,61770,1,0,0:2:0:0:
91,19,61920,2,0,B|104:58|104:58|88:117,1,80,2|0,3:2|3:2,0:0:0:0:
210,221,62220,2,0,B|197:182|197:182|213:123,1,80,2|0,1:2|0:2,0:0:0:0:
235,115,62445,1,0,1:2:0:0:
235,115,62520,6,0,P|274:118|311:132,1,80,2|0,3:2|3:2,0:0:0:0:
396,96,62820,2,0,P|413:132|419:171,1,80,2|0,1:2|3:2,0:0:0:0:
274,309,63120,2,0,P|235:315|199:332,1,80,2|0,1:2|3:2,0:0:0:0:
386,290,63421,2,0,P|361:259|329:236,1,80,2|0,1:2|0:2,0:0:0:0:
302,60,63720,6,0,B|230:65|230:65|218:87|218:87|156:93,1,160,2|0,3:2|1:2,0:0:0:0:
98,165,64170,1,0,0:2:0:0:
185,272,64320,2,0,P|189:230|185:184,1,80,2|0,3:1|3:2,0:0:0:0:
4,186,64620,2,0,P|0:228|4:274,1,80,2|0,1:2|0:2,0:0:0:0:
152,374,64920,6,0,L|313:357,1,160,6|0,3:1|1:2,0:0:0:0:
409,275,65370,1,0,0:2:0:0:
480,237,65520,2,0,B|493:278|493:278|479:323,1,80,2|0,3:2|3:2,0:0:0:0:
340,227,65820,2,0,B|327:186|327:186|341:141,1,80,2|0,1:2|0:2,0:0:0:0:
512,41,66120,6,0,P|433:56|347:68,1,160,2|0,3:2|1:2,0:0:0:0:
234,144,66570,1,0,0:2:0:0:
158,99,66720,2,0,L|165:13,1,80,2|0,3:2|3:2,0:0:0:0:
58,155,67020,2,0,L|51:69,1,80,2|0,1:2|0:2,0:0:0:0:
182,253,67320,6,0,P|261:238|347:226,1,160,2|0,3:2|1:2,0:0:0:0:
227,51,67770,1,0,0:2:0:0:
158,99,67920,2,0,B|147:138|147:138|163:189,1,80,2|0,3:2|3:2,0:0:0:0:
307,92,68220,2,0,B|318:53|318:53|302:2,1,80,2|0,1:2|0:2,0:0:0:0:
267,4,68445,1,0,1:0:0:0:
267,4,68520,6,0,P|212:13|173:18,1,80,6|0,3:2|3:2,0:0:0:0:
328,109,68820,6,0,P|383:118|422:123,1,80,0|4,1:2|3:2,0:0:0:0:
237,163,69120,5,2,1:1:0:0:
158,175,69270,1,0,3:2:0:0:
350,241,69420,5,6,1:2:0:0:
429,253,69570,1,0,1:2:0:0:
263,331,69720,6,0,P|184:344|104:355,1,160,6|0,3:1|1:2,0:0:0:0:
0,227,70170,1,0,0:2:0:0:
72,156,70320,2,0,L|155:172,1,80,2|0,3:2|3:2,0:0:0:0:
17,58,70620,2,0,L|100:42,1,80,2|0,1:2|0:2,0:0:0:0:
247,0,70920,6,0,B|309:13|309:13|320:39|320:39|386:51,1,160,2|0,3:2|1:2,0:0:0:0:
424,242,71370,1,0,0:2:0:0:
494,171,71520,2,0,B|478:134|478:134|489:96,1,80,2|0,3:2|3:2,0:0:0:0:
320,166,71820,2,0,B|335:204|335:204|324:242,1,80,2|0,1:2|0:2,0:0:0:0:
348,278,72045,1,0,1:2:0:0:
348,278,72120,6,0,P|383:264|424:260,1,80,2|0,3:2|3:2,0:0:0:0:
233,282,72420,2,0,P|239:243|256:207,1,80,2|0,1:2|3:2,0:0:0:0:
107,361,72720,2,0,P|146:367|182:384,1,80,2|0,1:2|3:2,0:0:0:0:
0,319,73020,2,0,P|25:288|57:265,1,80,2|0,1:2|0:2,0:0:0:0:
36,138,73320,6,0,L|208:126,1,160,2|0,3:2|1:2,0:0:0:0:
248,59,73770,1,0,0:0:0:0:
422,122,73920,2,0,P|420:72|412:37,1,80,2|0,3:1|3:2,0:0:0:0:
282,134,74220,2,0,P|283:183|291:218,1,80,2|0,1:2|0:2,0:0:0:0:
443,288,74520,6,0,B|379:298|379:298|358:324|358:324|296:333,1,160,6|0,3:1|1:2,0:0:0:0:
190,224,74970,1,0,0:2:0:0:
111,282,75120,2,0,L|100:365,1,80,2|0,3:2|3:2,0:0:0:0:
98,169,75420,2,0,L|20:200,1,80,2|0,1:2|0:2,0:0:0:0:
228,129,75720,6,0,P|304:145|391:135,1,160,2|0,3:2|1:2,0:0:0:0:
426,314,76170,1,0,0:2:0:0:
478,247,76320,2,0,B|489:205|489:205|474:166,1,80,2|0,3:2|3:2,0:0:0:0:
338,275,76620,2,0,B|327:317|327:317|342:356,1,80,2|0,1:2|0:2,0:0:0:0:
197,215,76920,6,0,P|182:104|169:31,1,160,2|0,3:2|1:2,0:0:0:0:
306,21,77370,1,0,0:2:0:0:
365,99,77520,2,0,L|449:85,1,80,2|0,3:2|3:2,0:0:0:0:
315,206,77820,2,0,L|399:220,1,80,2|0,1:2|0:2,0:0:0:0:
496,348,78120,6,0,L|487:295,2,53.3333333333333,2|8|8,3:2|0:3|0:3,0:0:0:0:
413,358,78420,6,0,L|404:305,2,53.3333333333333,0|4|4,3:2|0:3|0:3,0:0:0:0:
329,349,78720,5,2,3:2:0:0:
329,349,78820,6,0,L|276:340,1,53.3333333333333,0|0,3:2|3:2,0:0:0:0:
157,232,79020,5,2,1:2:0:0:
209,223,79120,5,0,1:2:0:0:
262,214,79220,5,0,1:2:0:0:
314,205,79320,5,6,3:1:0:0:
96,117,80520,5,6,3:1:0:0:
339,28,81720,5,6,3:1:0:0:
441,195,82320,5,6,3:1:0:0:
319,343,82920,5,6,3:1:0:0:
91,304,83520,2,0,L|85:248,1,47.9999985351563,2|0,0:2|0:0,0:0:0:0:
148,200,83820,2,0,L|154:144,1,47.9999985351563,2|0,0:2|0:0,0:0:0:0:
0,48,84120,6,0,P|64:58|144:44,1,128,6|0,3:2|1:2,0:0:0:0:
126,49,84570,1,0,0:2:0:0:
261,8,84720,2,0,B|251:41|251:41|257:69,1,64,2|0,3:2|3:2,0:0:0:0:
388,147,85020,2,0,B|398:114|398:114|391:85,1,64,2|0,1:2|0:2,0:0:0:0:
267,193,85320,6,0,P|193:203|129:214,1,128,2|0,3:2|1:2,0:0:0:0:
140,211,85770,1,0,0:2:0:0:
80,360,85920,2,0,L|67:278,1,64,2|0,3:2|3:2,0:0:0:0:
228,295,86220,2,0,L|238:358,1,64,2|0,1:2|0:2,0:0:0:0:
359,254,86520,6,0,B|412:256|412:256|429:273|429:273|483:276,1,128,2|2,3:2|1:2,0:0:0:0:
472,191,86920,5,2,0:2:0:0:
469,148,87020,5,2,0:2:0:0:
466,105,87120,6,0,P|430:99|385:108,1,64,2|0,3:2|3:2,0:0:0:0:
296,250,87420,2,0,P|332:256|377:247,1,64,2|0,1:2|0:2,0:0:0:0:
262,97,87720,6,0,L|118:82,1,128,2|0,3:2|1:2,0:0:0:0:
134,83,88320,5,2,1:2:0:0:
179,280,88470,1,0,3:2:0:0:
17,261,88620,5,2,1:2:0:0:
90,192,88770,1,0,1:2:0:0:
90,359,88920,6,0,P|157:352|230:363,1,128,6|0,3:2|1:2,0:0:0:0:
216,359,89370,1,0,0:2:0:0:
283,261,89520,2,0,L|279:181,1,64,2|0,3:2|3:2,0:0:0:0:
400,319,89820,2,0,L|403:382,1,64,2|0,1:2|0:2,0:0:0:0:
512,206,90120,6,0,P|445:213|372:202,1,128,2|0,3:2|1:2,0:0:0:0:
385,205,90570,1,0,0:2:0:0:
441,108,90720,2,0,B|447:76|447:76|437:34,1,64,2|0,3:2|3:2,0:0:0:0:
267,10,91020,2,0,B|261:42|261:42|271:84,1,64,2|0,1:2|0:2,0:0:0:0:
191,231,91320,6,0,B|140:223|140:223|119:207|119:207|69:200,1,128,2|2,3:2|1:2,0:0:0:0:
69,200,91770,1,2,0:2:0:0:
185,53,91920,2,0,P|179:84|186:115,1,64,2|0,3:2|3:2,0:0:0:0:
352,154,92220,2,0,P|357:122|350:91,1,64,2|0,1:2|0:2,0:0:0:0:
302,311,92520,6,0,B|428:328,1,128,2|6,3:2|1:2,0:0:0:0:
443,250,92920,5,2,0:2:0:0:
400,244,93020,5,2,0:2:0:0:
358,238,93120,6,0,B|315:232,2,42.6666666666667,8|8|8,0:3|0:3|0:3,0:0:0:0:
394,160,93420,6,0,B|437:166,2,42.6666666666667,4|4|4,0:3|0:3|0:3,0:0:0:0:
352,154,93720,5,2,0:0:0:0:
