osu file format v14

[General]
AudioFilename: audio.mp3
AudioLeadIn: 0
PreviewTime: 59445
Countdown: 0
SampleSet: Soft
StackLeniency: 0.3
Mode: 0
LetterboxInBreaks: 0
WidescreenStoryboard: 1

[Editor]
DistanceSpacing: 0.5
BeatDivisor: 4
GridSize: 32
TimelineZoom: 1.8

[Metadata]
Title:Ai ni Deai Koi wa Tsuzuku (Cut Ver.)
TitleUnicode:愛に出会い恋は続く (Cut Ver.)
Artist:HoneyWorks feat. Kotoha
ArtistUnicode:HoneyWorks feat. Kotoha
Creator:Wanpachi
Version:Hard
Source:
Tags:cycopton tsudzuku haniwa ハニーワークス haniiwaakusu jpop japanese pop j-pop cover sphere meets スフィア 一分一秒君と僕の ippun ichibyo kimito bokuno
BeatmapID:2945209
BeatmapSetID:1430006

[Difficulty]
HPDrainRate:5
CircleSize:3.5
OverallDifficulty:6
ApproachRate:7.6
SliderMultiplier:1.3
SliderTickRate:1

[Events]
//Background and Video events
0,0,"shiroi doresu.jpg",0,0
//Break Periods
2,52920,56520
//Storyboard Layer 0 (Background)
//Storyboard Layer 1 (Fail)
//Storyboard Layer 2 (Pass)
//Storyboard Layer 3 (Foreground)
//Storyboard Layer 4 (Overlay)
//Storyboard Sound Samples

[TimingPoints]
1320,300,4,2,0,50,1,0
1320,-250,4,2,0,50,0,0
9120,-125,4,2,0,50,0,0
9720,300,4,2,0,70,1,0
9720,-100,4,2,0,70,0,0
19320,-125,4,2,0,60,0,0
24045,-125,4,2,0,5,0,0
24120,-125,4,2,0,60,0,0
27645,-125,4,2,0,5,0,0
27720,-125,4,2,0,60,0,0
28920,-111.111111111111,4,2,0,70,0,0
31545,-111.111111111111,4,2,0,5,0,0
31620,-111.111111111111,4,2,0,70,0,0
36345,-111.111111111111,4,2,0,5,0,0
36420,-111.111111111111,4,2,0,70,0,0
37545,-111.111111111111,4,2,0,5,0,0
37620,-111.111111111111,4,2,0,70,0,0
38520,300,3,2,0,70,1,0
38520,-111.111111111111,3,2,0,70,0,0
52920,-125,3,2,0,50,0,0
56445,-125,3,2,0,5,0,0
56520,-125,3,2,0,40,0,0
58320,-100,3,2,0,60,0,0
60120,300,4,2,0,80,1,1
60120,-90.9090909090909,4,2,0,80,0,1
60195,-90.9090909090909,4,2,0,80,0,0
62445,-90.9090909090909,4,2,0,5,0,0
62520,-90.9090909090909,4,2,0,80,0,0
68445,-90.9090909090909,4,2,0,5,0,0
68520,-90.9090909090909,4,2,0,80,0,0
69720,-90.9090909090909,4,2,0,80,0,1
69795,-90.9090909090909,4,2,0,80,0,0
72045,-90.9090909090909,4,2,0,5,0,0
72120,-90.9090909090909,4,2,0,80,0,0
79320,-111.111111111111,4,2,0,60,0,0
84120,-100,4,2,0,70,0,0
93720,375,4,2,0,50,1,0
93720,-250,4,2,0,50,0,0
95220,428.571428571429,4,2,0,50,1,0
95220,-250,4,2,0,50,0,0
96505,500,4,2,0,50,1,0
96505,-250,4,2,0,50,0,0
97005,600,4,2,0,50,1,0
97005,-250,4,2,0,50,0,0
98055,600,4,2,0,50,1,0
98055,-250,4,2,0,50,0,0
99255,600,4,2,0,50,1,0
99255,-250,4,2,0,50,0,0
99405,-250,4,2,0,50,0,0

[Colours]
Combo1 : 143,239,208
Combo2 : 189,239,143
Combo3 : 239,143,153
Combo4 : 239,163,143

[HitObjects]
56,148,9120,5,2,0:2:0:0:
56,148,9420,1,2,0:2:0:0:
218,40,9720,6,0,B|288:33|268:78|341:66,1,130,6|0,3:2|1:2,0:0:0:0:
420,37,10170,1,0,0:2:0:0:
465,107,10320,2,0,P|463:139|462:171,1,65,2|0,3:2|3:2,0:0:0:0:
396,223,10620,2,0,P|398:255|399:287,1,65,2|0,1:2|3:2,0:0:0:0:
475,323,10920,6,0,P|407:323|365:364,1,130,2|0,0:2|1:2,0:0:0:0:
201,317,11520,1,2,3:2:0:0:
128,360,11670,1,0,3:2:0:0:
61,308,11820,2,0,P|67:265|66:237,1,65,2|0,1:2|0:2,0:0:0:0:
130,188,12120,6,0,P|119:123|118:59,1,130,2|2,3:2|1:2,0:0:0:0:
164,25,12520,2,0,L|222:28,1,43.3333333333333,2|2,0:2|0:2,0:0:0:0:
251,63,12720,2,0,P|293:53|329:48,1,65,2|0,3:2|3:2,0:0:0:0:
400,0,13020,2,0,P|442:10|478:15,1,65,2|0,1:2|3:2,0:0:0:0:
505,87,13320,6,0,P|475:142|478:215,1,130,2|0,0:2|1:2,0:0:0:0:
351,322,13920,1,2,1:2:0:0:
276,281,14070,1,0,3:2:0:0:
312,204,14220,2,0,P|304:166|298:138,1,65,2|0,1:2|1:2,0:0:0:0:
321,45,14520,6,0,P|271:87|185:83,1,130,6|0,3:2|1:2,0:0:0:0:
136,45,14970,1,0,0:2:0:0:
79,107,15120,2,0,P|75:145|66:187,1,65,2|0,3:2|3:2,0:0:0:0:
139,220,15420,2,0,P|143:258|152:300,1,65,2|0,1:2|3:2,0:0:0:0:
223,323,15720,6,0,B|296:316|281:366|345:353,1,130,2|0,0:2|1:2,0:0:0:0:
468,238,16320,1,2,3:2:0:0:
416,170,16470,1,0,3:2:0:0:
477,111,16620,2,0,P|482:75|488:35,1,65,2|0,1:2|0:2,0:0:0:0:
412,5,16920,6,0,P|360:49|284:46,1,130,2|2,3:2|1:2,0:0:0:0:
225,13,17370,1,2,0:2:0:0:
182,86,17520,2,0,P|149:81|117:76,1,65,2|0,3:2|3:2,0:0:0:0:
57,136,17820,2,0,P|61:168|66:200,1,65,2|0,1:2|3:2,0:0:0:0:
36,279,18120,5,2,0:2:0:0:
194,336,18420,2,0,L|185:397,2,43.3333333333333,2|2|2,1:2|0:2|0:2,0:0:0:0:
233,296,18720,2,0,P|228:263|223:231,1,65,2|0,3:2|0:2,0:0:0:0:
169,166,19020,2,0,P|173:133|178:101,1,65,0|0,1:2|1:2,0:0:0:0:
189,90,19245,1,0,1:2:0:0:
199,80,19320,6,0,P|261:74|297:113,1,104,6|2,3:2|3:2,0:0:0:0:
423,73,19920,2,0,P|409:151|406:186,1,104,2|2,3:2|3:2,0:0:0:0:
442,252,20370,1,0,0:2:0:0:
442,252,20520,2,0,B|388:245|401:283|344:276,1,104,2|0,3:2|3:2,0:0:0:0:
226,208,21120,1,2,3:2:0:0:
111,280,21420,2,0,P|107:305|103:331,1,52,2|0,3:2|0:2,0:0:0:0:
30,359,21720,6,0,P|22:307|15:256,1,104,2|2,3:2|3:2,0:0:0:0:
122,173,22320,2,0,P|129:121|136:70,1,104,2|2,3:2|3:2,0:0:0:0:
211,38,22770,1,0,0:2:0:0:
211,38,22920,2,0,P|243:77|306:79,1,104,2|0,3:2|3:2,0:0:0:0:
415,24,23520,1,2,3:2:0:0:
449,154,23820,2,0,P|436:199|433:229,1,78,2|0,3:3|0:2,0:0:0:0:
441,241,24120,6,0,B|381:233|396:272|342:263,1,104,2|2,3:2|3:2,0:0:0:0:
231,186,24720,2,0,P|262:141|259:81,1,104,2|2,3:2|3:2,0:0:0:0:
216,30,25170,1,0,0:2:0:0:
216,30,25320,2,0,P|166:37|104:44,1,104,2|0,3:2|3:2,0:0:0:0:
26,147,25920,1,2,3:2:0:0:
105,254,26220,2,0,P|102:279|98:305,1,52,2|0,3:2|0:2,0:0:0:0:
157,357,26520,6,0,P|201:320|267:322,1,104,2|2,3:2|3:2,0:0:0:0:
375,354,27120,2,0,P|377:328|381:302,1,52,2|0,3:2|0:2,0:0:0:0:
437,246,27420,2,0,P|430:207|426:168,1,78,2|0,3:3|0:2,0:0:0:0:
416,158,27720,6,0,P|418:132|422:106,1,52,4|0,1:2|3:2,0:0:0:0:
398,32,28020,1,0,3:2:0:0:
328,68,28170,1,0,1:2:0:0:
199,27,28470,5,0,1:2:0:0:
150,88,28620,1,0,1:2:0:0:
208,140,28770,1,0,1:2:0:0:
139,203,28920,6,0,P|149:249|154:281,1,58.4999982147217,6|0,3:2|0:2,0:0:0:0:
194,329,29220,2,0,P|148:339|116:344,1,58.4999982147217,2|0,1:2|0:2,0:0:0:0:
68,384,29520,2,0,P|58:338|53:306,1,58.4999982147217,2|0,3:2|3:2,0:0:0:0:
0,268,29820,2,0,P|6:239|11:210,1,58.4999982147217,2|0,1:2|0:2,0:0:0:0:
69,152,30120,6,0,P|33:104|42:37,1,116.999996429443,2|0,3:2|1:2,0:0:0:0:
192,1,30720,2,0,P|207:41|217:71,1,58.4999982147217,2|0,3:2|3:2,0:0:0:0:
281,101,31020,2,0,P|290:73|301:46,1,58.4999982147217,2|0,1:2|0:2,0:0:0:0:
378,16,31320,6,0,P|442:26|472:62,1,87.7499973220826,2|0,3:2|0:0,0:0:0:0:
464,53,31620,2,0,P|455:95|452:129,1,58.4999982147217,2|0,1:2|0:2,0:0:0:0:
395,168,31920,2,0,P|414:206|426:238,1,58.4999982147217,2|0,3:2|3:2,0:0:0:0:
478,278,32220,2,0,P|449:309|429:337,1,58.4999982147217,2|0,1:2|0:2,0:0:0:0:
366,285,32520,6,0,B|308:278|319:318|249:310,1,116.999996429443,2|0,3:2|1:2,0:0:0:0:
165,180,33120,1,2,3:2:0:0:
165,180,33270,1,0,3:2:0:0:
230,130,33420,2,0,P|233:93|239:64,1,58.4999982147217,2|0,1:2|0:2,0:0:0:0:
170,5,33720,6,0,P|133:8|104:14,1,58.4999982147217,6|0,3:2|0:2,0:0:0:0:
53,70,34020,2,0,P|83:91|105:110,1,58.4999982147217,2|0,1:2|0:2,0:0:0:0:
157,162,34320,2,0,P|141:195|131:223,1,58.4999982147217,2|0,3:2|3:2,0:0:0:0:
76,273,34620,2,0,P|73:310|67:339,1,58.4999982147217,2|0,1:2|0:2,0:0:0:0:
139,373,34920,6,0,P|182:337|242:339,1,116.999996429443,2|0,3:2|1:2,0:0:0:0:
401,365,35520,2,0,P|402:335|407:307,1,58.4999982147217,2|0,3:2|3:2,0:0:0:0:
339,259,35820,2,0,P|337:229|332:201,1,58.4999982147217,2|0,1:2|0:2,0:0:0:0:
390,142,36120,6,0,P|400:101|436:64,1,87.7499973220826,2|0,3:2|0:0,0:0:0:0:
442,59,36420,2,0,P|405:44|392:17,1,58.4999982147217,2|0,1:2|0:2,0:0:0:0:
321,65,36720,2,0,P|300:85|295:113,1,58.4999982147217,2|0,3:2|3:2,0:0:0:0:
216,90,37020,2,0,P|208:62|218:34,1,58.4999982147217,2|0,1:3|0:2,0:0:0:0:
138,13,37320,6,0,B|78:8|89:49|17:40,1,116.999996429443,8|4,0:3|0:3,0:0:0:0:
11,93,37720,2,0,L|21:148,1,38.9999988098145,8|4,0:3|0:3,0:0:0:0:
4,184,37920,1,0,3:2:0:0:
109,309,38220,2,0,L|99:364,2,38.9999988098145,0|0|0,1:2|1:2|1:2,0:0:0:0:
120,259,38520,5,6,3:2:0:0:
253,332,38820,2,0,P|310:326|354:282,1,116.999996429443,2|2,1:2|1:2,0:0:0:0:
364,135,39420,2,0,B|422:124|411:168|479:154,2,116.999996429443,2|2|2,3:2|1:2|1:2,0:0:0:0:
351,286,40320,5,2,3:2:0:0:
207,236,40620,2,0,P|150:243|109:284,1,116.999996429443,2|2,1:2|1:2,0:0:0:0:
26,157,41220,2,0,P|18:66|9:5,2,116.999996429443,2|2|2,3:2|1:2|1:2,0:0:0:0:
158,81,42120,5,2,3:2:0:0:
301,132,42420,1,2,1:2:0:0:
416,33,42720,1,2,1:2:0:0:
444,183,43020,1,2,3:2:0:0:
301,132,43320,1,2,1:2:0:0:
186,231,43620,1,2,1:2:0:0:
329,281,43920,6,0,P|336:238|346:209,2,58.4999982147217,2|2|2,3:2|0:2|1:2,0:0:0:0:
274,335,44370,1,2,0:2:0:0:
274,335,44520,2,0,P|237:325|205:335,1,58.4999982147217,2|2,1:2|0:2,0:0:0:0:
154,370,44820,1,2,3:2:0:0:
8,325,45120,1,2,1:2:0:0:
114,216,45420,1,2,1:2:0:0:
9,74,45720,5,4,3:2:0:0:
148,13,46020,2,0,P|214:26|237:84,1,116.999996429443,2|2,1:2|1:2,0:0:0:0:
182,208,46620,2,0,B|122:203|132:239|66:236,2,116.999996429443,2|2|2,3:2|1:2|1:2,0:0:0:0:
247,345,47520,5,2,3:2:0:0:
393,303,47820,2,0,P|401:225|415:166,1,116.999996429443,2|2,1:2|1:2,0:0:0:0:
497,63,48420,1,2,3:2:0:0:
355,7,48720,2,0,P|326:12|297:15,1,58.4999982147217,2|0,1:2|1:2,0:0:0:0:
243,68,49020,2,0,P|213:65|185:59,1,58.4999982147217,0|0,1:2|1:2,0:0:0:0:
138,0,49320,5,2,3:2:0:0:
19,96,49620,1,2,1:2:0:0:
161,152,49920,1,2,1:2:0:0:
42,248,50220,1,2,3:2:0:0:
184,304,50520,1,2,1:2:0:0:
303,208,50820,1,2,1:2:0:0:
326,359,51120,6,0,B|395:344|376:381|452:369,1,116.999996429443,2|2,3:2|1:2,0:0:0:0:
501,230,51720,1,2,1:2:0:0:
376,142,52020,2,0,P|291:151|264:195,2,116.999996429443,2|8|4,3:2|0:3|0:3,0:0:0:0:
61,64,58320,6,0,P|93:65|124:57,1,65,6|0,3:2|0:2,0:0:0:0:
184,117,58620,2,0,P|216:115|247:123,1,65,0|0,1:2|1:2,0:0:0:0:
307,63,58920,2,0,B|381:55|364:95|444:83,1,130,8|4,0:3|0:3,0:0:0:0:
499,144,59370,1,4,0:3:0:0:
499,144,59520,2,0,P|495:179|493:212,1,65,2|0,3:2|1:2,0:0:0:0:
402,245,59820,2,0,P|406:280|408:313,1,65,6|0,1:2|1:2,0:0:0:0:
329,384,60120,6,0,P|291:339|205:331,1,143.000004364014,6|0,1:1|1:2,0:0:0:0:
130,375,60570,1,0,0:2:0:0:
65,308,60720,2,0,P|75:264|79:234,1,71.5000021820069,2|0,3:2|3:2,0:0:0:0:
146,173,61020,2,0,P|136:129|132:99,1,71.5000021820069,2|0,1:2|0:2,0:0:0:0:
193,32,61320,6,0,B|274:18|247:63|331:49,1,143.000004364014,2|0,3:2|1:2,0:0:0:0:
411,0,61770,1,0,0:2:0:0:
494,40,61920,2,0,P|489:86|495:130,1,71.5000021820069,2|0,3:2|3:2,0:0:0:0:
404,143,62220,2,0,P|411:196|408:249,1,107.25000327301,2|0,1:2|0:2,0:0:0:0:
418,265,62520,6,0,P|379:285|336:295,1,71.5000021820069,2|0,3:2|3:2,0:0:0:0:
325,382,62820,2,0,P|288:359|258:327,1,71.5000021820069,2|0,1:2|3:2,0:0:0:0:
177,359,63120,2,0,P|178:315|191:273,1,71.5000021820069,2|0,1:2|3:2,0:0:0:0:
122,219,63420,2,0,P|160:198|203:188,1,71.5000021820069,2|0,1:2|0:2,0:0:0:0:
227,107,63720,6,0,P|296:123|367:132,1,143.000004364014,2|0,3:2|1:2,0:0:0:0:
437,69,64170,1,0,0:2:0:0:
485,148,64320,2,0,P|496:185|486:221,1,71.5000021820069,2|0,3:1|3:2,0:0:0:0:
433,291,64620,2,0,P|396:280|360:290,1,71.5000021820069,2|0,1:2|0:2,0:0:0:0:
318,384,64920,6,0,P|319:314|269:266,1,143.000004364014,6|0,3:1|1:2,0:0:0:0:
198,326,65370,1,0,0:2:0:0:
180,234,65520,2,0,P|176:189|185:151,1,71.5000021820069,2|0,3:2|3:2,0:0:0:0:
267,128,65820,2,0,P|271:83|262:45,1,71.5000021820069,2|0,1:2|0:2,0:0:0:0:
181,18,66120,6,0,B|104:1|126:61|37:46,1,143.000004364014,2|0,3:2|1:2,0:0:0:0:
16,136,66570,1,0,0:2:0:0:
92,188,66720,2,0,P|96:234|101:273,1,71.5000021820069,2|0,3:2|3:2,0:0:0:0:
191,247,67020,2,0,P|187:293|182:332,1,71.5000021820069,2|0,1:2|0:2,0:0:0:0:
264,364,67320,6,0,P|316:317|398:323,1,143.000004364014,2|0,3:2|1:2,0:0:0:0:
466,364,67770,1,0,0:2:0:0:
509,289,67920,2,0,P|500:248|496:204,1,71.5000021820069,2|0,3:2|3:2,0:0:0:0:
417,169,68220,2,0,P|428:116|435:63,1,107.25000327301,2|0,1:2|0:0,0:0:0:0:
422,50,68520,6,0,P|380:66|337:51,1,71.5000021820069,6|0,3:2|3:2,0:0:0:0:
283,4,68820,1,0,1:2:0:0:
227,77,68970,2,0,P|262:104|270:149,1,71.5000021820069,4|2,3:2|1:1,0:0:0:0:
257,220,69270,1,0,3:2:0:0:
349,232,69420,2,0,P|355:187|390:158,1,71.5000021820069,6|0,1:2|1:2,0:0:0:0:
481,168,69720,6,0,P|457:235|439:304,1,143.000004364014,6|0,3:1|1:2,0:0:0:0:
372,369,70170,1,0,0:2:0:0:
353,278,70320,2,0,P|317:261|265:261,1,71.5000021820069,2|0,3:2|3:2,0:0:0:0:
240,338,70620,2,0,P|204:355|152:355,1,71.5000021820069,2|0,1:2|0:2,0:0:0:0:
124,278,70920,6,0,P|109:209|50:173,1,143.000004364014,2|0,3:2|1:2,0:0:0:0:
3,92,71370,1,0,0:2:0:0:
56,15,71520,2,0,P|95:15|138:12,1,71.5000021820069,2|0,3:2|3:2,0:0:0:0:
192,80,71820,2,0,B|257:75|238:111|299:104,1,107.25000327301,2|0,1:2|0:2,0:0:0:0:
310,97,72120,6,0,P|322:130|331:165,1,71.5000021820069,2|0,3:2|3:2,0:0:0:0:
419,195,72420,2,0,P|395:222|370:247,1,71.5000021820069,2|0,1:2|3:2,0:0:0:0:
389,338,72720,2,0,P|353:331|319:322,1,71.5000021820069,2|0,1:2|3:2,0:0:0:0:
249,383,73020,2,0,P|236:349|227:314,1,71.5000021820069,2|0,1:2|0:2,0:0:0:0:
261,228,73320,6,0,P|194:222|138:275,1,143.000004364014,2|0,3:2|1:2,0:0:0:0:
55,309,73770,1,0,0:2:0:0:
13,225,73920,2,0,P|19:188|14:140,1,71.5000021820069,2|0,3:1|3:2,0:0:0:0:
99,110,74220,2,0,P|93:73|98:25,1,71.5000021820069,2|0,1:2|0:2,0:0:0:0:
186,17,74520,6,0,B|263:6|246:58|329:42,1,143.000004364014,6|0,3:1|1:2,0:0:0:0:
349,132,74970,1,0,0:2:0:0:
277,191,75120,2,0,P|290:246|299:285,1,71.5000021820069,2|0,3:2|3:2,0:0:0:0:
381,289,75420,2,0,P|389:254|397:219,1,71.5000021820069,2|0,1:2|0:2,0:0:0:0:
465,155,75720,6,0,P|461:79|416:35,1,143.000004364014,2|0,3:2|1:2,0:0:0:0:
324,12,76170,1,0,0:2:0:0:
260,80,76320,2,0,P|223:80|181:87,1,71.5000021820069,2|0,3:2|3:2,0:0:0:0:
123,18,76620,2,0,P|86:18|44:11,1,71.5000021820069,2|0,1:2|0:2,0:0:0:0:
9,96,76920,6,0,P|19:166|26:237,1,143.000004364014,2|0,3:2|1:2,0:0:0:0:
72,319,77370,1,0,0:2:0:0:
147,265,77520,2,0,P|186:257|234:255,1,71.5000021820069,2|0,3:2|3:2,0:0:0:0:
286,317,77820,2,0,P|325:325|373:327,1,71.5000021820069,2|0,1:2|0:2,0:0:0:0:
433,275,78120,6,0,L|484:268,2,47.6666681213379,2|8|8,3:2|0:3|0:3,0:0:0:0:
389,231,78420,2,0,L|338:224,2,47.6666681213379,0|4|4,3:2|0:3|0:3,0:0:0:0:
432,187,78720,2,0,L|483:180,2,47.6666681213379,2|0|0,3:2|3:2|3:2,0:0:0:0:
388,143,79020,2,0,L|337:136,2,47.6666681213379,2|0|0,1:2|1:2|1:2,0:0:0:0:
423,107,79320,5,6,3:1:0:0:
173,231,80520,1,6,3:1:0:0:
450,265,81720,6,0,P|412:271|328:292,1,116.999996429443,6|0,3:1|0:0,0:0:0:0:
196,351,82320,2,0,P|189:293|149:253,1,116.999996429443,6|2,3:1|0:2,0:0:0:0:
115,105,82920,2,0,B|247:84|201:181|345:150,1,233.999992858887,6|2,3:1|0:2,0:0:0:0:
455,58,83820,1,2,0:2:0:0:
269,0,84120,6,0,P|202:14|125:21,1,130,6|0,3:2|1:2,0:0:0:0:
58,7,84570,1,0,0:2:0:0:
14,78,84720,2,0,P|17:121|11:155,1,65,2|0,3:2|3:2,0:0:0:0:
87,185,85020,2,0,P|84:228|90:262,1,65,2|0,1:2|0:2,0:0:0:0:
18,298,85320,6,0,P|90:293|150:338,1,130,2|0,3:2|1:2,0:0:0:0:
303,358,85920,1,2,3:2:0:0:
379,319,86070,1,0,3:2:0:0:
456,354,86220,2,0,P|462:321|459:284,1,65,2|0,1:2|0:2,0:0:0:0:
394,237,86520,6,0,P|404:173|412:102,1,130,2|2,3:2|1:2,0:0:0:0:
372,68,86920,2,0,L|307:76,1,43.3333333333333,2|2,0:2|0:2,0:0:0:0:
290,113,87120,2,0,P|257:97|211:95,1,65,2|0,3:2|3:2,0:0:0:0:
163,41,87420,2,0,P|130:57|84:59,1,65,2|0,1:2|0:2,0:0:0:0:
37,115,87720,6,0,P|88:157|86:230,1,130,2|0,3:2|1:2,0:0:0:0:
45,288,88170,1,0,3:2:0:0:
104,348,88320,2,0,P|141:342|179:344,1,65,2|0,1:2|3:2,0:0:0:0:
221,275,88620,2,0,P|258:281|296:279,1,65,2|0,1:2|1:2,0:0:0:0:
355,349,88920,6,0,B|419:355|403:318|480:326,1,130,6|0,3:2|1:2,0:0:0:0:
446,248,89370,1,0,0:2:0:0:
481,171,89520,2,0,P|474:119|471:83,1,65,2|0,3:2|3:2,0:0:0:0:
388,114,89820,2,0,P|395:166|398:202,1,65,2|0,1:2|0:2,0:0:0:0:
336,238,90120,6,0,P|294:194|228:187,1,130,2|0,3:2|1:2,0:0:0:0:
128,49,90720,1,2,3:2:0:0:
48,20,90870,1,0,3:2:0:0:
0,89,91020,2,0,P|11:138|14:169,1,65,2|0,1:2|0:2,0:0:0:0:
87,191,91320,6,0,P|71:253|61:318,1,130,2|2,3:2|1:2,0:0:0:0:
134,361,91770,1,2,0:2:0:0:
208,320,91920,2,0,P|246:315|295:326,1,65,2|0,3:2|3:2,0:0:0:0:
340,368,92220,2,0,P|378:373|427:362,1,65,2|0,1:2|0:2,0:0:0:0:
453,301,92520,6,0,P|437:238|427:173,1,130,2|6,3:2|1:2,0:0:0:0:
387,133,92920,2,0,L|397:74,1,43.3333333333333,2|2,0:2|0:2,0:0:0:0:
354,50,93120,2,0,L|346:7,2,43.3333333333333,8|8|8,0:3|0:3|0:3,0:0:0:0:
313,90,93420,2,0,L|303:149,2,43.3333333333333,4|4|4,0:3|0:3|0:3,0:0:0:0:
280,57,93720,5,2,0:0:0:0:
