osu file format v14

[General]
AudioFilename: audio.mp3
AudioLeadIn: 0
PreviewTime: 183232
Countdown: 0
SampleSet: Soft
StackLeniency: 0.7
Mode: 0
LetterboxInBreaks: 0
WidescreenStoryboard: 0

[Editor]
Bookmarks: 81197,150179
DistanceSpacing: 0.7
BeatDivisor: 4
GridSize: 16
TimelineZoom: 1.7

[Metadata]
Title:Sis x Love
TitleUnicode:シス×ラブ
Artist:HoneyWorks feat. Hanon x Kotoha
ArtistUnicode:HoneyWorks feat. Hanon×Kotoha
Creator:Ayucchi
Version:I LOVE my sister!
Source:
Tags:sislove sisxlove rtyzen newton- mocaotic bongo cover japanese pop sister imouto siscon 成海聖奈 成海萌奈 雨宮天 夏川椎菜 Narumi Sena x Narumi Mona Amamiya Sora Natsukawa Shiina HoneyWorks Premium Live hanipure ハニプレ j-pop jpop
BeatmapID:2828061
BeatmapSetID:1358634

[Difficulty]
HPDrainRate:5
CircleSize:4
OverallDifficulty:8
ApproachRate:9
SliderMultiplier:1.7
SliderTickRate:1

[Events]
//Background and Video events
0,0,"sislove.jpg",0,0
//Break Periods
2,173373,183171
//Storyboard Layer 0 (Background)
//Storyboard Layer 1 (Fail)
//Storyboard Layer 2 (Pass)
//Storyboard Layer 3 (Foreground)
//Storyboard Layer 4 (Overlay)
//Storyboard Sound Samples

[TimingPoints]
718,359.281437125748,4,2,1,40,1,0
718,-200,4,2,1,40,0,0
6466,-200,4,2,1,30,0,0
12215,-100,4,2,1,65,0,0
23712,-125,4,2,1,50,0,0
35209,-111.111111111111,4,2,1,55,0,0
46706,-125,4,2,1,50,0,0
52454,-111.111111111111,4,2,1,60,0,0
55328,-100,4,2,1,65,0,0
58203,-83.3333333333333,4,2,1,75,0,1
81197,-100,4,2,1,65,0,0
92694,-125,4,2,1,50,0,0
104191,-111.111111111111,4,2,1,55,0,0
115688,-125,4,2,1,50,0,0
121436,-111.111111111111,4,2,1,55,0,0
124310,-111.111111111111,4,2,1,60,0,0
125029,-111.111111111111,4,2,1,65,0,0
127185,-83.3333333333333,4,2,1,75,0,1
150179,-100,4,2,1,65,0,0
161676,-125,4,2,1,50,0,0
167424,-125,4,2,1,55,0,0
170298,-100,4,2,1,65,0,0
184310,-250,4,2,1,65,0,0
184670,-83.3333333333333,4,2,1,75,0,1
196167,-100,4,2,1,65,0,0

[Colours]
Combo1 : 151,255,169
Combo2 : 250,199,217
Combo3 : 245,213,180

[HitObjects]
168,101,718,6,0,P|131:89|78:82,3,85,2|0|0|0,0:2|0:2|0:2|0:2,0:0:0:0:
1,196,2155,6,0,P|38:184|91:177,3,85,2|0|0|0,0:2|0:2|0:2|0:2,0:0:0:0:
181,223,3592,6,0,P|174:261|161:323,1,85,2|0,0:2|0:2,0:0:0:0:
244,345,4310,2,0,P|251:307|264:245,1,85,0|0,0:2|0:2,0:0:0:0:
244,170,5029,6,0,L|196:155,3,28.3333333333333,2|0|0|0,0:2|0:2|0:2|0:2,0:0:0:0:
366,234,5747,6,0,L|318:249,3,28.3333333333333,2|0|0|0,0:2|0:2|0:2|0:2,0:0:0:0:
469,140,6466,5,0,0:2:0:0:
469,140,7903,5,0,0:2:0:0:
469,140,9340,5,0,0:2:0:0:
256,192,10777,12,0,12125,0:2:0:0:
365,79,12215,5,14,0:2:0:0:
228,159,12394,1,0,3:2:0:0:
404,204,12574,1,0,3:2:0:0:
285,62,12753,2,0,P|244:74|185:85,1,85,10|0,0:2|3:2,0:0:0:0:
440,125,13113,1,0,3:2:0:0:
335,262,13292,2,0,P|294:250|235:239,1,85,10|0,0:2|3:2,0:0:0:0:
125,67,13652,5,14,0:2:0:0:
39,244,13831,1,0,3:2:0:0:
218,150,14011,1,0,3:2:0:0:
26,165,14191,2,0,P|76:170|111:221,1,85,10|0,0:2|3:2,0:0:0:0:
87,343,14550,1,0,3:2:0:0:
179,241,14729,1,10,0:2:0:0:
175,257,14819,1,0,3:2:0:0:
172,273,14909,1,0,3:2:0:0:
169,289,14999,1,0,3:2:0:0:
166,305,15089,5,14,0:2:0:0:
100,192,15268,1,0,3:2:0:0:
259,77,15448,1,0,3:2:0:0:
124,41,15628,2,0,L|148:138,1,85,10|0,0:2|3:2,0:0:0:0:
257,244,15987,1,0,3:2:0:0:
377,170,16167,2,0,L|280:146,1,85,14|0,0:2|3:2,0:0:0:0:
269,329,16526,6,0,B|341:330|315:271|385:273,1,127.5,14|0,0:2|0:2,0:0:0:0:
377,273,16885,2,0,L|389:342,1,42.5,0|0,3:2|0:2,0:0:0:0:
468,191,17065,2,0,L|456:259,1,42.5,8|8,0:2|0:2,0:0:0:0:
425,69,17244,5,2,3:2:0:0:
428,81,17334,1,0,3:2:0:0:
431,93,17424,1,0,3:2:0:0:
434,105,17514,1,0,3:2:0:0:
466,115,17604,1,10,2:2:0:0:
494,96,17694,1,8,2:2:0:0:
505,64,17783,1,8,2:2:0:0:
497,30,17873,1,8,2:2:0:0:
475,10,17963,6,0,L|333:59,1,127.5,6|0,3:2|0:2,0:0:0:0:
354,51,18322,2,0,P|355:76|326:101,1,42.5,8|0,0:2|0:2,0:0:0:0:
210,52,18502,1,2,3:2:0:0:
222,56,18592,1,0,3:2:0:0:
234,60,18682,1,0,3:2:0:0:
292,0,18861,1,2,3:2:0:0:
135,25,19041,2,0,P|128:66|155:109,1,85,10|0,0:2|0:2,0:0:0:0:
279,136,19400,5,2,3:2:0:0:
214,280,19580,1,0,3:2:0:0:
369,280,19759,2,0,L|350:184,1,85,10|2,0:2|3:2,0:0:0:0:
343,184,20029,1,2,3:2:0:0:
343,184,20119,2,0,P|312:212|249:207,1,85,2|0,3:2|3:2,0:0:0:0:
147,103,20478,1,10,0:2:0:0:
125,294,20658,1,2,3:2:0:0:
125,294,20747,1,0,3:2:0:0:
125,294,20837,5,14,0:2:0:0:
279,136,21017,1,0,3:2:0:0:
64,99,21197,5,14,0:2:0:0:
214,280,21376,1,0,3:2:0:0:
182,36,21556,5,14,0:2:0:0:
37,298,21735,1,2,3:2:0:0:
74,18,21915,2,0,P|141:60|135:130,1,127.5,10|0,0:2|0:2,0:0:0:0:
105,169,22274,6,0,L|42:183,1,42.5,10|0,0:2|0:2,0:0:0:0:
214,280,22454,1,0,3:2:0:0:
41,380,22634,1,8,0:2:0:0:
184,200,22813,2,0,L|225:190,1,42.5,0|0,3:2|0:2,0:0:0:0:
345,158,22993,6,0,L|385:170,3,42.5,2|2|10|2,0:2|0:2|3:2|3:2,0:0:0:0:
414,164,23352,1,8,2:2:0:0:
439,178,23442,1,0,3:2:0:0:
453,203,23532,1,0,3:2:0:0:
447,232,23622,1,0,3:2:0:0:
427,254,23712,6,0,B|364:262|393:312|311:319,1,136,6|8,3:2|0:2,0:0:0:0:
442,335,24250,2,0,P|436:355|433:379,2,34,0|8|2,3:2|0:2|3:2,0:0:0:0:
311,238,24610,1,0,3:2:0:0:
255,378,24789,2,0,P|235:352|251:298,1,68,10|0,0:2|0:2,0:0:0:0:
299,160,25149,6,0,L|324:243,1,68,2|0,3:2|0:2,0:0:0:0:
339,85,25508,1,10,0:2:0:0:
190,183,25688,2,0,L|235:190,2,34,2|8|2,3:2|0:2|3:2,0:0:0:0:
103,65,26047,1,0,3:2:0:0:
27,254,26226,2,0,L|138:232,1,102,10|0,0:2|0:2,0:0:0:0:
127,234,26586,6,0,P|102:271|110:305,1,68,2|0,3:2|0:2,0:0:0:0:
11,173,26945,2,0,L|-3:92,1,68,8|0,0:2|3:2,0:0:0:0:
0,105,27215,1,8,0:2:0:0:
0,105,27304,2,0,P|25:125|73:117,1,68,2|0,3:2|3:2,0:0:0:0:
181,52,27664,1,10,0:2:0:0:
181,52,27843,1,2,0:2:0:0:
127,234,28023,6,0,P|162:222|212:214,1,68,2|0,3:2|3:2,0:0:0:0:
253,125,28382,1,10,0:2:0:0:
267,292,28562,1,0,3:2:0:0:
274,298,28652,1,8,0:2:0:0:
281,304,28741,2,0,P|299:269|281:219,1,68,2|0,3:2|3:2,0:0:0:0:
172,135,29101,1,10,0:2:0:0:
256,44,29280,1,0,0:2:0:0:
424,218,29460,6,0,P|366:220|272:234,1,136,2|8,3:2|0:2,0:0:0:0:
332,126,29999,2,0,P|321:105|328:77,2,34,0|8|2,3:2|0:2|3:2,0:0:0:0:
474,150,30358,1,0,3:2:0:0:
362,296,30538,2,0,P|333:244|279:249,1,102,10|0,0:2|0:2,0:0:0:0:
288,230,30897,6,0,P|328:224|362:215,1,68,2|0,3:2|3:2,0:0:0:0:
497,375,31256,2,0,P|463:366|430:362,1,68,8|0,0:2|3:2,0:0:0:0:
430,362,31526,1,8,0:2:0:0:
430,362,31616,2,0,P|452:302|446:286,1,68,2|0,3:2|3:2,0:0:0:0:
230,271,31975,2,0,L|245:373,1,102,10|0,0:2|0:2,0:0:0:0:
244,371,32334,6,0,P|219:346|182:341,1,68,2|0,3:2|0:2,0:0:0:0:
88,376,32694,1,10,0:2:0:0:
120,217,32873,1,0,3:2:0:0:
127,211,32963,1,8,0:2:0:0:
134,205,33052,2,0,P|152:240|134:290,1,68,2|0,3:2|3:2,0:0:0:0:
5,142,33412,2,0,L|83:128,1,68,10|2,0:2|0:2,0:0:0:0:
88,141,33682,1,2,0:2:0:0:
88,141,33771,6,0,P|106:106|88:56,1,68,2|0,3:2|3:2,0:0:0:0:
9,31,34131,1,8,0:2:0:0:
154,9,34310,2,0,L|202:19,2,34,2|8|0,3:2|0:2|3:2,0:0:0:0:
187,144,34670,1,0,3:2:0:0:
274,35,34849,1,10,0:2:0:0:
339,92,35029,1,2,0:2:0:0:
271,198,35209,6,0,P|310:188|371:177,1,76.4999976654053,6|0,3:2|0:2,0:0:0:0:
187,144,35568,1,8,0:2:0:0:
262,320,35747,2,0,P|311:263|270:199,1,152.999995330811,2|0,3:2|3:2,0:0:0:0:
169,305,36286,2,0,P|179:346|188:387,1,76.4999976654053,10|0,0:2|0:2,0:0:0:0:
83,320,36646,5,2,3:2:0:0:
204,224,36825,1,0,3:2:0:0:
91,108,37005,1,8,0:2:0:0:
47,241,37185,2,0,P|39:204|30:167,1,76.4999976654053,0|2,3:2|0:2,0:0:0:0:
0,307,37544,1,0,3:2:0:0:
147,167,37723,2,0,P|190:143|264:168,1,114.749996498108,10|0,0:2|0:2,0:0:0:0:
258,169,38083,6,0,P|253:121|253:68,1,76.4999976654053,2|0,3:2|0:2,0:0:0:0:
317,29,38442,1,8,0:2:0:0:
393,189,38622,1,0,3:2:0:0:
394,198,38712,1,8,0:2:0:0:
396,209,38801,2,0,P|363:227|311:213,1,76.4999976654053,2|0,3:2|3:2,0:0:0:0:
393,90,39161,1,10,0:2:0:0:
493,213,39340,1,2,0:2:0:0:
493,213,39430,1,2,0:2:0:0:
493,213,39520,5,2,3:2:0:0:
330,140,39700,1,0,3:2:0:0:
478,79,39879,1,8,0:2:0:0:
458,284,40059,2,0,B|385:291|411:221|319:223,1,152.999995330811,2|2,3:2|3:2,0:0:0:0:
298,366,40598,2,0,P|328:313|316:287,1,76.4999976654053,10|0,0:2|0:2,0:0:0:0:
236,162,40957,6,0,L|253:247,1,76.4999976654053,2|0,3:2|0:2,0:0:0:0:
160,111,41316,1,8,0:2:0:0:
95,218,41496,2,0,P|139:211|179:232,1,76.4999976654053,2|0,3:2|0:2,0:0:0:0:
123,298,41855,1,0,3:2:0:0:
9,192,42035,1,10,0:2:0:0:
160,111,42215,1,2,0:2:0:0:
22,30,42394,6,0,L|39:124,1,76.4999976654053,2|0,3:2|0:2,0:0:0:0:
167,222,42753,1,8,0:2:0:0:
28,182,42933,1,0,3:2:0:0:
19,186,43023,1,8,0:2:0:0:
9,192,43113,2,0,P|8:233|45:266,1,76.4999976654053,2|0,3:2|3:2,0:0:0:0:
220,371,43472,2,0,P|226:313|239:251,1,114.749996498108,10|0,0:2|0:2,0:0:0:0:
248,243,43831,6,0,P|266:273|255:310,1,76.4999976654053,2|0,3:2|0:2,0:0:0:0:
123,298,44191,1,8,0:2:0:0:
227,154,44370,2,0,L|177:146,2,38.2499988327027,0|8|2,3:2|0:2|3:2,0:0:0:0:
326,233,44729,1,0,3:2:0:0:
434,164,44909,2,0,P|446:126|425:93,1,76.4999976654053,10|2,0:2|0:2,0:0:0:0:
408,84,45179,1,2,0:2:0:0:
408,84,45268,6,0,P|369:94|316:103,1,76.4999976654053,2|2,3:2|3:2,0:0:0:0:
248,243,45628,1,8,0:2:0:0:
260,81,45807,2,0,P|254:58|237:35,2,38.2499988327027,0|8|2,3:2|0:2|3:2,0:0:0:0:
334,241,46167,1,8,0:2:0:0:
334,241,46256,1,8,0:2:0:0:
334,241,46346,1,2,3:2:0:0:
434,164,46526,1,10,0:2:0:0:
456,286,46706,6,0,P|421:297|382:304,1,68,6|0,3:2|0:2,0:0:0:0:
339,368,47065,2,0,P|304:357|265:350,1,68,0|0,3:2|0:2,0:0:0:0:
212,301,47424,2,0,P|221:263|198:228,1,68,2|0,3:2|0:2,0:0:0:0:
126,279,47783,2,0,P|117:317|140:352,1,68,0|0,3:2|0:2,0:0:0:0:
143,187,48143,6,0,L|47:204,1,68,2|0,3:2|0:2,0:0:0:0:
5,100,48502,2,0,L|101:117,1,68,0|0,3:2|0:2,0:0:0:0:
143,73,48861,1,2,3:2:0:0:
224,112,49041,1,0,0:2:0:0:
242,32,49220,1,2,3:2:0:0:
242,32,49400,1,0,0:2:0:0:
317,112,49580,6,0,P|311:143|304:188,1,68,2|0,3:2|0:2,0:0:0:0:
380,209,49939,2,0,P|386:178|393:133,1,68,0|0,3:2|0:2,0:0:0:0:
449,265,50298,2,0,P|455:296|462:341,1,68,2|0,3:2|0:2,0:0:0:0:
386,362,50657,2,0,P|380:331|373:286,1,68,0|0,3:2|0:2,0:0:0:0:
305,178,51017,6,0,P|244:200|156:225,1,136,2|0,3:2|3:2,0:0:0:0:
175,220,51556,1,0,0:2:0:0:
304,305,51735,1,2,3:2:0:0:
304,305,51825,1,2,0:2:0:0:
304,305,51915,1,2,0:2:0:0:
104,285,52095,1,2,3:2:0:0:
160,141,52274,1,10,0:2:0:0:
104,285,52454,6,0,P|103:246|76:204,1,76.4999976654053,6|0,3:2|0:2,0:0:0:0:
16,176,52813,1,8,2:2:0:0:
95,76,52993,2,0,B|176:64|156:139|249:114,1,152.999995330811,2|0,0:2|0:2,0:0:0:0:
367,67,53532,1,10,2:2:0:0:
287,44,53712,6,0,P|256:86|301:174,1,152.999995330811,2|2,0:2|0:2,0:0:0:0:
431,169,54250,2,0,P|435:130|443:88,1,76.4999976654053,8|2,0:2|0:2,0:0:0:0:
363,220,54610,1,2,3:2:0:0:
512,175,54789,1,2,2:2:0:0:
367,67,54969,1,10,0:2:0:0:
512,33,55149,1,2,0:2:0:0:
363,220,55328,6,0,L|353:320,1,85,6|0,3:2|0:2,0:0:0:0:
205,157,55688,2,0,L|215:257,1,85,10|0,0:2|0:2,0:0:0:0:
286,51,56047,5,2,3:2:0:0:
123,126,56226,1,10,0:2:0:0:
292,170,56406,1,10,0:2:0:0:
74,48,56586,1,10,0:2:0:0:
84,300,56765,5,0,0:2:0:0:
84,300,57664,6,0,P|102:306|139:313,1,42.5,0|0,3:2|0:2,0:0:0:0:
5,289,57843,2,0,B|81:277|47:232|128:226,1,127.5,4|0,3:3|0:2,0:0:0:0:
186,260,58203,6,0,P|149:204|225:154,1,152.999995330811,6|0,3:2|0:2,0:0:0:0:
292,170,58562,2,0,B|336:180|336:180|263:198,1,101.999996887207,10|2,3:2|0:2,0:0:0:0:
255,92,58831,5,2,0:2:0:0:
255,92,58921,2,0,P|257:67|294:43,2,50.9999984436036,2|2|2,3:2|0:2|0:2,0:0:0:0:
318,264,59280,1,8,3:2:0:0:
416,130,59460,1,0,0:2:0:0:
448,283,59640,6,0,B|398:297|398:297|374:338|374:338|287:362,1,152.999995330811,2|0,3:2|0:2,0:0:0:0:
246,374,59999,2,0,P|216:321|233:277,1,101.999996887207,10|2,3:2|0:2,0:0:0:0:
325,207,60268,5,2,0:2:0:0:
332,215,60358,2,0,L|315:273,1,50.9999984436036,2|2,3:2|0:2,0:0:0:0:
253,137,60538,1,2,0:2:0:0:
377,64,60717,1,8,3:2:0:0:
147,17,60897,1,2,0:2:0:0:
136,18,60987,1,2,0:2:0:0:
125,20,61077,6,0,P|90:87|146:152,1,152.999995330811,2|0,3:2|0:2,0:0:0:0:
146,233,61436,2,0,B|181:226|191:197|191:197|179:215|148:222,1,101.999996887207,10|2,3:2|0:2,0:0:0:0:
100,301,61706,5,2,0:2:0:0:
100,301,61795,2,0,P|67:271|63:216,1,101.999996887207,2|2,3:2|0:2,0:0:0:0:
128,145,62155,2,0,L|76:139,1,50.9999984436036,8|0,3:2|0:2,0:0:0:0:
3,164,62334,1,0,0:2:0:0:
35,358,62514,6,0,P|91:324|176:315,1,152.999995330811,2|0,3:2|0:2,0:0:0:0:
239,375,62873,2,0,B|253:306|318:299|318:299|295:314|284:347,1,152.999995330811,10|0,3:2|0:2,0:0:0:0:
370,365,63232,5,2,3:2:0:0:
378,375,63322,2,0,P|413:342|376:269,1,101.999996887207,0|0,3:2|0:2,0:0:0:0:
351,228,63592,6,0,L|294:223,1,50.9999984436036,10|0,3:2|0:2,0:0:0:0:
205,144,63771,2,0,P|201:121|223:85,1,50.9999984436036,0|0,0:2|0:2,0:0:0:0:
291,38,63951,6,0,B|317:150|317:150|278:125,1,152.999995330811,2|0,3:2|0:2,0:0:0:0:
295,28,64310,2,0,B|355:37|326:70|397:67,1,101.999996887207,10|2,3:2|0:2,0:0:0:0:
458,32,64580,5,2,0:2:0:0:
458,32,64670,2,0,P|447:12|401:5,2,50.9999984436036,2|2|2,3:2|0:2|0:2,0:0:0:0:
365,142,65029,1,8,3:2:0:0:
489,212,65209,1,0,0:2:0:0:
454,354,65388,6,0,B|402:319|412:253|412:253|420:277|467:296,1,152.999995330811,2|0,3:2|0:2,0:0:0:0:
381,333,65747,2,0,B|344:341|344:341|329:363|329:363|267:375,1,101.999996887207,10|2,3:2|0:2,0:0:0:0:
234,312,66017,5,2,0:2:0:0:
226,305,66107,2,0,L|215:359,1,50.9999984436036,2|2,3:2|0:2,0:0:0:0:
157,219,66286,1,2,0:2:0:0:
255,151,66466,1,8,3:2:0:0:
134,86,66646,1,0,0:2:0:0:
263,25,66825,6,0,B|351:32|313:92|409:92,1,152.999995330811,2|0,3:2|0:2,0:0:0:0:
469,36,67185,2,0,B|466:1|466:1|375:20,1,101.999996887207,10|2,3:2|0:2,0:0:0:0:
402,173,67454,5,2,0:2:0:0:
402,173,67544,2,0,P|463:149|474:103,1,101.999996887207,2|2,3:2|0:2,0:0:0:0:
265,108,67903,2,0,L|278:187,1,50.9999984436036,8|0,3:2|0:2,0:0:0:0:
395,262,68083,1,2,0:2:0:0:
395,262,68173,1,2,0:2:0:0:
395,262,68262,6,0,B|347:251|296:230|296:230|316:250|316:290,1,152.999995330811,2|0,3:2|0:2,0:0:0:0:
268,361,68622,2,0,P|226:326|243:276,1,101.999996887207,10|2,3:2|0:2,0:0:0:0:
373,351,68891,5,10,0:2:0:0:
383,359,68981,2,0,L|455:346,1,50.9999984436036,10|0,3:2|0:2,0:0:0:0:
229,200,69161,2,0,L|178:190,1,50.9999984436036,8|8,0:2|0:2,0:0:0:0:
59,352,69340,5,10,2:2:0:0:
27,335,69430,1,8,2:2:0:0:
7,305,69520,1,8,0:2:0:0:
6,269,69610,1,8,0:2:0:0:
19,235,69700,6,0,B|69:232|69:232|98:266|98:266|171:267,1,152.999995330811,6|0,3:2|0:2,0:0:0:0:
229,200,70059,2,0,B|263:170|254:130|254:130|246:144|216:155,1,101.999996887207,10|2,3:2|0:2,0:0:0:0:
134,78,70328,5,2,0:2:0:0:
134,78,70418,2,0,L|209:75,2,50.9999984436036,2|2|2,3:2|0:2|0:2,0:0:0:0:
63,24,70777,1,8,3:2:0:0:
103,153,70957,1,0,0:2:0:0:
246,21,71137,6,0,L|396:54,1,152.999995330811,2|0,3:2|0:2,0:0:0:0:
468,94,71496,2,0,P|408:140|365:118,1,101.999996887207,10|2,3:2|0:2,0:0:0:0:
308,69,71765,5,2,0:2:0:0:
315,77,71855,2,0,L|297:149,1,50.9999984436036,2|2,3:2|0:2,0:0:0:0:
345,202,72035,1,2,0:2:0:0:
219,111,72215,1,8,3:2:0:0:
169,247,72394,1,2,0:2:0:0:
169,247,72484,1,2,0:2:0:0:
169,247,72574,6,0,P|241:237|289:309,1,152.999995330811,2|0,3:2|0:2,0:0:0:0:
260,367,72933,2,0,B|311:376|311:376|364:331,1,101.999996887207,10|2,3:2|0:2,0:0:0:0:
182,335,73203,5,2,0:2:0:0:
182,335,73292,2,0,L|73:311,1,101.999996887207,2|2,3:2|0:2,0:0:0:0:
76,150,73652,2,0,P|97:168|101:219,1,50.9999984436036,8|0,3:2|0:2,0:0:0:0:
44,240,73831,1,0,0:2:0:0:
5,76,74011,6,0,P|83:109|157:114,1,152.999995330811,2|0,3:2|0:2,0:0:0:0:
259,98,74370,2,0,B|253:65|205:54|205:54|242:80|234:130,1,152.999995330811,10|0,3:2|0:2,0:0:0:0:
270,245,74729,5,2,3:2:0:0:
282,247,74819,2,0,P|317:206|264:146,1,101.999996887207,0|0,3:2|0:2,0:0:0:0:
183,184,75089,6,0,L|192:241,1,50.9999984436036,10|0,3:2|0:2,0:0:0:0:
298,326,75268,2,0,L|355:317,1,50.9999984436036,0|0,0:2|0:2,0:0:0:0:
436,136,75448,6,0,B|402:78|339:92|339:92|369:109|383:148,1,152.999995330811,2|0,3:2|0:2,0:0:0:0:
432,218,75807,2,0,P|491:203|510:160,1,101.999996887207,10|2,3:2|0:2,0:0:0:0:
446,86,76077,5,2,0:2:0:0:
446,86,76167,2,0,L|432:155,2,50.9999984436036,2|2|2,3:2|0:2|0:2,0:0:0:0:
304,163,76526,1,8,3:2:0:0:
376,24,76706,1,0,0:2:0:0:
170,63,76885,6,0,L|204:217,1,152.999995330811,2|0,3:2|0:2,0:0:0:0:
196,293,77244,2,0,B|134:305|134:305|176:266,1,101.999996887207,10|2,3:2|0:2,0:0:0:0:
280,243,77514,5,2,0:2:0:0:
290,254,77604,2,0,L|275:334,1,50.9999984436036,2|2,3:2|0:2,0:0:0:0:
155,149,77783,1,2,0:2:0:0:
196,293,77963,1,8,3:2:0:0:
304,163,78143,1,0,0:2:0:0:
279,384,78322,6,0,B|360:374|327:317|410:316,1,152.999995330811,2|0,3:2|0:2,0:0:0:0:
451,384,78682,2,0,P|492:337|474:279,1,101.999996887207,10|2,3:2|0:2,0:0:0:0:
378,209,78951,5,2,0:2:0:0:
378,209,79041,2,0,L|398:315,1,101.999996887207,2|2,3:2|0:2,0:0:0:0:
464,183,79400,2,0,P|478:157|463:113,1,50.9999984436036,8|0,3:2|0:2,0:0:0:0:
407,93,79580,1,0,0:2:0:0:
262,156,79759,5,2,3:2:0:0:
258,165,79849,1,0,3:2:0:0:
254,174,79939,2,0,L|326:157,1,50.9999984436036,8|8,0:2|0:2,0:0:0:0:
212,306,80119,5,10,3:2:0:0:
216,315,80209,1,0,3:2:0:0:
220,324,80299,2,0,L|148:307,1,50.9999984436036,8|8,0:2|0:2,0:0:0:0:
115,154,80478,5,10,3:2:0:0:
122,172,80568,1,0,3:2:0:0:
129,191,80658,1,2,3:2:0:0:
136,209,80747,1,0,3:2:0:0:
111,247,80837,5,10,3:2:0:0:
122,199,80926,1,10,0:2:0:0:
134,151,81016,1,10,0:2:0:0:
144,103,81106,1,10,0:2:0:0:
120,62,81197,6,0,L|288:41,1,170,6|8,3:2|3:2,0:0:0:0:
435,0,81735,2,0,P|417:12|407:30,1,42.5,2|0,0:2|0:2,0:0:0:0:
356,111,81915,1,0,3:2:0:0:
470,216,82095,1,0,0:2:0:0:
354,310,82274,2,0,P|354:267|371:229,1,85,10|2,3:2|0:2,0:0:0:0:
378,205,82544,1,2,0:2:0:0:
378,204,82634,6,0,P|297:190|260:117,1,170,2|8,3:2|3:2,0:0:0:0:
149,10,83173,2,0,P|166:47|158:88,1,85,2|2,0:2|3:2,0:0:0:0:
145,117,83442,1,2,3:2:0:0:
145,117,83532,1,2,3:2:0:0:
90,273,83712,2,0,P|127:222|188:210,1,127.5,10|0,3:2|0:2,0:0:0:0:
214,232,84071,6,0,L|196:315,1,85,2|0,3:2|0:2,0:0:0:0:
308,190,84430,1,8,3:2:0:0:
384,288,84610,2,0,P|341:287|302:303,1,85,2|0,0:2|3:2,0:0:0:0:
364,379,84969,1,0,0:2:0:0:
418,205,85149,2,0,P|402:146|456:117,1,127.5,10|0,3:2|0:2,0:0:0:0:
479,129,85508,6,0,B|379:118|437:60|338:46,1,170,2|8,3:2|3:2,0:0:0:0:
166,128,86047,1,2,0:2:0:0:
86,72,86226,2,0,L|44:78,2,42.5,0|0|0,3:2|3:2|3:2,0:0:0:0:
247,55,86586,1,10,2:2:0:0:
264,81,86675,1,8,2:2:0:0:
273,111,86765,1,10,0:2:0:0:
273,143,86855,1,8,0:2:0:0:
263,173,86945,6,0,P|343:149|417:188,1,170,6|8,3:2|3:2,0:0:0:0:
387,328,87484,1,2,0:2:0:0:
387,328,87574,1,2,0:2:0:0:
387,328,87664,2,0,P|357:298|342:258,1,85,2|0,3:2|0:2,0:0:0:0:
166,127,88023,2,0,P|174:169|163:210,1,85,10|2,3:2|0:2,0:0:0:0:
138,225,88292,1,2,0:2:0:0:
138,225,88382,6,0,L|46:205,1,85,2|0,3:2|0:2,0:0:0:0:
166,362,88741,1,8,3:2:0:0:
222,291,88921,2,0,L|304:269,1,85,2|2,0:2|3:2,0:0:0:0:
342,258,89191,1,2,0:2:0:0:
342,258,89280,1,2,0:2:0:0:
447,361,89460,2,0,P|461:298|469:235,1,127.5,10|0,3:2|0:2,0:0:0:0:
451,206,89819,6,0,P|430:242|434:284,1,85,2|0,3:2|0:2,0:0:0:0:
506,141,90179,1,8,3:2:0:0:
440,84,90358,2,0,P|398:84|364:109,1,85,2|0,0:2|3:2,0:0:0:0:
141,90,90717,1,0,0:2:0:0:
207,34,90897,2,0,P|247:43|278:72,1,85,10|0,3:2|0:2,0:0:0:0:
296,249,91256,5,2,3:2:0:0:
293,227,91345,1,0,3:2:0:0:
291,206,91435,1,0,3:2:0:0:
289,185,91525,1,0,3:2:0:0:
287,164,91615,1,0,3:2:0:0:
203,260,91795,5,10,0:2:0:0:
382,188,91975,1,2,3:2:0:0:
222,353,92155,1,10,0:2:0:0:
207,353,92244,1,8,0:2:0:0:
193,352,92334,1,8,2:2:0:0:
179,349,92424,1,8,2:2:0:0:
166,344,92514,1,8,0:2:0:0:
153,338,92604,1,8,0:2:0:0:
141,331,92694,6,0,L|158:196,1,136,6|8,3:2|0:2,0:0:0:0:
72,161,93232,2,0,L|40:174,2,34,0|8|2,3:2|0:2|3:2,0:0:0:0:
168,43,93592,1,0,3:2:0:0:
219,124,93771,2,0,L|294:138,1,68,10|0,0:2|0:2,0:0:0:0:
410,20,94131,6,0,P|389:46|383:79,1,68,2|0,3:2|3:2,0:0:0:0:
453,276,94490,2,0,P|465:244|466:210,1,68,8|2,0:2|0:2,0:0:0:0:
449,189,94759,1,10,0:2:0:0:
449,189,94849,2,0,L|381:200,1,68,2|0,0:2|3:2,0:0:0:0:
228,208,95209,2,0,P|273:227|282:275,1,102,10|0,0:2|0:2,0:0:0:0:
275,292,95568,6,0,L|207:282,1,68,2|0,3:2|0:2,0:0:0:0:
138,335,95927,1,8,0:2:0:0:
72,269,96107,1,2,3:2:0:0:
72,269,96197,1,8,0:2:0:0:
72,269,96286,2,0,P|90:239|102:208,1,68,0|0,3:2|3:2,0:0:0:0:
77,74,96646,1,10,0:2:0:0:
15,157,96825,1,2,0:2:0:0:
168,114,97005,6,0,P|199:101|230:87,1,68,2|0,3:2|3:2,0:0:0:0:
281,13,97364,1,8,0:2:0:0:
405,89,97544,1,2,3:2:0:0:
405,89,97634,1,8,0:2:0:0:
405,89,97723,2,0,P|418:119|417:153,1,68,0|0,3:2|3:2,0:0:0:0:
292,254,98083,2,0,P|290:220|301:188,1,68,10|2,0:2|0:2,0:0:0:0:
315,169,98352,1,2,0:2:0:0:
315,169,98442,6,0,B|233:179|266:224|199:230,1,136,2|8,3:2|0:2,0:0:0:0:
79,144,98981,2,0,L|46:135,2,34,0|8|2,3:2|0:2|3:2,0:0:0:0:
177,134,99340,1,0,3:2:0:0:
101,236,99520,2,0,P|106:286|121:335,1,102,10|0,0:2|0:2,0:0:0:0:
142,345,99879,6,0,P|145:311|131:280,1,68,2|0,3:2|3:2,0:0:0:0:
215,217,100238,2,0,L|280:199,1,68,8|2,0:2|0:2,0:0:0:0:
309,183,100508,1,10,0:2:0:0:
309,183,100598,2,0,P|295:213|293:247,1,68,2|0,0:2|3:2,0:0:0:0:
433,324,100957,2,0,L|456:224,1,102,10|0,0:2|0:2,0:0:0:0:
456,224,101316,6,0,P|422:222|389:230,1,68,2|0,3:2|0:2,0:0:0:0:
467,124,101676,1,8,0:2:0:0:
397,70,101855,1,0,3:2:0:0:
397,70,101945,1,8,0:2:0:0:
397,70,102035,2,0,P|364:64|330:62,1,68,2|0,3:2|3:2,0:0:0:0:
228,97,102394,1,10,0:2:0:0:
313,159,102574,1,0,0:2:0:0:
134,87,102753,6,0,P|140:54|161:27,1,68,2|2,3:2|3:2,0:0:0:0:
230,198,103113,1,10,0:2:0:0:
63,147,103292,2,0,L|30:138,2,34,2|8|0,3:2|0:2|3:2,0:0:0:0:
109,310,103652,1,10,0:2:0:0:
112,300,103741,1,8,0:2:0:0:
115,291,103831,1,8,2:2:0:0:
119,281,103921,1,8,2:2:0:0:
122,272,104011,1,8,0:2:0:0:
126,263,104101,1,8,0:2:0:0:
128,253,104191,6,0,P|91:257|54:269,1,76.4999976654053,6|0,3:2|0:2,0:0:0:0:
200,321,104550,1,10,0:2:0:0:
293,286,104729,1,0,3:2:0:0:
293,286,104819,1,8,0:2:0:0:
293,286,104909,2,0,P|341:306|374:333,1,76.4999976654053,2|0,3:2|3:2,0:0:0:0:
212,200,105268,2,0,L|199:124,1,76.4999976654053,10|0,0:2|0:2,0:0:0:0:
156,50,105628,5,2,3:2:0:0:
307,61,105807,1,0,3:2:0:0:
212,200,105987,1,10,0:2:0:0:
314,152,106167,2,0,P|350:141|381:119,1,76.4999976654053,2|2,3:2|0:2,0:0:0:0:
395,33,106526,1,0,3:2:0:0:
475,154,106706,2,0,L|493:267,1,114.749996498108,10|0,0:2|0:2,0:0:0:0:
487,293,107065,6,0,P|451:278|413:271,1,76.4999976654053,2|0,3:2|0:2,0:0:0:0:
444,367,107424,1,10,0:2:0:0:
317,295,107604,1,2,3:2:0:0:
317,295,107694,1,10,0:2:0:0:
317,295,107783,2,0,L|329:219,1,76.4999976654053,2|0,3:2|3:2,0:0:0:0:
161,327,108143,2,0,P|198:329|232:347,1,76.4999976654053,10|0,0:2|0:2,0:0:0:0:
89,235,108502,5,2,3:2:0:0:
52,329,108682,1,0,3:2:0:0:
190,240,108861,1,10,0:2:0:0:
146,163,109041,2,0,P|74:146|12:186,1,152.999995330811,2|2,3:2|3:2,0:0:0:0:
89,235,109580,1,10,0:2:0:0:
245,165,109759,1,8,0:2:0:0:
245,165,109849,1,8,0:2:0:0:
245,165,109939,6,0,L|320:153,1,76.4999976654053,2|0,3:2|0:2,0:0:0:0:
416,39,110298,1,8,0:2:0:0:
475,108,110478,2,0,P|474:146|464:182,1,76.4999976654053,2|0,3:2|0:2,0:0:0:0:
381,234,110837,1,0,3:2:0:0:
329,62,111017,2,0,P|294:46|256:38,1,76.4999976654053,10|0,0:2|0:2,0:0:0:0:
10,61,111376,5,2,3:2:0:0:
176,93,111556,1,0,3:2:0:0:
104,32,111735,1,10,0:2:0:0:
84,135,111915,1,2,3:2:0:0:
84,135,112005,1,10,0:2:0:0:
84,135,112095,2,0,L|94:210,1,76.4999976654053,2|0,0:2|3:2,0:0:0:0:
187,358,112454,2,0,P|205:303|208:246,1,114.749996498108,10|0,0:2|0:2,0:0:0:0:
190,231,112813,6,0,L|264:214,1,76.4999976654053,2|0,3:2|0:2,0:0:0:0:
341,268,113173,1,8,0:2:0:0:
430,142,113352,1,2,3:2:0:0:
430,142,113442,1,10,0:2:0:0:
430,142,113532,2,0,P|433:103|432:65,1,76.4999976654053,2|2,3:2|3:2,0:0:0:0:
337,159,113891,1,10,0:2:0:0:
426,235,114071,1,2,3:2:0:0:
333,47,114250,5,10,0:2:0:0:
230,109,114430,2,0,L|237:146,2,38.2499988327027,2|10|2,3:2|0:2|3:2,0:0:0:0:
134,35,114789,1,2,3:2:0:0:
134,35,114879,1,0,3:2:0:0:
134,35,114969,2,0,L|126:72,1,38.2499988327027,8|0,2:2|3:2,0:0:0:0:
64,159,115149,1,2,3:2:0:0:
77,174,115238,1,0,3:2:0:0:
87,190,115328,1,10,2:2:0:0:
94,208,115418,1,0,3:2:0:0:
97,226,115508,1,2,3:2:0:0:
97,246,115598,1,0,3:2:0:0:
93,264,115688,6,0,P|125:254|159:248,1,68,6|0,0:2|0:2,0:0:0:0:
222,304,116047,2,0,P|255:309|288:319,1,68,0|0,3:2|0:2,0:0:0:0:
383,355,116406,2,0,L|370:288,1,68,2|0,3:2|0:2,0:0:0:0:
294,231,116765,2,0,L|306:164,1,68,0|0,3:2|0:2,0:0:0:0:
453,212,117125,6,0,P|419:211|386:201,1,68,2|0,3:2|0:2,0:0:0:0:
365,94,117484,2,0,P|398:94|431:104,1,68,0|0,3:2|0:2,0:0:0:0:
310,25,117843,1,2,3:2:0:0:
237,82,118023,1,0,0:2:0:0:
178,13,118203,1,2,3:2:0:0:
178,13,118382,1,0,0:2:0:0:
154,131,118562,6,0,P|164:163|163:200,1,68,2|0,3:2|0:2,0:0:0:0:
0,188,118921,2,0,L|66:174,1,68,0|0,3:2|0:2,0:0:0:0:
74,334,119280,2,0,P|63:301|64:264,1,68,2|0,3:2|0:2,0:0:0:0:
225,284,119640,2,0,L|159:298,1,68,0|0,3:2|0:2,0:0:0:0:
318,372,119999,6,0,P|326:306|377:263,1,136,2|0,3:2|3:2,0:0:0:0:
473,291,120538,1,0,0:2:0:0:
470,111,120717,1,2,3:2:0:0:
312,193,120897,1,2,3:2:0:0:
312,193,120987,1,10,0:2:0:0:
312,193,121077,1,2,3:2:0:0:
413,189,121256,1,10,0:2:0:0:
345,83,121436,6,0,P|308:75|275:57,1,76.4999976654053,6|0,3:2|0:2,0:0:0:0:
96,109,121795,1,8,2:2:0:0:
160,34,121975,2,0,P|188:75|165:180,1,152.999995330811,2|2,0:2|0:2,0:0:0:0:
35,309,122514,1,10,2:2:0:0:
24,219,122694,6,0,B|103:207|84:273|164:262,1,152.999995330811,2|2,0:2|0:2,0:0:0:0:
341,232,123232,2,0,P|307:213|269:207,1,76.4999976654053,8|2,2:2|0:2,0:0:0:0:
272,335,123592,1,2,3:2:0:0:
464,307,123771,1,2,3:2:0:0:
460,288,123860,1,0,3:2:0:0:
457,269,123950,1,10,3:2:0:0:
454,250,124040,1,0,3:2:0:0:
451,231,124130,1,0,3:2:0:0:
447,212,124220,1,0,3:2:0:0:
444,193,124310,6,0,L|436:152,1,38.2499988327027,14|0,2:2|3:2,0:0:0:0:
320,71,124490,1,0,3:2:0:0:
320,71,124580,1,0,3:2:0:0:
320,71,124670,2,0,L|324:33,3,38.2499988327027,10|0|0|0,2:2|3:2|3:2|3:2,0:0:0:0:
298,4,125029,5,10,3:2:0:0:
263,0,125118,1,8,0:2:0:0:
229,7,125208,1,10,0:2:0:0:
201,27,125298,1,8,0:2:0:0:
181,56,125388,2,0,L|187:93,1,38.2499988327027,10|10,3:2|0:2,0:0:0:0:
265,267,125567,1,2,3:2:0:0:
265,267,126646,5,8,0:2:0:0:
80,284,126825,1,10,0:2:0:0:
99,263,126914,1,10,0:2:0:0:
124,248,127004,1,10,0:2:0:0:
151,239,127094,1,10,0:2:0:0:
179,238,127185,6,0,B|168:355|168:355|196:375,1,152.999995330811,6|0,3:2|0:2,0:0:0:0:
269,291,127544,2,0,B|316:284|316:284|264:266,1,101.999996887207,10|2,3:2|0:2,0:0:0:0:
345,367,127813,5,2,0:2:0:0:
345,367,127903,2,0,P|368:354|386:336,2,50.9999984436036,2|2|2,3:2|0:2|0:2,0:0:0:0:
368,180,128262,1,8,3:2:0:0:
468,273,128442,1,0,0:2:0:0:
357,98,128622,6,0,B|276:114|302:153|224:168,1,152.999995330811,2|0,3:2|0:2,0:0:0:0:
82,136,128981,2,0,P|109:96|156:106,1,101.999996887207,10|2,3:2|0:2,0:0:0:0:
147,208,129250,5,2,0:2:0:0:
147,208,129340,2,0,L|140:258,1,50.9999984436036,2|2,3:2|0:2,0:0:0:0:
90,332,129520,1,2,0:2:0:0:
22,200,129700,1,8,3:2:0:0:
223,320,129879,1,2,0:2:0:0:
223,320,129969,1,2,0:2:0:0:
223,320,130059,6,0,B|257:267|309:253|309:253|297:268|289:289,1,152.999995330811,2|0,3:2|0:2,0:0:0:0:
432,330,130418,2,0,B|408:311|377:306|377:306|397:325|404:337,1,101.999996887207,10|2,3:2|0:2,0:0:0:0:
390,220,130688,5,2,0:2:0:0:
397,199,130777,2,0,P|393:148|374:100,1,101.999996887207,2|2,3:2|0:2,0:0:0:0:
493,82,131137,2,0,P|488:107|486:132,1,50.9999984436036,8|0,3:2|0:2,0:0:0:0:
424,10,131316,1,0,0:2:0:0:
305,176,131496,6,0,B|253:163|253:163|219:129|219:129|169:115,1,152.999995330811,2|0,3:2|0:2,0:0:0:0:
187,15,131855,2,0,P|254:38|250:109,1,152.999995330811,10|0,3:2|0:2,0:0:0:0:
166,213,132215,5,2,3:2:0:0:
166,213,132304,2,0,P|132:249|141:297,1,101.999996887207,0|0,3:2|0:2,0:0:0:0:
214,349,132574,2,0,L|261:331,1,50.9999984436036,10|0,3:2|0:2,0:0:0:0:
437,264,132753,2,0,L|387:251,1,50.9999984436036,0|0,0:2|0:2,0:0:0:0:
269,209,132933,6,0,P|323:159|397:162,1,152.999995330811,2|0,3:2|0:2,0:0:0:0:
310,125,133292,2,0,P|279:86|285:36,1,101.999996887207,10|2,3:2|0:2,0:0:0:0:
449,68,133562,5,2,0:2:0:0:
431,80,133652,2,0,L|381:68,2,50.9999984436036,2|2|2,3:2|0:2|0:2,0:0:0:0:
346,239,134011,1,8,3:2:0:0:
491,177,134191,1,0,0:2:0:0:
254,125,134370,6,0,B|150:153|150:153|158:129|157:108,1,152.999995330811,2|0,3:2|0:2,0:0:0:0:
48,90,134729,2,0,B|48:75|57:50|57:50|60:80|68:109,1,101.999996887207,10|2,3:2|0:2,0:0:0:0:
28,208,134999,5,2,0:2:0:0:
28,208,135089,2,0,P|75:204|95:248,1,101.999996887207,2|2,3:2|0:2,0:0:0:0:
188,350,135448,2,0,P|164:361|139:363,1,50.9999984436036,8|0,3:2|0:2,0:0:0:0:
62,329,135628,1,0,0:2:0:0:
205,254,135807,6,0,B|280:266|255:308|339:318,1,152.999995330811,2|0,3:2|0:2,0:0:0:0:
405,384,136167,2,0,P|428:339|420:290,1,101.999996887207,10|2,3:2|0:2,0:0:0:0:
337,219,136436,5,2,0:2:0:0:
332,194,136526,2,0,P|335:168|343:144,1,50.9999984436036,2|2,3:2|0:2,0:0:0:0:
419,89,136706,1,2,0:2:0:0:
258,115,136885,1,8,3:2:0:0:
425,208,137065,1,0,0:2:0:0:
263,291,137244,6,0,B|209:303|209:303|177:330|177:330|121:339,1,152.999995330811,2|0,3:2|0:2,0:0:0:0:
100,241,137604,2,0,P|150:243|179:283,1,101.999996887207,10|10,3:2|0:2,0:0:0:0:
23,303,137873,5,10,0:2:0:0:
23,303,137963,2,0,L|9:253,1,50.9999984436036,10|0,2:2|0:2,0:0:0:0:
180,202,138143,2,0,L|187:151,1,50.9999984436036,8|8,0:2|0:2,0:0:0:0:
51,36,138322,5,10,2:2:0:0:
31,52,138412,1,8,2:2:0:0:
19,75,138502,1,8,0:2:0:0:
16,100,138591,1,8,0:2:0:0:
22,124,138682,6,0,B|109:114|109:114|122:82|155:69,1,152.999995330811,6|0,3:2|0:2,0:0:0:0:
235,141,139041,2,0,B|239:157|253:168|253:168|186:151,1,101.999996887207,10|2,3:2|0:2,0:0:0:0:
312,105,139310,5,2,0:2:0:0:
323,85,139400,2,0,P|323:59|320:34,2,50.9999984436036,2|2|2,3:2|0:2|0:2,0:0:0:0:
238,26,139759,1,8,3:2:0:0:
407,126,139939,1,0,0:2:0:0:
313,226,140119,6,0,B|294:277|298:324|298:324|316:299|341:296,1,152.999995330811,2|0,3:2|0:2,0:0:0:0:
504,263,140478,2,0,B|465:225|465:225|417:229,1,101.999996887207,10|2,3:2|0:2,0:0:0:0:
431,384,140747,1,2,0:2:0:0:
420,367,140837,2,0,L|431:302,1,50.9999984436036,2|2,3:2|0:2,0:0:0:0:
389,150,141017,1,2,0:2:0:0:
256,282,141197,1,8,3:2:0:0:
418,230,141376,1,0,0:2:0:0:
226,366,141556,6,0,B|170:359|170:359|137:312|167:269,1,152.999995330811,2|0,3:2|0:2,0:0:0:0:
187,166,141915,2,0,B|172:166|157:173|157:173|203:175|223:194,1,101.999996887207,10|2,3:2|0:2,0:0:0:0:
89,228,142185,5,2,0:2:0:0:
77,207,142274,2,0,P|72:156|95:111,1,101.999996887207,2|2,3:2|0:2,0:0:0:0:
271,89,142634,2,0,P|283:112|289:137,1,50.9999984436036,8|0,3:2|0:2,0:0:0:0:
185,60,142813,1,0,0:2:0:0:
315,223,142993,6,0,B|389:197|371:173|446:146,1,152.999995330811,2|0,3:2|0:2,0:0:0:0:
419,48,143352,2,0,B|370:26|328:15|328:15|355:36|360:59,1,152.999995330811,10|0,3:2|0:2,0:0:0:0:
271,90,143712,5,2,3:2:0:0:
245,85,143801,2,0,P|204:58|210:10,1,101.999996887207,0|0,3:2|0:2,0:0:0:0:
131,108,144071,6,0,P|121:130|120:156,1,50.9999984436036,10|0,3:2|0:2,0:0:0:0:
78,278,144250,2,0,P|55:289|30:292,1,50.9999984436036,0|0,0:2|0:2,0:0:0:0:
257,282,144430,6,0,B|300:285|350:329|350:329|340:302|344:282,1,152.999995330811,2|0,3:2|0:2,0:0:0:0:
216,207,144789,2,0,P|182:245|173:295,1,101.999996887207,10|2,3:2|0:2,0:0:0:0:
230,364,145059,5,2,0:2:0:0:
230,364,145149,2,0,P|254:371|276:384,2,50.9999984436036,2|2|2,3:2|0:2|0:2,0:0:0:0:
306,194,145508,1,8,3:2:0:0:
428,298,145688,1,0,0:2:0:0:
447,154,145867,6,0,B|391:139|391:139|364:116|364:116|307:97,1,152.999995330811,2|0,3:2|0:2,0:0:0:0:
225,139,146226,2,0,B|216:104|219:71|219:71|208:102,1,101.999996887207,10|2,3:2|0:2,0:0:0:0:
140,226,146496,5,2,0:2:0:0:
167,237,146586,2,0,L|217:228,1,50.9999984436036,2|2,3:2|0:2,0:0:0:0:
87,161,146765,1,2,0:2:0:0:
206,315,146945,1,8,3:2:0:0:
306,194,147125,1,0,0:2:0:0:
111,327,147304,6,0,B|73:283|15:283|15:283|22:326,1,152.999995330811,2|0,3:2|0:2,0:0:0:0:
66,259,147664,2,0,P|86:212|87:161,1,101.999996887207,10|2,3:2|0:2,0:0:0:0:
88,67,147933,5,2,0:2:0:0:
88,67,148023,2,0,P|41:58|20:100,1,101.999996887207,2|2,3:2|0:2,0:0:0:0:
174,116,148382,2,0,L|234:100,1,50.9999984436036,8|0,3:2|0:2,0:0:0:0:
294,49,148562,1,0,0:2:0:0:
408,148,148741,5,0,3:2:0:0:
419,164,148831,1,0,3:2:0:0:
430,180,148921,2,0,L|422:230,1,50.9999984436036,8|8,0:2|0:2,0:0:0:0:
330,383,149101,5,0,3:2:0:0:
341,367,149191,1,0,3:2:0:0:
352,351,149281,2,0,L|344:300,1,50.9999984436036,8|8,0:2|0:2,0:0:0:0:
212,195,149460,5,8,3:2:0:0:
236,200,149549,1,0,3:2:0:0:
261,206,149639,1,2,3:2:0:0:
286,212,149729,1,0,3:2:0:0:
320,175,149819,5,8,3:2:0:0:
271,182,149908,1,10,0:2:0:0:
223,189,149998,1,8,0:2:0:0:
174,197,150088,1,8,0:2:0:0:
134,185,150179,6,0,B|228:164|181:261|314:240,1,170,6|8,3:2|0:2,0:0:0:0:
95,287,150717,2,0,P|115:276|166:271,1,42.5,2|0,0:2|0:2,0:0:0:0:
200,332,150897,1,0,3:2:0:0:
134,185,151077,1,0,0:2:0:0:
47,361,151256,2,0,P|17:339|14:275,1,85,10|2,0:2|0:2,0:0:0:0:
17,279,151526,1,2,0:2:0:0:
17,279,151616,5,2,3:2:0:0:
134,185,151795,1,2,0:2:0:0:
11,118,151975,1,10,0:2:0:0:
139,41,152155,1,2,0:2:0:0:
38,191,152334,5,0,3:2:0:0:
50,202,152424,2,0,L|162:179,1,85,0|0,3:2|0:2,0:0:0:0:
196,235,152694,2,0,P|238:209|238:152,1,85,10|2,0:2|0:2,0:0:0:0:
178,127,152963,1,2,0:2:0:0:
178,127,153053,6,0,L|147:314,1,170,2|8,3:2|0:2,0:0:0:0:
252,170,153592,2,0,L|319:189,1,42.5,2|0,0:2|0:2,0:0:0:0:
329,251,153771,1,0,3:2:0:0:
401,132,153951,1,0,0:2:0:0:
484,242,154131,2,0,P|473:284|464:350,1,85,10|0,0:2|0:2,0:0:0:0:
336,241,154490,5,2,3:2:0:0:
490,129,154670,2,0,L|375:146,1,85,0|10,0:2|0:2,0:0:0:0:
231,22,155029,1,2,0:2:0:0:
231,22,155119,1,2,0:2:0:0:
231,22,155209,6,0,P|250:42|253:71,1,42.5,2|0,3:2|0:2,0:0:0:0:
319,121,155388,2,0,P|331:103|333:82,1,42.5,2|0,0:2|0:2,0:0:0:0:
163,76,155568,1,8,0:2:0:0:
133,80,155658,1,8,0:2:0:0:
103,85,155747,1,8,0:2:0:0:
73,90,155837,1,8,0:2:0:0:
43,95,155927,6,0,P|95:138|101:242,1,170,6|8,3:2|0:2,0:0:0:0:
231,331,156466,2,0,B|244:310|244:310|235:267,1,42.5,2|0,0:2|0:2,0:0:0:0:
186,240,156646,1,0,3:2:0:0:
83,355,156825,1,0,0:2:0:0:
186,240,157005,2,0,L|324:261,1,127.5,10|0,0:2|0:2,0:0:0:0:
387,281,157364,6,0,P|392:239|371:203,1,85,2|0,3:2|0:2,0:0:0:0:
240,292,157723,1,10,0:2:0:0:
315,141,157903,1,2,0:2:0:0:
119,123,158083,5,0,3:2:0:0:
115,137,158173,2,0,L|216:124,1,85,0|0,3:2|0:2,0:0:0:0:
261,81,158442,2,0,L|243:34,1,42.5,10|0,0:2|0:2,0:0:0:0:
371,203,158622,2,0,L|353:249,1,42.5,2|0,0:2|0:2,0:0:0:0:
459,92,158801,6,0,B|431:70|387:88|387:88|368:136|305:142,1,170,2|8,3:2|0:2,0:0:0:0:
465,99,159340,2,0,L|446:163,1,42.5,0|0,0:2|0:2,0:0:0:0:
454,219,159520,1,0,3:2:0:0:
312,62,159700,1,0,0:2:0:0:
229,227,159879,2,0,L|375:245,1,127.5,10|0,0:2|0:2,0:0:0:0:
415,298,160238,6,0,P|409:329|388:360,1,42.5,2|0,3:2|0:2,0:0:0:0:
173,298,160418,1,0,3:2:0:0:
151,277,160508,1,0,3:2:0:0:
136,250,160598,1,2,3:2:0:0:
137,220,160688,1,0,3:2:0:0:
149,193,160777,6,0,L|88:210,1,42.5,10|0,2:2|0:2,0:0:0:0:
204,98,160957,2,0,L|143:115,1,42.5,10|0,2:2|0:2,0:0:0:0:
269,215,161137,2,0,L|208:232,1,42.5,10|0,0:2|0:2,0:0:0:0:
302,105,161316,1,2,3:2:0:0:
300,112,161406,1,0,3:2:0:0:
298,119,161496,1,0,3:2:0:0:
296,127,161586,1,0,3:2:0:0:
294,134,161676,6,0,L|262:-2,1,136,6|8,3:2|0:2,0:0:0:0:
383,129,162215,1,8,0:2:0:0:
383,129,162394,2,0,P|378:165|346:190,1,68,2|0,0:2|3:2,0:0:0:0:
208,102,162753,1,10,0:2:0:0:
322,57,162933,1,0,0:2:0:0:
208,102,163113,6,0,B|158:118|158:118|144:151|144:151|79:170,1,136,2|8,3:2|0:2,0:0:0:0:
208,102,163652,1,8,0:2:0:0:
180,217,163831,2,0,P|212:223|249:237,1,68,2|0,0:2|3:2,0:0:0:0:
49,220,164191,2,0,P|33:267|58:309,1,102,10|0,0:2|0:2,0:0:0:0:
71,324,164550,6,0,L|212:304,1,136,2|10,3:2|0:2,0:0:0:0:
292,174,165089,2,0,P|321:201|317:243,1,68,8|2,0:2|0:2,0:0:0:0:
283,338,165448,1,0,3:2:0:0:
180,217,165628,2,0,L|195:127,1,68,10|2,0:2|0:2,0:0:0:0:
305,24,165987,6,0,P|332:51|331:91,1,68,2|2,3:2|3:2,0:0:0:0:
329,101,166256,1,2,0:2:0:0:
329,101,166346,1,10,0:2:0:0:
191,149,166526,1,8,0:2:0:0:
323,227,166706,2,0,P|367:216|411:210,1,68,2|0,0:2|3:2,0:0:0:0:
507,91,167065,2,0,P|448:107|389:113,1,102,10|0,0:2|0:2,0:0:0:0:
402,124,167424,6,0,P|462:161|474:225,1,136,2|8,3:2|0:2,0:0:0:0:
323,227,167963,1,8,0:2:0:0:
387,351,168143,2,0,P|391:317|397:283,1,68,2|0,0:2|3:2,0:0:0:0:
254,266,168502,1,10,0:2:0:0:
324,146,168682,1,0,0:2:0:0:
254,266,168861,6,0,B|188:270|211:210|130:211,1,136,2|8,3:2|0:2,0:0:0:0:
135,211,169400,1,8,0:2:0:0:
323,227,169580,2,0,B|341:256|341:256|326:313,1,68,2|0,0:2|3:2,0:0:0:0:
90,337,169939,2,0,B|72:308|72:308|87:251,1,68,10|0,0:2|3:2,0:0:0:0:
221,99,170298,6,0,L|255:276,1,170,14|2,0:2|3:2,0:0:0:0:
192,315,170747,1,2,3:2:0:0:
192,315,170837,2,0,L|141:291,1,42.5,10|0,0:2|0:2,0:0:0:0:
42,138,171017,5,2,3:2:0:0:
217,202,171197,1,8,0:2:0:0:
277,43,171376,5,2,3:2:0:0:
96,199,171556,1,10,0:2:0:0:
11,13,171735,5,6,3:2:0:0:
256,192,171825,12,0,173173,0:2:0:0:
340,164,183771,5,8,0:2:0:0:
337,172,183861,1,8,0:2:0:0:
334,180,183951,2,0,L|280:166,1,42.5,8|8,0:2|0:2,0:0:0:0:
211,84,184131,2,0,L|157:98,1,42.5,0|0,3:2|3:2,0:0:0:0:
97,263,184310,6,0,B|81:245|81:245|88:220,1,51,12|0,2:2|0:2,0:0:0:0:
176,276,184670,6,0,L|10:317,1,152.999995330811,6|0,3:2|0:2,0:0:0:0:
202,349,185029,2,0,P|242:328|231:241,1,101.999996887207,10|2,3:2|0:2,0:0:0:0:
210,166,185298,5,2,0:2:0:0:
210,166,185388,2,0,L|133:182,2,50.9999984436036,2|2|2,3:2|0:2|0:2,0:0:0:0:
329,277,185747,1,8,3:2:0:0:
210,166,185927,1,0,0:2:0:0:
349,94,186107,6,0,B|385:71|422:83|422:83|441:127|498:129,1,152.999995330811,2|0,3:2|0:2,0:0:0:0:
418,240,186466,2,0,B|374:209|374:209|389:149,1,101.999996887207,10|2,3:2|0:2,0:0:0:0:
491,50,186735,5,2,0:2:0:0:
503,58,186825,2,0,L|492:8,1,50.9999984436036,2|2,3:2|0:2,0:0:0:0:
385,162,187005,1,2,0:2:0:0:
308,30,187185,1,8,3:2:0:0:
210,166,187364,1,2,0:2:0:0:
213,176,187454,1,2,0:2:0:0:
216,186,187544,6,0,B|289:185|307:124|307:124|291:147|250:149,1,152.999995330811,2|0,3:2|0:2,0:0:0:0:
138,204,187903,2,0,P|154:246|223:259,1,101.999996887207,10|2,3:2|0:2,0:0:0:0:
239,81,188173,5,2,0:2:0:0:
239,81,188262,2,0,L|119:111,1,101.999996887207,2|2,3:2|0:2,0:0:0:0:
7,33,188622,2,0,P|25:57|79:56,1,50.9999984436036,8|0,3:2|0:2,0:0:0:0:
112,32,188801,1,0,0:2:0:0:
0,136,188981,6,0,L|37:323,1,152.999995330811,2|0,3:2|0:2,0:0:0:0:
158,292,189340,2,0,B|171:271|202:263|202:263|146:262|84:240,1,152.999995330811,10|0,3:2|0:2,0:0:0:0:
20,364,189700,5,2,3:2:0:0:
31,372,189789,2,0,B|99:351|99:351|117:359|151:372,1,101.999996887207,0|0,3:2|0:2,0:0:0:0:
222,340,190059,2,0,L|276:322,1,50.9999984436036,10|0,3:2|0:2,0:0:0:0:
450,370,190238,2,0,P|461:340|442:304,1,50.9999984436036,0|0,0:2|0:2,0:0:0:0:
351,125,190418,6,0,L|329:298,1,152.999995330811,2|0,3:2|0:2,0:0:0:0:
210,185,190777,2,0,B|239:167|239:167|313:192,1,101.999996887207,10|2,3:2|0:2,0:0:0:0:
418,251,191047,1,2,0:2:0:0:
418,251,191137,2,0,L|475:235,2,50.9999984436036,2|2|2,3:2|0:2|0:2,0:0:0:0:
351,125,191496,1,8,3:2:0:0:
255,253,191676,1,0,0:2:0:0:
215,95,191855,6,0,B|135:96|167:166|74:158,1,152.999995330811,2|0,3:2|0:2,0:0:0:0:
0,47,192215,2,0,B|37:40|37:40|90:83,1,101.999996887207,10|2,3:2|0:2,0:0:0:0:
75,235,192484,5,2,0:2:0:0:
58,245,192574,2,0,P|39:241|13:203,1,50.9999984436036,2|2,3:2|0:2,0:0:0:0:
6,133,192753,1,2,0:2:0:0:
160,177,192933,1,8,3:2:0:0:
19,353,193113,1,2,0:2:0:0:
19,353,193203,1,2,0:2:0:0:
19,353,193292,6,0,B|47:316|101:322|101:322|122:357|171:355,1,152.999995330811,2|0,3:2|0:2,0:0:0:0:
211,282,193652,2,0,B|235:256|235:256|151:277,1,101.999996887207,10|2,3:2|0:2,0:0:0:0:
285,331,193921,5,2,0:2:0:0:
285,331,194011,2,0,L|397:346,1,101.999996887207,2|2,3:2|0:2,0:0:0:0:
467,181,194370,2,0,L|400:195,1,50.9999984436036,8|0,3:2|0:2,0:0:0:0:
364,255,194550,1,0,0:2:0:0:
156,117,194729,5,2,3:2:0:0:
148,123,194819,1,0,3:2:0:0:
140,129,194909,2,0,P|118:105|111:67,1,50.9999984436036,8|8,0:2|0:2,0:0:0:0:
356,117,195089,5,2,3:2:0:0:
364,123,195179,1,0,3:2:0:0:
372,129,195269,2,0,P|394:105|401:67,1,50.9999984436036,8|8,0:2|0:2,0:0:0:0:
256,160,195448,5,10,2:2:0:0:
256,176,195538,1,0,3:2:0:0:
256,192,195628,1,2,3:2:0:0:
256,208,195717,1,0,3:2:0:0:
240,240,195807,5,10,3:2:0:0:
272,200,195897,1,10,0:2:0:0:
240,160,195987,1,10,0:2:0:0:
272,120,196077,1,10,0:2:0:0:
240,80,196167,6,0,L|51:108,1,170,6|8,3:2|2:2,0:0:0:0:
149,245,196706,1,2,0:2:0:0:
49,178,196885,2,0,L|1:162,2,42.5,0|0|0,3:2|3:2|3:2,0:0:0:0:
53,348,197244,2,0,L|68:261,1,85,10|2,2:2|0:2,0:0:0:0:
68,265,197514,1,2,0:2:0:0:
68,265,197604,6,0,B|153:255|124:331|231:324,1,170,2|8,3:2|2:2,0:0:0:0:
334,189,198143,2,0,P|277:204|239:210,1,85,2|0,0:2|3:2,0:0:0:0:
245,226,198412,1,0,3:2:0:0:
245,226,198502,1,0,3:2:0:0:
313,360,198682,2,0,P|347:312|422:335,1,127.5,10|0,3:2|0:2,0:0:0:0:
420,340,199041,6,0,P|423:258|443:167,1,170,2|8,3:2|3:2,0:0:0:0:
310,20,199580,1,2,0:2:0:0:
377,120,199759,1,0,3:2:0:0:
377,120,199849,1,0,3:2:0:0:
377,120,199939,1,0,3:2:0:0:
484,18,200119,2,0,P|424:33|385:39,1,85,10|0,3:2|0:2,0:0:0:0:
280,148,200478,6,0,B|241:122|189:130|189:130|171:169|102:180,1,170,2|8,3:2|3:2,0:0:0:0:
57,235,201017,1,2,0:2:0:0:
117,87,201197,2,0,L|103:41,2,42.5,0|8|0,3:2|2:2|3:2,0:0:0:0:
18,143,201556,1,10,2:2:0:0:
46,150,201646,1,8,0:2:0:0:
74,157,201735,1,10,0:2:0:0:
102,165,201825,1,8,0:2:0:0:
130,173,201915,6,0,P|152:250|128:347,1,170,6|8,3:2|3:2,0:0:0:0:
283,340,202454,1,2,0:2:0:0:
218,228,202634,2,0,L|156:241,2,42.5,0|0|0,3:2|3:2|3:2,0:0:0:0:
333,276,202993,2,0,L|428:291,1,85,10|2,3:2|0:2,0:0:0:0:
420,281,203262,1,2,0:2:0:0:
423,273,203352,6,0,B|361:283|361:283|341:325|341:325|268:343,1,170,2|8,3:2|3:2,0:0:0:0:
298,194,203891,2,0,P|310:136|276:99,1,85,2|0,0:2|3:2,0:0:0:0:
274,106,204161,1,0,3:2:0:0:
274,106,204250,1,0,3:2:0:0:
384,25,204430,1,10,3:2:0:0:
404,161,204610,2,0,L|382:215,1,42.5,8|8,0:2|0:2,0:0:0:0:
423,273,204789,5,6,3:2:0:0:
278,110,204969,1,8,0:2:0:0:
278,110,205059,1,8,0:2:0:0:
278,110,205149,1,0,3:2:0:0:
208,303,205328,6,0,L|133:280,1,42.5,14|0,0:2|0:2,0:0:0:0:
37,161,205508,1,0,3:2:0:0:
216,39,205688,1,8,0:2:0:0:
56,40,205867,2,0,P|44:62|54:95,1,42.5,6|0,3:2|0:2,0:0:0:0:
124,182,206047,2,0,P|123:203|112:220,1,42.5,10|0,0:2|0:2,0:0:0:0:
26,352,206226,5,10,3:2:0:0:
33,347,206316,1,0,3:2:0:0:
40,342,206406,1,0,3:2:0:0:
47,338,206496,1,0,3:2:0:0:
59,311,206586,5,10,3:2:0:0:
87,318,206676,1,0,3:2:0:0:
115,325,206765,1,0,3:2:0:0:
143,332,206855,1,0,3:2:0:0:
161,355,206945,6,0,L|231:338,1,42.5,14|0,0:2|0:2,0:0:0:0:
214,212,207125,2,0,L|284:195,1,42.5,10|0,0:2|0:2,0:0:0:0:
332,362,207304,2,0,L|402:345,1,42.5,10|0,0:2|0:2,0:0:0:0:
473,180,207484,5,14,0:2:0:0:
