osu file format v14

[General]
AudioFilename: audioJakusha no Sengen [Desperation] x1.2 by Serizawa Haruki.mp3
AudioLeadIn: 0
PreviewTime: 51372
Countdown: 0
SampleSet: None
StackLeniency: 0.5
Mode: 0
LetterboxInBreaks: 0
WidescreenStoryboard: 0

[Editor]
DistanceSpacing: 1.5
BeatDivisor: 4
GridSize: 4
TimelineZoom: 1.7

[Metadata]
Title:Speedup map pack
TitleUnicode:弱者の宣言
Artist:HoneyWorks feat. Gero
ArtistUnicode:HoneyWorks feat. Gero
Creator:TTL
Version:Jakusha no Sengen [Desperation] x1.2 by Serizawa Haruki
Source:
Tags:
BeatmapID:1845956
BeatmapSetID:882966

[Difficulty]
HPDrainRate:6.2
CircleSize:3.7
OverallDifficulty:8.7
ApproachRate:9.7
SliderMultiplier:1.4
SliderTickRate:1

[Events]
//Background and Video events
0,0,"bg2.jpg",0,0
//Break Periods
//Storyboard Layer 0 (Background)
//Storyboard Layer 1 (Fail)
//Storyboard Layer 2 (Pass)
//Storyboard Layer 3 (Foreground)
//Storyboard Sound Samples

[TimingPoints]
21,270.2703,4,2,1,60,1,0
8670,-100,4,2,1,70,0,0
17318,-100,4,2,1,60,0,0
34615,-133.3333,4,2,1,50,0,0
43264,-100,4,2,1,70,0,0
48129,-100,4,2,1,30,0,0
50831,-100,4,2,1,70,0,0
51778,-100,4,2,1,80,0,1
69210,-100,4,2,1,70,0,0

[HitObjects]
1,158,21,6,0,L|73:172,1,70
187,208,291,1,2,0:0:0:0:
98,292,426,1,0,0:0:0:0:
236,316,561,2,0,L|373:342,1,140
491,305,967,1,0,0:0:0:0:
436,176,1102,6,0,L|297:149,1,140
178,127,1507,1,0,0:0:0:0:
113,252,1642,2,0,P|132:325|187:356,1,140
306,336,2048,1,0,0:0:0:0:
316,196,2183,6,0,B|316:100|316:100|340:60,1,140
440,156,2589,1,0,0:0:0:0:
384,280,2724,2,0,L|244:292,1,140
168,196,3129,1,0,0:0:0:0:
241,76,3264,6,0,P|247:110|239:143,1,70
98,144,3535,2,0,P|90:110|96:76,1,70
168,196,3805,2,0,P|160:264|101:303,1,140
320,232,4345,5,8,0:0:0:0:
88,220,4480,1,8,0:0:0:0:
188,80,4615,2,0,L|200:148,1,70
236,320,4885,2,0,L|248:252,1,70
288,80,5156,2,0,L|300:148,1,70
336,320,5426,5,8,0:0:0:0:
105,340,5561,1,8,0:0:0:0:
212,227,5696,2,0,L|205:298,1,70
300,148,5967,2,0,L|306:219,1,70
396,67,6237,2,0,L|389:138,1,70
372,308,6507,6,0,P|327:352|282:307,1,140
263,175,6913,2,0,L|259:139,1,35
221,31,7048,2,0,L|218:67,1,35
185,185,7183,2,0,L|181:149,1,35
143,21,7318,2,0,L|139:57,1,35
108,195,7453,2,0,L|104:159,1,35
65,11,7589,5,12,0:0:0:0:
133,266,8129,2,0,B|213:202|213:202|327:212,1,210
476,230,8670,5,6,0:0:0:0:
314,97,8805,1,0,0:0:0:0:
297,306,8940,1,8,0:0:0:0:
388,117,9075,2,0,P|359:35|304:21,1,140
174,26,9480,1,8,0:0:0:0:
152,235,9615,6,0,B|168:283|168:283|244:342,1,140
397,200,10020,2,0,P|371:176|338:165,1,70
130,134,10291,1,2,0:0:0:0:
291,268,10426,1,2,0:0:0:0:
221,70,10561,2,0,L|197:3,1,70
339,165,10831,5,6,0:0:0:0:
141,89,10967,1,0,0:0:0:0:
344,37,11102,1,8,0:0:0:0:
228,212,11237,2,0,B|151:258|151:258|100:263,1,140
29,143,11642,1,8,0:0:0:0:
204,25,11778,6,0,P|274:19|321:78,1,140
349,274,12183,1,8,0:0:0:0:
252,100,12318,1,8,0:0:0:0:
252,100,12385,1,8,0:0:0:0:
252,100,12453,1,8,0:0:0:0:
73,207,12589,1,8,0:0:0:0:
73,207,12656,1,8,0:0:0:0:
73,207,12724,2,0,P|65:173|72:139,1,70
229,0,12994,5,6,0:0:0:0:
190,206,13129,1,0,0:0:0:0:
71,33,13264,1,8,0:0:0:0:
247,150,13400,2,0,P|269:220|231:275,1,140
117,347,13805,1,8,0:0:0:0:
67,143,13940,6,0,B|56:95|56:95|81:7,1,140
287,52,14345,2,0,L|303:123,1,70
354,323,14615,1,2,0:0:0:0:
218,163,14750,1,2,0:0:0:0:
423,208,14885,2,0,L|498:226,1,70
411,29,15156,5,6,0:0:0:0:
331,223,15291,1,0,0:0:0:0:
504,103,15426,1,8,0:0:0:0:
322,0,15561,2,0,B|271:9|271:9|196:63,1,140
85,143,15967,1,8,0:0:0:0:
181,319,16102,6,0,P|248:348|304:314,1,140
384,177,16507,2,0,L|384:143,1,35
302,48,16642,2,0,L|302:96,1,35
302,209,16778,2,0,L|302:175,1,35
220,80,16913,2,0,L|220:128,1,35
220,220,17048,1,8,0:0:0:0:
225,230,17115,1,8,0:0:0:0:
230,241,17183,1,8,0:0:0:0:
235,251,17250,1,8,0:0:0:0:
242,261,17318,6,0,P|269:280|303:288,1,70
434,242,17589,1,2,0:0:0:0:
302,209,17724,1,0,0:0:0:0:
389,307,17859,2,0,P|491:296|512:259,1,140
512,136,18264,1,0,0:0:0:0:
391,72,18400,6,0,B|368:109|368:109|368:205,1,140
512,136,18805,1,0,0:0:0:0:
456,22,18940,2,0,P|396:-10|328:20,1,140
281,142,19345,1,0,0:0:0:0:
200,32,19480,6,0,B|241:8|241:8|336:14,1,140
456,22,19885,1,0,0:0:0:0:
400,136,20020,2,0,B|380:179|380:179|393:270,1,140
512,210,20426,1,0,0:0:0:0:
400,136,20561,6,0,L|328:142,1,70
233,236,20831,2,0,L|304:242,1,70
400,136,21102,2,0,P|395:65|345:25,1,140
138,157,21642,6,0,L|207:184,1,70
353,244,21913,1,2,0:0:0:0:
260,113,22048,1,0,0:0:0:0:
278,273,22183,2,0,P|346:323|409:301,1,140
482,175,22589,1,0,0:0:0:0:
329,125,22724,6,0,L|190:112,1,140
56,201,23129,1,0,0:0:0:0:
203,266,23264,2,0,P|215:233|209:197,1,70
183,40,23535,1,2,0:0:0:0:
61,145,23670,1,0,0:0:0:0:
221,164,23805,6,0,L|296:172,1,70
451,187,24075,1,2,0:0:0:0:
356,318,24210,1,0,0:0:0:0:
290,171,24345,2,0,P|279:138|285:103,1,70
421,17,24615,1,2,0:0:0:0:
402,177,24750,1,0,0:0:0:0:
321,30,24885,5,8,0:0:0:0:
477,147,25020,1,8,0:0:0:0:
259,157,25156,1,8,0:0:0:0:
442,286,25291,1,8,0:0:0:0:
321,30,25426,1,8,0:0:0:0:
360,306,25561,1,8,0:0:0:0:
439,45,25696,1,8,0:0:0:0:
261,271,25831,1,8,0:0:0:0:
261,271,25900,1,8,0:0:0:0:
261,271,25967,6,0,P|233:292|198:298,1,70
84,196,26237,2,0,L|84:122,1,70
232,84,26507,1,2,0:0:0:0:
172,226,26642,1,2,0:0:0:0:
148,73,26778,2,0,L|137:0,1,70
280,62,27048,6,0,L|269:131,1,70
244,283,27318,2,0,P|278:284|310:269,1,70
401,144,27589,1,2,0:0:0:0:
260,203,27724,1,2,0:0:0:0:
407,245,27859,2,0,L|474:264,1,70
512,115,28129,6,0,L|445:134,1,70
308,201,28400,2,0,P|301:235|309:268,1,70
439,353,28670,1,2,0:0:0:0:
415,201,28805,1,2,0:0:0:0:
349,340,28940,2,0,P|316:351|281:347,1,70
191,172,29210,5,2,0:0:0:0:
308,272,29345,1,2,0:0:0:0:
420,167,29480,2,0,L|432:97,1,70
457,250,29750,1,2,0:0:0:0:
339,151,29885,1,2,0:0:0:0:
423,22,30020,2,0,L|493:22,1,70
409,151,30291,6,0,L|337:151,1,70
188,151,30561,2,0,P|180:117|186:83,1,70
313,0,30831,1,2,0:0:0:0:
264,147,30967,1,2,0:0:0:0:
111,161,31102,2,0,L|33:168,1,70
143,283,31372,6,0,L|212:289,1,70
358,239,31642,2,0,P|365:205|359:171,1,70
260,52,31913,1,2,0:0:0:0:
283,204,32048,1,2,0:0:0:0:
358,70,32183,2,0,L|391:5,1,70
479,133,32453,6,0,L|447:195,1,70
324,289,32724,2,0,P|291:277|265:254,1,70
212,109,32994,1,2,0:0:0:0:
347,184,33129,1,2,0:0:0:0:
193,194,33264,2,0,L|123:197,1,70
0,72,33535,5,8,0:0:0:0:
212,109,33670,1,8,0:0:0:0:
51,256,33805,2,0,P|31:185|57:133,1,105
85,94,34075,6,0,L|85:48,2,46.66667
117,165,34345,2,0,L|117:211,2,46.66667
163,101,34615,5,6,0:0:0:0:
258,56,34750,1,0,0:0:0:0:
249,161,34885,2,0,P|249:187|239:211,1,52.5
189,304,35156,2,0,L|299:304,1,105
399,304,35561,1,2,0:0:0:0:
463,221,35696,6,0,P|475:165|459:117,1,105
264,47,36237,2,0,L|156:47,1,105
182,256,36778,5,2,0:0:0:0:
364,152,37048,2,0,L|364:100,1,52.5
260,84,37318,2,0,L|260:192,1,105
252,294,37724,2,0,P|232:310|207:318,1,52.5
102,320,37994,5,2,0:0:0:0:
41,235,38129,2,0,L|41:183,1,52.5
117,110,38400,1,2,0:0:0:0:
192,183,38535,2,0,L|192:236,1,52.5
381,145,38940,6,0,L|442:145,2,52.5
290,92,39345,1,2,0:0:0:0:
290,197,39480,1,2,0:0:0:0:
450,333,39750,1,0,0:0:0:0:
345,333,39885,2,0,L|286:333,1,52.5
187,333,40156,5,0,0:0:0:0:
98,277,40291,2,0,P|86:221|102:173,1,105
173,101,40696,1,0,0:0:0:0:
201,202,40831,1,0,0:0:0:0:
382,310,41102,6,0,L|435:303,1,52.5
447,199,41372,2,0,L|394:206,1,52.5
303,153,41642,2,0,P|289:203|302:254,1,105
382,310,42048,1,2,0:0:0:0:
110,276,42318,5,2,0:0:0:0:
281,64,42589,1,2,0:0:0:0:
281,64,42656,1,2,0:0:0:0:
281,64,42724,1,2,0:0:0:0:
371,116,42859,5,2,0:0:0:0:
280,169,42994,2,0,P|254:173|229:169,1,52.5
49,87,43264,5,6,0:0:0:0:
110,276,43400,1,0,0:0:0:0:
183,93,43535,2,0,L|260:86,1,70
89,197,43805,2,0,L|19:203,1,70
204,272,44075,2,0,L|281:265,1,70
419,165,44345,6,0,L|426:95,1,70
253,119,44615,2,0,L|260:189,1,70
449,246,44885,2,0,P|484:243|513:224,1,70
415,52,45156,2,0,P|380:55|351:74,1,70
256,220,45426,6,0,L|256:290,1,70
89,239,45696,2,0,L|89:169,1,70
225,25,45967,2,0,P|258:16|291:25,1,70
255,220,46237,2,0,P|222:227|188:220,1,70
0,118,46507,5,2,0:0:0:0:
223,145,46642,1,2,0:0:0:0:
16,279,46778,1,8,0:0:0:0:
73,27,46913,1,8,0:0:0:0:
256,220,47048,1,8,0:0:0:0:
0,118,47183,1,8,0:0:0:0:
294,123,47318,1,8,0:0:0:0:
8,199,47453,1,8,0:0:0:0:
323,272,47589,5,12,0:0:0:0:
343,278,48129,5,0,0:0:0:0:
363,284,48670,5,0,0:0:0:0:
345,1,49750,5,0,0:0:0:0:
333,15,50291,5,0,0:0:0:0:
321,29,50831,5,8,0:0:0:0:
153,246,50967,1,8,0:0:0:0:
385,90,51102,1,8,0:0:0:0:
109,168,51237,1,8,0:0:0:0:
403,176,51372,1,8,0:0:0:0:
118,81,51507,1,8,0:0:0:0:
370,257,51642,1,8,0:0:0:0:
163,17,51778,6,0,P|100:5|44:56,1,140
11,258,52183,2,0,L|81:275,1,70
303,330,52453,1,2,0:0:0:0:
200,122,52589,1,2,0:0:0:0:
130,346,52724,1,8,0:0:0:0:
282,152,52859,6,0,P|277:83|211:35,1,140
18,14,53264,2,0,L|18:87,1,70
18,316,53535,1,2,0:0:0:0:
130,114,53670,1,2,0:0:0:0:
130,346,53805,1,8,0:0:0:0:
241,119,53940,6,0,B|264:75|264:75|353:51,1,140
460,232,54345,2,0,L|389:238,1,70
161,261,54615,1,2,0:0:0:0:
379,336,54750,1,2,0:0:0:0:
149,359,54885,1,8,0:0:0:0:
321,184,55020,6,0,P|345:115|309:59,1,140
109,7,55426,2,0,L|112:87,1,70
125,307,55696,1,2,0:0:0:0:
268,126,55831,1,2,0:0:0:0:
38,160,55967,1,8,0:0:0:0:
270,239,56102,6,0,B|405:287,1,140
432,69,56507,2,0,P|400:54|366:55,1,70
171,181,56778,1,2,0:0:0:0:
400,215,56913,1,2,0:0:0:0:
171,181,57048,1,8,0:0:0:0:
416,140,57183,6,0,P|475:195|454:270,1,140
289,358,57589,2,0,L|217:358,1,70
400,215,57859,1,2,0:0:0:0:
171,181,57994,1,2,0:0:0:0:
400,215,58129,1,8,0:0:0:0:
153,256,58264,6,0,P|98:207|106:137,1,140
279,23,58670,2,0,L|348:23,1,70
512,186,58940,1,2,0:0:0:0:
296,104,59075,1,2,0:0:0:0:
504,0,59210,1,8,0:0:0:0:
332,177,59345,6,0,B|291:212|291:212|201:226,1,140
43,93,59750,2,0,L|127:79,1,70
340,45,60020,1,2,0:0:0:0:
205,225,60156,1,8,0:0:0:0:
198,234,60224,1,8,0:0:0:0:
191,243,60291,1,8,0:0:0:0:
184,253,60359,1,8,0:0:0:0:
178,262,60426,6,0,P|121:278|104:214,1,140
194,24,60831,2,0,L|266:40,1,70
487,98,61102,1,2,0:0:0:0:
264,160,61237,1,2,0:0:0:0:
431,1,61372,1,8,0:0:0:0:
321,220,61507,6,0,P|225:234|187:190,1,140
96,19,61913,2,0,L|100:92,1,70
115,319,62183,1,2,0:0:0:0:
193,102,62318,1,2,0:0:0:0:
213,332,62453,1,8,0:0:0:0:
271,93,62589,6,0,P|216:27|166:28,1,140
67,212,62994,2,0,L|140:230,1,70
360,280,63264,1,2,0:0:0:0:
130,312,63400,1,2,0:0:0:0:
356,357,63535,1,8,0:0:0:0:
204,165,63670,6,0,B|173:129|173:129|186:36,1,140
394,11,64075,2,0,L|382:97,1,70
360,280,64345,1,2,0:0:0:0:
292,99,64480,1,8,0:0:0:0:
292,99,64548,1,8,0:0:0:0:
292,99,64615,1,8,0:0:0:0:
434,281,64750,6,0,B|288:328,1,140
78,341,65156,2,0,L|100:271,1,70
179,58,65426,1,2,0:0:0:0:
216,279,65561,1,2,0:0:0:0:
296,63,65696,1,8,0:0:0:0:
281,321,65831,6,0,P|215:357|147:314,1,140
201,126,66237,2,0,L|273:145,1,70
89,280,66507,1,2,0:0:0:0:
316,237,66642,1,2,0:0:0:0:
91,180,66778,1,8,0:0:0:0:
298,312,66913,6,0,P|375:287|392:222,1,140
298,2,67318,1,8,0:0:0:0:
91,180,67453,1,8,0:0:0:0:
430,24,67589,1,8,0:0:0:0:
61,89,67724,1,8,0:0:0:0:
435,110,67859,1,8,0:0:0:0:
63,12,67994,6,0,P|2:38|-14:108,1,140
