osu file format v14

[General]
AudioFilename: audio.mp3
AudioLeadIn: 0
PreviewTime: 70231
Countdown: 0
SampleSet: Soft
StackLeniency: 0.7
Mode: 0
LetterboxInBreaks: 0
WidescreenStoryboard: 0

[Editor]
Bookmarks: 216931,224031
DistanceSpacing: 1
BeatDivisor: 4
GridSize: 4
TimelineZoom: 2.1

[Metadata]
Title:Kinyoubi no Ohayou
TitleUnicode:┗ ∵ ┓金曜日のおはよう
Artist:HoneyWorks feat. Gero
ArtistUnicode:HoneyWorks feat. Gero
Creator:VTC
Version:Insane
Source:
Tags:げろ Gerorin げろりん Nico Nico Douga ニコニコ動画 GUMI Megpoid グミ メグッポイド
BeatmapID:1512162
BeatmapSetID:715585

[Difficulty]
HPDrainRate:6
CircleSize:4
OverallDifficulty:8
ApproachRate:9
SliderMultiplier:1.8
SliderTickRate:2

[Events]
//Background and Video events
0,0,"BG.jpg",0,0
Video,0,"Video.avi"
//Break Periods
2,140830,143031
2,185431,196031
//Storyboard Layer 0 (Background)
//Storyboard Layer 1 (Fail)
//Storyboard Layer 2 (Pass)
//Storyboard Layer 3 (Foreground)
//Storyboard Layer 4 (Overlay)
//Storyboard Sound Samples

[TimingPoints]
1431,400,4,2,0,100,1,0
12631,-133.333333333333,4,2,0,100,0,0
19031,-100,4,2,0,100,0,0
31831,-100,4,2,0,75,0,0
70231,-100,4,2,0,85,0,1
95831,-100,4,2,0,85,0,0
120831,-100,4,2,0,45,0,0
121431,-100,4,2,0,75,0,0
140631,-100,4,2,0,35,0,0
140831,-100,4,2,0,75,0,0
147031,-100,4,2,0,75,0,1
172631,-100,4,2,0,75,0,0
184631,-100,4,2,0,85,0,0
198231,-100,4,2,0,85,0,1
210231,-100,4,2,0,95,0,1
210631,-100,4,2,0,100,0,1
211031,-100,4,2,0,85,0,0

[HitObjects]
60,228,6231,6,0,P|112:280|220:280,1,180,0|2,1:0|0:0,0:0:0:0:
195,91,6831,2,0,L|164:176,1,90,0|0,0:0|1:0,0:0:0:0:
182,367,7231,2,0,L|213:282,2,90,0|2|0,0:0|0:0|0:0,0:0:0:0:
408,224,7831,5,0,1:0:0:0:
408,224,8031,2,0,B|396:156|396:156|396:24,1,180
224,120,8631,2,0,B|176:136|176:136|120:136,1,90,0|0,1:0|0:0,0:0:0:0:
16,48,9031,2,0,B|64:32|64:32|120:32,1,90
312,136,9431,6,0,B|300:204|300:204|312:244|312:244|300:316,1,180,0|0,1:0|0:0,0:0:0:0:
192,308,10031,1,0,0:0:0:0:
84,288,10231,1,0,1:0:0:0:
28,196,10431,1,0,0:0:0:0:
56,92,10631,1,0,0:0:0:0:
192,218,10831,6,0,L|192:314,1,90,0|0,0:0|1:0,0:0:0:0:
384,196,11231,2,0,L|328:117,2,90
252,64,11831,2,0,P|292:32|416:72,1,180,0|0,1:0|0:0,0:0:0:0:
432,308,12631,6,0,P|356:324|288:300,2,135.000005149842,2|0|0,0:0|0:0|1:0,0:0:0:0:
396,164,13631,1,0,0:0:0:0:
396,164,13831,2,0,P|396:112|408:80,1,67.5000025749208,0|4,0:0|3:0,0:0:0:0:
288,200,14231,2,0,P|220:200|144:176,1,135.000005149842,4|0,3:0|0:0,0:0:0:0:
40,56,14831,5,0,0:0:0:0:
40,56,15031,2,0,P|48:108|48:136,1,67.5000025749208
164,248,15431,2,0,P|156:196|156:168,1,67.5000025749208,0|0,0:0|0:0,0:0:0:0:
288,56,15831,5,0,1:0:0:0:
288,56,16031,2,0,B|392:56|392:56|448:80,1,135.000005149842,0|0,1:0|0:0,0:0:0:0:
356,220,16631,1,0,1:0:0:0:
356,220,16831,2,0,L|364:308,1,67.5000025749208,0|0,1:0|0:0,0:0:0:0:
180,320,17231,6,0,P|112:300|96:220,1,135.000005149842,0|0,1:0|0:0,0:0:0:0:
178,172,17831,2,0,L|172:240,1,67.5000025749208,0|0,1:0|0:0,0:0:0:0:
272,100,18231,1,0,1:0:0:0:
272,100,18631,1,0,0:0:0:0:
452,336,19031,6,0,P|456:280|360:216,1,180,4|8,0:0|0:0,0:0:0:0:
272,228,19631,1,0,0:0:0:0:
312,148,19831,2,0,P|312:96|316:52,1,90,0|8,1:0|0:0,0:0:0:0:
444,160,20231,2,0,P|444:212|440:256,1,90,8|0,0:0|0:0,0:0:0:0:
196,164,20631,5,0,1:0:0:0:
108,180,20831,1,0,0:0:0:0:
136,96,21031,1,8,0:0:0:0:
168,248,21231,1,0,0:0:0:0:
48,112,21431,2,0,P|48:64|76:28,1,90,0|8,1:0|0:0,0:0:0:0:
220,76,21831,2,0,P|221:120|196:156,1,90,8|0,0:0|0:0,0:0:0:0:
156,28,22231,6,0,L|356:20,1,180,0|8,1:0|0:0,0:0:0:0:
424,16,22831,1,0,0:0:0:0:
372,92,23031,2,0,B|376:156|376:156|388:188,1,90,0|8,1:0|0:0,0:0:0:0:
320,296,23431,2,0,B|316:232|316:232|304:200,1,90,8|0,0:0|0:0,0:0:0:0:
76,320,23831,6,0,P|136:328|180:328,1,90,0|0,1:0|0:0,0:0:0:0:
320,296,24231,2,0,P|260:288|216:288,1,90,0|0,1:0|0:0,0:0:0:0:
84,228,24631,2,0,P|144:236|188:236,1,90,0|0,1:0|0:0,0:0:0:0:
256,196,25031,1,0,1:0:0:0:
256,196,25131,1,0,0:0:0:0:
256,196,25231,1,0,0:0:0:0:
320,296,25431,6,0,P|368:316|480:264,1,180,0|8,1:0|0:0,0:0:0:0:
492,176,26031,1,0,0:0:0:0:
364,48,26231,2,0,P|364:108|368:156,1,90,0|8,1:0|0:0,0:0:0:0:
492,176,26631,2,0,P|492:116|488:68,1,90,8|0,0:0|0:0,0:0:0:0:
268,120,27031,5,0,1:0:0:0:
180,120,27231,1,0,0:0:0:0:
24,208,27431,5,8,0:0:0:0:
96,260,27631,1,0,0:0:0:0:
256,332,27831,5,0,1:0:0:0:
240,244,28031,1,8,0:0:0:0:
220,372,28231,1,8,0:0:0:0:
272,200,28431,1,0,1:0:0:0:
272,200,28531,1,0,1:0:0:0:
272,200,28631,6,0,P|344:200|420:288,1,180,0|8,1:0|0:0,0:0:0:0:
420,364,29231,1,0,0:0:0:0:
484,208,29431,2,0,P|480:152|484:108,1,90,0|8,1:0|0:0,0:0:0:0:
392,24,29831,2,0,P|396:80|392:124,1,90,8|0,0:0|0:0,0:0:0:0:
304,236,30231,5,0,1:0:0:0:
304,236,30331,1,0,0:0:0:0:
304,236,30431,1,0,0:0:0:0:
152,304,30631,2,0,P|100:316|56:296,1,90,0|0,1:0|0:0,0:0:0:0:
72,188,31031,2,0,P|124:176|168:196,1,90,0|0,1:0|0:0,0:0:0:0:
157,187,31331,1,0,0:0:0:0:
157,187,31431,1,0,1:0:0:0:
44,64,31631,1,0,0:0:0:0:
44,64,31831,6,0,P|104:56|152:52,1,90,6|0,0:0|0:0,0:0:0:0:
316,120,32231,2,0,P|256:128|208:132,1,90,8|0,0:0|0:0,0:0:0:0:
136,132,32631,1,2,0:0:0:0:
116,220,32831,1,0,0:0:0:0:
96,308,33031,1,8,0:0:0:0:
184,284,33231,1,4,3:0:0:0:
184,284,33431,6,0,P|244:284|288:280,1,90,4|0,3:0|0:0,0:0:0:0:
480,200,33831,2,0,P|420:200|376:204,1,90,8|0,0:0|0:0,0:0:0:0:
372,292,34231,1,2,0:0:0:0:
320,136,34431,1,0,0:0:0:0:
404,104,34631,1,8,0:0:0:0:
488,72,34831,1,4,3:0:0:0:
488,72,35031,6,0,P|488:136|464:168,1,90,4|0,3:0|0:0,0:0:0:0:
324,140,35431,2,0,P|324:76|348:44,1,90,8|0,0:0|0:0,0:0:0:0:
368,220,35831,1,2,0:0:0:0:
280,220,36031,1,0,0:0:0:0:
324,140,36231,1,8,0:0:0:0:
328,304,36431,1,4,3:0:0:0:
328,304,36631,6,0,P|268:312|228:300,1,90,4|0,3:0|0:0,0:0:0:0:
80,244,37031,2,0,P|140:236|180:248,2,90,8|0|2,0:0|0:0|0:0,0:0:0:0:
32,320,37631,1,0,0:0:0:0:
20,136,37831,1,8,0:0:0:0:
108,152,38031,1,2,3:0:0:0:
180,100,38231,5,4,3:0:0:0:
192,188,38431,1,0,0:0:0:0:
192,188,38631,2,0,P|200:248|184:296,1,90,8|0,0:0|0:0,0:0:0:0:
21,224,39031,2,0,P|13:164|29:116,1,90,2|0,0:0|0:0,0:0:0:0:
108,232,39431,1,8,0:0:0:0:
192,188,39631,1,4,3:0:0:0:
192,188,39831,6,0,P|248:176|316:184,1,90,4|0,3:0|0:0,0:0:0:0:
356,228,40231,1,8,0:0:0:0:
356,228,40431,2,0,B|388:176|376:128|328:112|328:66|376:28,1,180
480,132,41031,1,8,0:0:0:0:
480,132,41231,2,0,P|488:192|476:232,1,90,4|4,3:0|3:0,0:0:0:0:
272,220,41631,6,0,P|264:160|276:120,2,90,0|8|0,0:0|0:0|0:0,0:0:0:0:
328,288,42231,1,2,0:0:0:0:
412,316,42431,1,0,0:0:0:0:
500,312,42631,1,0,0:0:0:0:
452,236,42831,2,0,P|464:156|456:56,1,180,4|0,3:0|1:0,0:0:0:0:
256,128,43531,5,0,1:0:0:0:
56,57,43831,5,0,1:0:0:0:
100,136,44031,1,0,1:0:0:0:
56,288,44231,1,0,1:0:0:0:
56,288,44331,1,0,1:0:0:0:
56,288,44431,1,0,1:0:0:0:
200,208,44631,6,0,P|204:148|308:100,1,180,4|0,0:0|1:0,0:0:0:0:
464,152,45231,2,0,P|464:196|460:248,2,90
448,64,45831,1,0,1:0:0:0:
376,252,46031,2,0,P|396:296|532:300,1,180
280,252,46631,6,0,P|232:252|176:256,1,90,0|0,1:0|0:0,0:0:0:0:
100,272,47031,1,0,0:0:0:0:
160,340,47231,1,0,0:0:0:0:
136,188,47431,1,0,1:0:0:0:
100,272,47631,1,0,0:0:0:0:
224,164,47831,6,0,P|224:120|216:68,1,90
48,56,48231,1,0,1:0:0:0:
36,144,48431,1,0,0:0:0:0:
120,112,48631,1,0,0:0:0:0:
132,24,48831,1,0,0:0:0:0:
48,56,49031,1,0,1:0:0:0:
208,80,49231,2,0,B|272:56|328:108|408:72,1,180
468,40,49831,6,0,P|476:96|460:136,1,90,0|0,1:0|0:0,0:0:0:0:
308,128,50231,2,0,P|300:72|316:32,2,90,0|0|0,0:0|0:0|1:0,0:0:0:0:
392,160,50831,1,0,0:0:0:0:
336,316,51031,6,0,P|288:332|188:248,1,180,4|0,0:0|1:0,0:0:0:0:
196,136,51631,2,0,P|204:84|196:40,2,90
120,184,52231,1,0,1:0:0:0:
24,68,52431,2,0,L|228:92,1,180
361,154,53031,6,0,L|272:144,1,90,0|0,1:0|0:0,0:0:0:0:
420,80,53431,2,0,L|509:90,2,90,0|0|0,0:0|0:0|1:0,0:0:0:0:
408,228,54031,2,0,P|416:280|324:360,1,180
208,228,54631,6,0,P|200:180|200:132,1,90,0|0,1:0|0:0,0:0:0:0:
244,60,55031,1,0,0:0:0:0:
400,68,55231,1,0,0:0:0:0:
320,108,55431,1,0,1:0:0:0:
320,108,55631,2,0,B|316:220|316:220|340:288,1,180,4|0,0:0|0:0,0:0:0:0:
424,308,56231,5,0,1:0:0:0:
152,288,56431,1,0,0:0:0:0:
312,68,56631,1,0,1:0:0:0:
312,68,56731,1,0,0:0:0:0:
312,68,56831,1,0,0:0:0:0:
400,88,57031,2,0,L|504:88,1,90,0|0,1:0|0:0,0:0:0:0:
244,124,57431,6,0,B|148:132|148:132|44:72,2,180,4|2|0,0:0|0:0|0:0,0:0:0:0:
324,168,58431,1,0,1:0:0:0:
400,216,58631,2,0,L|512:212,1,90,0|0,0:0|1:0,0:0:0:0:
272,244,59031,2,0,L|160:248,1,90
104,292,59431,5,0,0:0:0:0:
128,180,59631,1,0,1:0:0:0:
80,260,59831,1,0,0:0:0:0:
104,148,60031,1,0,1:0:0:0:
52,228,60231,1,0,0:0:0:0:
76,116,60431,1,0,1:0:0:0:
152,204,60631,6,0,P|204:212|340:188,1,180,4|0,0:0|1:0,0:0:0:0:
404,144,61231,1,0,0:0:0:0:
320,108,61431,1,0,0:0:0:0:
492,96,61631,1,0,1:0:0:0:
400,60,61831,1,0,0:0:0:0:
492,96,62031,1,0,1:0:0:0:
420,192,62231,6,0,P|420:296|488:364,1,180
328,316,62831,1,0,1:0:0:0:
240,304,63031,1,0,0:0:0:0:
140,224,63231,1,0,1:0:0:0:
224,196,63431,1,0,0:0:0:0:
224,196,63631,1,0,0:0:0:0:
40,148,63831,6,0,P|36:84|136:20,2,180,4|0|0,0:0|1:0|0:0,0:0:0:0:
100,236,64831,1,0,1:0:0:0:
128,152,65031,1,0,0:0:0:0:
40,148,65231,1,0,1:0:0:0:
192,220,65431,6,0,P|244:224|292:224,1,90
424,148,65831,2,0,P|372:144|324:144,1,90,0|0,0:0|1:0,0:0:0:0:
380,288,66231,1,0,0:0:0:0:
432,360,66431,1,0,1:0:0:0:
484,228,66631,1,0,0:0:0:0:
432,360,66831,1,0,1:0:0:0:
200,352,67031,6,0,P|144:352|8:336,1,180,4|0,0:0|1:0,0:0:0:0:
32,248,67631,1,0,0:0:0:0:
116,148,67831,2,0,P|120:104|116:56,1,90,0|0,1:0|0:0,0:0:0:0:
32,158,68231,2,0,P|28:202|32:250,1,90,0|0,1:0|0:0,0:0:0:0:
232,264,68631,5,0,0:0:0:0:
388,192,68831,1,0,1:0:0:0:
364,364,69031,1,0,1:0:0:0:
364,364,69231,1,0,1:0:0:0:
296,196,69431,1,0,1:0:0:0:
260,56,69631,5,0,0:0:0:0:
300,36,69731,1,2,0:0:0:0:
344,32,69831,1,0,0:0:0:0:
387,44,69931,1,2,0:0:0:0:
423,71,70031,1,0,0:0:0:0:
447,109,70131,1,2,0:0:0:0:
456,153,70231,6,0,B|396:160|368:144|348:108|348:108|264:128,1,180,4|0,1:0|1:0,0:0:0:0:
208,140,70831,1,0,0:0:0:0:
120,160,71031,2,0,L|124:260,1,90,0|0,1:0|0:0,0:0:0:0:
220,368,71431,2,0,L|216:268,1,90,0|0,1:0|0:0,0:0:0:0:
36,263,71831,6,0,L|232:279,1,180,0|0,1:0|1:0,0:0:0:0:
304,288,72431,1,0,0:0:0:0:
348,168,72631,1,0,1:0:0:0:
400,240,72831,1,0,0:0:0:0:
300,88,73031,1,0,1:0:0:0:
388,84,73231,1,0,0:0:0:0:
252,168,73431,6,0,P|196:180|156:180,1,90,0|0,1:0|0:0,0:0:0:0:
16,116,73831,2,0,P|72:104|112:104,1,90,0|0,1:0|0:0,0:0:0:0:
172,268,74231,1,0,1:0:0:0:
96,312,74431,1,0,0:0:0:0:
16,284,74631,1,0,1:0:0:0:
232,332,74831,6,0,P|288:332|328:316,1,90,0|0,0:0|1:0,0:0:0:0:
396,272,75231,1,0,0:0:0:0:
424,112,75431,1,0,1:0:0:0:
460,196,75631,1,0,0:0:0:0:
336,24,75831,1,0,1:0:0:0:
300,108,76031,1,0,0:0:0:0:
108,200,76231,1,0,1:0:0:0:
144,116,76431,1,0,0:0:0:0:
180,260,76631,6,0,P|136:288|24:232,1,180,4|0,0:0|1:0,0:0:0:0:
48,152,77231,1,0,0:0:0:0:
180,260,77431,2,0,P|240:256|292:264,1,90,0|0,1:0|0:0,0:0:0:0:
424,328,77831,2,0,P|364:332|312:324,1,90,0|0,1:0|0:0,0:0:0:0:
364,144,78231,5,0,1:0:0:0:
376,232,78431,1,0,0:0:0:0:
172,272,78631,1,0,1:0:0:0:
204,112,78831,1,0,0:0:0:0:
364,144,79031,1,0,1:0:0:0:
248,256,79231,1,0,0:0:0:0:
204,116,79431,1,0,1:0:0:0:
348,40,79631,1,0,0:0:0:0:
348,40,79731,1,0,0:0:0:0:
348,40,79831,6,0,P|424:36|452:36,2,90,0|0|0,1:0|0:0|1:0,0:0:0:0:
288,108,80431,1,0,0:0:0:0:
248,188,80631,2,0,P|172:192|144:192,1,90,0|0,1:0|0:0,0:0:0:0:
16,120,81031,1,0,1:0:0:0:
72,192,81231,2,0,P|72:248|28:368,1,180,4|0,1:0|0:0,0:0:0:0:
168,292,81831,2,0,P|224:280|284:280,1,90,0|0,1:0|1:0,0:0:0:0:
436,328,82231,1,0,1:0:0:0:
368,208,82431,1,0,1:0:0:0:
368,208,82531,1,0,0:0:0:0:
368,208,82631,1,0,1:0:0:0:
248,340,82831,1,0,1:0:0:0:
192,172,83031,6,0,P|192:124|196:76,1,90,4|2,1:0|0:0,0:0:0:0:
195,82,83331,1,0,0:0:0:0:
195,82,83431,1,0,1:0:0:0:
360,68,83631,1,2,0:0:0:0:
328,224,83831,2,0,P|332:296|344:324,1,90,0|2,1:0|0:0,0:0:0:0:
338,312,84131,1,0,0:0:0:0:
338,312,84231,1,0,1:0:0:0:
464,228,84431,5,2,0:0:0:0:
464,228,84531,1,0,0:0:0:0:
464,228,84631,1,0,1:0:0:0:
360,68,84831,2,0,P|416:44|452:40,2,90,2|0|2,0:0|1:0|0:0,0:0:0:0:
296,132,85431,1,0,1:0:0:0:
244,204,85631,1,2,0:0:0:0:
168,156,85831,1,0,1:0:0:0:
216,80,86031,1,2,0:0:0:0:
216,80,86131,1,0,0:0:0:0:
216,80,86231,6,0,P|152:68|112:80,1,90,0|2,1:0|0:0,0:0:0:0:
8,216,86631,2,0,P|72:228|112:216,1,90,0|2,1:0|0:0,0:0:0:0:
176,184,87031,1,0,1:0:0:0:
104,132,87231,1,2,0:0:0:0:
95,222,87431,1,0,1:0:0:0:
244,320,87631,5,2,0:0:0:0:
244,320,87731,1,0,0:0:0:0:
244,320,87831,2,0,P|304:332|424:296,1,180,0|0,1:0|1:0,0:0:0:0:
464,224,88431,1,0,1:0:0:0:
396,32,88631,1,0,1:0:0:0:
380,120,88831,1,0,1:0:0:0:
228,216,89031,1,2,0:0:0:0:
216,128,89231,1,0,1:0:0:0:
216,128,89331,1,0,0:0:0:0:
216,128,89431,6,0,B|128:104|128:104|16:104,1,180,4|0,1:0|1:0,0:0:0:0:
12,272,90031,1,2,0:0:0:0:
12,272,90131,1,0,0:0:0:0:
12,272,90231,2,0,P|16:216|16:176,1,90,0|2,1:0|0:0,0:0:0:0:
232,126,90631,2,0,P|228:182|228:222,1,90,0|2,1:0|0:0,0:0:0:0:
227,215,90931,1,0,0:0:0:0:
227,215,91031,1,0,1:0:0:0:
408,256,91231,5,2,0:0:0:0:
320,252,91431,1,0,1:0:0:0:
384,96,91631,1,2,0:0:0:0:
472,100,91831,1,0,1:0:0:0:
296,92,92031,1,2,0:0:0:0:
464,48,92231,1,0,1:0:0:0:
315,142,92431,1,2,0:0:0:0:
315,142,92531,1,0,0:0:0:0:
315,142,92631,6,0,P|304:196|312:252,2,90,0|2|0,1:0|2:0|1:0,0:0:0:0:
380,80,93231,1,2,0:0:0:0:
386,278,93431,1,0,1:0:0:0:
234,282,93631,1,2,0:0:0:0:
306,230,93831,1,0,1:0:0:0:
176,348,94031,6,0,P|128:356|4:312,1,180,4|2,1:0|0:0,0:0:0:0:
39,138,94631,2,0,L|36:228,1,90,0|0,1:0|1:0,0:0:0:0:
200,128,95031,2,0,L|203:38,1,90,0|0,1:0|0:0,0:0:0:0:
192,40,95431,2,0,B|180:69|180:69|192:85|192:85|176:105|176:105|188:125|188:125|172:161|172:161|188:201,1,180,0|4,0:0|0:0,0:0:0:0:
360,240,96231,5,0,1:0:0:0:
344,152,96431,1,0,0:0:0:0:
452,264,96631,2,0,P|424:312|296:304,1,180,0|0,0:0|1:0,0:0:0:0:
252,248,97231,1,0,0:0:0:0:
252,248,97331,1,0,0:0:0:0:
252,248,97431,6,0,P|236:188|236:148,1,90
316,120,97831,1,0,1:0:0:0:
168,108,98031,1,0,0:0:0:0:
52,204,98231,1,0,0:0:0:0:
200,192,98431,1,0,1:0:0:0:
312,284,98631,1,0,1:0:0:0:
164,272,98831,1,0,0:0:0:0:
80,100,99031,6,0,P|104:44|224:44,2,180,0|0|0,0:0|1:0|0:0,0:0:0:0:
256,192,100031,1,0,1:0:0:0:
328,248,100231,1,0,1:0:0:0:
360,164,100431,1,0,0:0:0:0:
240,284,100631,6,0,P|284:336|328:344,1,90,4|0,1:0|0:0,0:0:0:0:
59,303,101031,2,0,P|104:295|148:304,1,90,0|0,1:0|0:0,0:0:0:0:
368,336,101431,2,0,P|323:343|279:335,1,90,0|0,1:0|0:0,0:0:0:0:
200,212,101831,1,0,1:0:0:0:
200,212,101931,1,0,1:0:0:0:
200,212,102031,1,0,0:0:0:0:
440,112,102231,6,0,B|368:124|368:124|308:116|308:116|248:124,1,180,4|0,1:0|1:0,0:0:0:0:
172,140,102831,1,0,0:0:0:0:
243,292,103031,2,0,B|248:256|248:256|236:204,1,90,0|0,0:0|1:0,0:0:0:0:
164,51,103431,2,0,B|159:87|159:87|171:139,1,90,0|0,1:0|0:0,0:0:0:0:
172,140,103731,1,0,0:0:0:0:
172,140,103831,1,0,0:0:0:0:
320,80,104031,5,0,0:0:0:0:
480,96,104231,1,0,1:0:0:0:
464,256,104431,1,0,0:0:0:0:
480,96,104631,2,0,P|424:96|384:80,2,90,0|0|0,0:0|1:0|1:0,0:0:0:0:
392,232,105231,1,0,1:0:0:0:
392,232,105331,1,0,1:0:0:0:
392,232,105431,6,0,P|392:292|512:320,2,180,0|0|0,0:0|1:0|0:0,0:0:0:0:
432,152,106431,1,0,1:0:0:0:
268,112,106631,1,0,1:0:0:0:
356,108,106831,1,0,0:0:0:0:
184,252,107031,5,0,1:0:0:0:
145,274,107131,1,0,0:0:0:0:
101,283,107231,1,0,0:0:0:0:
57,277,107331,1,0,0:0:0:0:
16,258,107431,2,0,P|-4:204|-4:160,1,90,0|0,1:0|0:0,0:0:0:0:
76,32,107831,2,0,P|96:86|96:130,1,90,0|0,1:0|0:0,0:0:0:0:
12,96,108231,1,0,1:0:0:0:
12,96,108331,1,0,1:0:0:0:
12,96,108431,1,0,0:0:0:0:
188,136,108631,5,0,1:0:0:0:
396,96,108831,1,0,1:0:0:0:
336,360,109431,5,2,0:0:0:0:
11,208,110231,6,0,P|7:156|19:64,1,135,0|0,0:0|1:0,0:0:0:0:
16,72,110631,2,0,L|138:62,1,90,0|0,1:0|0:0,0:0:0:0:
372,100,111031,6,0,P|304:108|224:104,1,135,0|0,0:0|1:0,0:0:0:0:
237,105,111431,2,0,P|216:56|224:12,1,90,0|0,1:0|0:0,0:0:0:0:
320,176,111831,6,0,P|332:224|340:308,1,135,0|0,0:0|1:0,0:0:0:0:
340,308,112231,2,0,P|280:316|232:316,1,90,0|0,1:0|0:0,0:0:0:0:
160,304,112631,1,0,0:0:0:0:
88,252,112831,1,0,0:0:0:0:
88,252,112931,1,0,1:0:0:0:
88,252,113031,1,0,1:0:0:0:
312,180,113231,6,0,B|244:196|168:160|124:180,1,180
133,176,113731,1,0,1:0:0:0:
133,176,113831,1,0,1:0:0:0:
88,252,114031,1,0,0:0:0:0:
224,180,114231,1,0,0:0:0:0:
188,96,114431,1,0,1:0:0:0:
188,96,114631,1,0,1:0:0:0:
100,108,114831,1,0,0:0:0:0:
100,108,114931,1,0,0:0:0:0:
100,108,115031,6,0,L|256:84,1,135,0|0,0:0|1:0,0:0:0:0:
268,116,115431,2,0,P|282:164|290:204,1,90,0|0,1:0|0:0,0:0:0:0:
212,340,115831,2,0,P|197:291|189:251,1,90
189,252,116131,1,0,1:0:0:0:
189,252,116231,1,0,1:0:0:0:
364,212,116431,6,0,P|408:212|468:236,2,90
364,212,116931,1,0,1:0:0:0:
364,212,117031,1,0,1:0:0:0:
276,232,117231,1,0,0:0:0:0:
332,300,117431,1,0,0:0:0:0:
316,144,117631,1,0,1:0:0:0:
228,156,117831,1,0,1:0:0:0:
276,232,118031,1,0,0:0:0:0:
400,168,118231,6,0,P|400:120|316:56,1,135,0|0,0:0|1:0,0:0:0:0:
300,52,118631,2,0,P|248:48|204:52,1,90,0|0,1:0|0:0,0:0:0:0:
72,116,119031,5,0,0:0:0:0:
84,268,119231,1,0,0:0:0:0:
84,268,119331,1,0,1:0:0:0:
84,268,119431,1,0,1:0:0:0:
220,196,119631,6,0,P|296:204|320:316,1,180,4|0,0:0|1:0,0:0:0:0:
196,104,120231,1,0,1:0:0:0:
480,92,120631,1,0,0:0:0:0:
400,212,120831,2,0,P|400:240|408:272,2,45,0|0|4,0:0|0:0|0:0,0:0:0:0:
52,160,121431,6,0,P|40:112|148:56,1,180,4|0,0:0|1:0,0:0:0:0:
220,76,122031,1,0,0:0:0:0:
308,104,122231,1,0,0:0:0:0:
240,160,122431,1,0,0:0:0:0:
220,76,122631,1,0,1:0:0:0:
324,192,122831,2,0,P|292:236|176:224,1,180
140,144,123431,5,0,1:0:0:0:
80,212,123631,1,0,0:0:0:0:
160,312,123831,1,0,0:0:0:0:
176,224,124031,1,0,0:0:0:0:
8,272,124231,1,0,1:0:0:0:
60,344,124431,1,0,0:0:0:0:
300,324,124631,6,0,P|352:332|488:296,1,180,0|0,0:0|1:0,0:0:0:0:
328,184,125231,2,0,P|272:176|220:200,2,90
380,260,125831,1,0,1:0:0:0:
192,108,126031,2,0,P|232:84|376:108,1,180
424,160,126631,1,0,1:0:0:0:
448,72,126831,1,0,0:0:0:0:
280,208,127031,2,0,L|292:304,1,90
180,197,127431,2,0,L|192:101,1,90,0|0,1:0|0:0,0:0:0:0:
144,304,127831,5,0,0:0:0:0:
144,304,128031,2,0,P|92:308|44:304,1,90,0|0,0:0|1:0,0:0:0:0:
24,220,128431,1,0,0:0:0:0:
64,40,128631,1,0,0:0:0:0:
108,120,128831,1,0,0:0:0:0:
20,124,129031,1,0,1:0:0:0:
156,36,129231,2,0,P|208:36|344:60,1,180
430,177,129831,6,0,L|420:88,1,90,0|0,1:0|0:0,0:0:0:0:
297,214,130231,2,0,L|308:304,1,90
240,144,130631,1,0,1:0:0:0:
328,132,130831,1,0,0:0:0:0:
204,244,131031,5,0,0:0:0:0:
116,256,131231,1,0,0:0:0:0:
40,208,131431,2,0,P|24:156|20:108,1,90,0|0,1:0|0:0,0:0:0:0:
136,24,131831,2,0,P|152:76|156:124,2,90,0|0|0,0:0|0:0|1:0,0:0:0:0:
296,72,132431,6,0,B|360:100|436:48|496:88,1,180,0|0,1:0|0:0,0:0:0:0:
456,236,133031,2,0,P|408:244|348:236,1,90,0|0,1:0|0:0,0:0:0:0:
252,152,133431,1,0,1:0:0:0:
252,152,133531,1,0,1:0:0:0:
252,152,133631,1,0,0:0:0:0:
216,236,133831,2,0,P|216:292|208:336,1,90,0|0,1:0|0:0,0:0:0:0:
60,176,134231,6,0,P|56:112|144:24,2,180,4|4|4,3:2|3:0|3:0,0:0:0:0:
228,248,135231,1,0,3:0:0:0:
284,176,135431,1,4,3:0:0:0:
180,172,135631,1,0,0:0:0:0:
320,64,135831,6,0,P|372:92|396:136,1,90,4|0,3:0|0:0,0:0:0:0:
284,266,136231,2,0,L|284:176,1,90,4|0,3:0|0:0,0:0:0:0:
196,320,136631,2,0,L|114:281,1,90,4|0,3:0|0:0,0:0:0:0:
372,324,137031,2,0,L|453:285,1,90,4|0,3:0|0:0,0:0:0:0:
356,164,137431,6,0,P|344:80|424:20,2,180,4|4|4,3:0|3:0|3:0,0:0:0:0:
428,112,138431,1,0,0:0:0:0:
260,200,138631,2,0,L|148:176,1,90,4|0,3:0|0:0,0:0:0:0:
48,44,139031,2,0,B|36:108|60:152|48:240,1,180,4|4,3:0|3:0,0:0:0:0:
49,223,139631,1,0,0:0:0:0:
176,336,139831,1,4,3:0:0:0:
176,336,139931,1,0,1:0:0:0:
176,336,140031,1,0,0:0:0:0:
324,292,140231,2,0,P|380:260|496:336,1,180,4|4,3:0|0:0,0:0:0:0:
320,68,143631,5,0,0:0:0:0:
320,68,143731,1,0,0:0:0:0:
320,68,143831,2,0,P|336:128|448:148,1,180,4|2,0:0|0:0,0:0:0:0:
504,92,144431,1,0,0:0:0:0:
472,280,144631,1,0,1:0:0:0:
408,104,144831,1,0,1:0:0:0:
376,292,145031,1,0,1:0:0:0:
320,112,145231,1,0,1:0:0:0:
288,300,145431,2,0,B|152:296|88:280|88:180|148:152|220:168|232:216|212:252,1,360,2|2,0:0|0:0,0:0:0:0:
40,132,147031,6,0,P|32:88|156:32,1,180,0|0,1:0|1:0,0:0:0:0:
216,40,147631,1,0,0:0:0:0:
388,72,147831,2,0,P|388:136|376:180,1,90,0|0,1:0|0:0,0:0:0:0:
240,264,148231,2,0,P|240:200|252:156,2,90,0|0|0,1:0|0:0|1:0,0:0:0:0:
396,292,148831,6,0,L|212:300,1,180,0|0,1:0|1:0,0:0:0:0:
68,236,149431,2,0,P|56:188|52:136,1,90,0|0,1:0|0:0,0:0:0:0:
132,24,149831,2,0,P|144:72|148:124,1,90,0|0,1:0|0:0,0:0:0:0:
147,112,150131,1,0,0:0:0:0:
147,112,150231,1,0,1:0:0:0:
68,236,150431,6,0,P|28:256|12:260,2,45,0|0|0,0:0|0:0|1:0,0:0:0:0:
240,212,150831,1,0,0:0:0:0:
328,232,151031,1,0,1:0:0:0:
264,296,151231,1,0,0:0:0:0:
304,144,151431,1,0,1:0:0:0:
352,320,151631,2,0,P|320:364|192:344,1,180,0|0,1:0|1:0,0:0:0:0:
168,204,152231,2,0,L|152:96,1,90,0|0,1:0|0:0,0:0:0:0:
276,204,152631,2,0,L|262:293,1,90,0|0,1:0|1:0,0:0:0:0:
248,120,153031,1,0,1:0:0:0:
336,136,153231,1,0,0:0:0:0:
180,184,153431,6,0,P|160:128|228:28,1,180,4|0,0:0|1:0,0:0:0:0:
308,28,154031,1,0,0:0:0:0:
308,28,154131,1,0,0:0:0:0:
308,28,154231,2,0,P|376:36|428:32,1,90,0|0,1:0|0:0,0:0:0:0:
508,128,154631,2,0,P|440:120|388:124,1,90,0|0,1:0|0:0,0:0:0:0:
418,120,154931,1,0,0:0:0:0:
418,120,155031,1,0,1:0:0:0:
320,224,155231,6,0,P|328:284|368:328,2,90,0|0|0,0:0|1:0|0:0,0:0:0:0:
408,244,155831,1,0,1:0:0:0:
240,288,156031,1,0,0:0:0:0:
264,116,156231,1,0,1:0:0:0:
264,204,156431,1,0,0:0:0:0:
264,204,156531,1,0,1:0:0:0:
264,204,156631,2,0,P|196:208|152:208,1,90,0|0,1:0|0:0,0:0:0:0:
88,188,157031,5,0,1:0:0:0:
136,28,157231,1,0,0:0:0:0:
112,268,157431,2,0,P|112:332|104:372,2,90,0|0|0,1:0|0:0|1:0,0:0:0:0:
256,176,158031,2,0,P|328:168|436:216,1,180,4|0,0:0|0:0,0:0:0:0:
480,352,158631,2,0,L|360:344,1,90,0|0,1:0|1:0,0:0:0:0:
336,201,159031,2,0,L|425:206,1,90,0|0,1:0|1:0,0:0:0:0:
425,206,159331,1,0,1:0:0:0:
425,206,159431,1,0,1:0:0:0:
240,224,159631,1,0,1:0:0:0:
40,280,159831,6,0,P|32:236|32:184,1,90,0|2,1:0|0:0,0:0:0:0:
31,190,160131,1,0,0:0:0:0:
31,190,160231,1,0,1:0:0:0:
172,104,160431,1,2,0:0:0:0:
84,104,160631,5,0,1:0:0:0:
128,184,160831,1,0,0:0:0:0:
128,184,160931,1,0,0:0:0:0:
128,184,161031,2,0,P|136:228|136:280,1,90,0|2,1:0|0:0,0:0:0:0:
132,296,161331,1,0,0:0:0:0:
124,316,161431,1,0,1:0:0:0:
240,156,161631,6,0,P|240:124|244:100,2,45,2|0|0,0:0|0:0|1:0,0:0:0:0:
252,244,162031,1,2,0:0:0:0:
452,224,162231,1,0,1:0:0:0:
336,60,162431,1,2,0:0:0:0:
356,260,162631,1,0,1:0:0:0:
156,280,162831,1,2,0:0:0:0:
156,280,162931,1,0,0:0:0:0:
156,280,163031,6,0,P|88:284|48:280,1,90,0|0,1:0|0:0,0:0:0:0:
20,120,163431,2,0,P|88:116|128:120,2,90,0|2|0,1:0|0:0|1:0,0:0:0:0:
16,212,164031,1,2,0:0:0:0:
12,300,164231,1,0,1:0:0:0:
244,140,164431,5,2,0:0:0:0:
244,140,164531,1,0,0:0:0:0:
244,140,164631,2,0,P|168:132|132:144,1,90,0|0,1:0|0:0,0:0:0:0:
336,192,165031,2,0,P|412:200|448:188,1,90,0|0,1:0|1:0,0:0:0:0:
488,40,165431,1,0,1:0:0:0:
264,40,165631,1,0,1:0:0:0:
344,80,165831,1,0,1:0:0:0:
120,96,166031,1,0,1:0:0:0:
120,96,166131,1,0,1:0:0:0:
120,96,166231,6,0,P|128:168|36:236,1,180,4|0,1:0|1:0,0:0:0:0:
32,136,166831,1,2,0:0:0:0:
142,297,167031,2,0,P|198:301|238:293,1,90,0|2,1:0|0:0,0:0:0:0:
320,272,167431,1,0,1:0:0:0:
256,208,167631,1,2,0:0:0:0:
256,208,167731,1,0,0:0:0:0:
256,208,167831,6,0,P|232:136|232:104,1,90,0|0,1:0|0:0,0:0:0:0:
376,36,168231,1,0,1:0:0:0:
436,192,168431,1,0,0:0:0:0:
312,304,168631,1,0,1:0:0:0:
320,136,168831,1,0,0:0:0:0:
420,272,169031,1,0,1:0:0:0:
252,248,169231,1,2,0:0:0:0:
252,248,169331,1,0,0:0:0:0:
252,248,169431,6,0,P|176:252|120:248,2,90,0|2|0,1:0|0:0|1:0,0:0:0:0:
316,184,170031,1,0,0:0:0:0:
392,136,170231,2,0,P|468:132|524:136,1,90,0|2,1:0|0:0,0:0:0:0:
481,132,170631,1,0,1:0:0:0:
276,64,170831,6,0,P|224:56|68:76,1,180,4|0,1:0|0:0,0:0:0:0:
40,229,171431,2,0,L|44:140,1,90,0|0,1:0|0:0,0:0:0:0:
200,252,171831,2,0,L|196:341,1,90,0|0,1:0|1:0,0:0:0:0:
156,364,172131,5,0,1:0:0:0:
116,343,172231,1,0,1:0:0:0:
96,303,172331,1,0,1:0:0:0:
119,267,172431,1,0,1:0:0:0:
125,223,172531,1,0,1:0:0:0:
115,179,172631,1,0,1:0:0:0:
264,116,172831,5,0,0:0:0:0:
344,72,173031,2,0,P|416:72|460:80,1,90,0|0,1:0|0:0,0:0:0:0:
432,212,173431,2,0,P|360:212|316:204,1,90,0|0,1:0|0:0,0:0:0:0:
272,268,173831,1,0,1:0:0:0:
352,308,174031,1,0,0:0:0:0:
200,208,174231,6,0,P|132:204|96:216,1,90,0|0,1:0|0:0,0:0:0:0:
112,348,174631,2,0,P|180:352|216:340,1,90,0|0,1:0|0:0,0:0:0:0:
24,160,175031,1,0,1:0:0:0:
32,72,175231,1,0,0:0:0:0:
108,120,175431,1,0,1:0:0:0:
196,104,175631,5,0,0:0:0:0:
196,104,175731,1,0,0:0:0:0:
196,104,175831,2,0,P|196:168|264:212,1,135,0|0,1:0|0:0,0:0:0:0:
247,210,176231,2,0,P|311:207|347:211,1,90,0|0,1:0|0:0,0:0:0:0:
508,364,176631,6,0,P|460:376|368:364,1,135,0|0,1:0|0:0,0:0:0:0:
375,366,177031,2,0,P|375:307|367:271,1,90,0|0,1:0|0:0,0:0:0:0:
368,276,177331,1,0,0:0:0:0:
368,276,177431,1,0,1:0:0:0:
224,268,177631,1,0,0:0:0:0:
304,224,177831,1,0,1:0:0:0:
304,224,178031,1,0,0:0:0:0:
140,296,178231,6,0,P|128:248|120:192,1,90,0|0,1:0|0:0,0:0:0:0:
200,32,178631,2,0,P|212:80|220:136,1,90,0|0,1:0|0:0,0:0:0:0:
88,128,179031,5,0,1:0:0:0:
88,128,179131,1,0,0:0:0:0:
88,128,179231,2,0,L|20:112,1,45
184,200,179431,5,0,1:0:0:0:
184,200,179531,1,0,0:0:0:0:
184,200,179631,2,0,L|116:216,1,45
264,120,179831,5,0,1:0:0:0:
264,120,179931,1,0,0:0:0:0:
264,120,180031,2,0,L|196:104,1,45
336,224,180231,5,0,1:0:0:0:
336,224,180331,1,0,0:0:0:0:
336,224,180431,2,0,L|268:240,1,45
388,116,180631,5,0,1:0:0:0:
388,116,180731,1,0,0:0:0:0:
388,116,180831,2,0,L|320:100,1,45
464,216,181031,5,0,1:0:0:0:
464,216,181131,1,0,0:0:0:0:
464,216,181231,2,0,L|453:285,2,45,0|0|0,0:0|0:0|1:0,0:0:0:0:
392,160,181631,1,0,0:0:0:0:
436,24,181831,1,0,1:0:0:0:
500,152,182031,1,0,0:0:0:0:
344,320,182231,6,0,P|288:328|196:320,1,135
168,304,182631,2,0,P|112:292|64:296,1,90,0|0,1:0|0:0,0:0:0:0:
83,119,183031,2,0,P|150:128|217:117,2,135,0|0|4,1:0|1:0|1:0,0:0:0:0:
380,40,184031,5,0,1:0:0:0:
468,60,184231,1,0,1:0:0:0:
500,144,184431,1,0,1:0:0:0:
368,344,184631,5,0,1:0:0:0:
317,267,184831,1,0,1:0:0:0:
322,177,185031,1,0,1:0:0:0:
399,131,185231,1,0,1:0:0:0:
256,192,196631,12,2,197831,0:0:0:0:
204,296,198231,6,0,B|152:312|152:312|24:312,1,180,4|0,1:0|1:0,0:0:0:0:
24,224,198831,1,0,0:0:0:0:
248,168,199031,2,0,B|296:164|296:164|360:168,1,90,0|0,1:0|0:0,0:0:0:0:
460,252,199431,2,0,B|412:256|412:256|348:252,1,90,0|0,1:0|0:0,0:0:0:0:
412,40,199831,5,0,1:0:0:0:
412,40,200031,2,0,P|436:96|432:136,2,90,0|0|0,0:0|1:0|0:0,0:0:0:0:
264,128,200631,2,0,L|356:104,1,90,0|0,1:0|0:0,0:0:0:0:
176,80,201031,2,0,L|84:56,2,90,0|0|0,1:0|0:0|1:0,0:0:0:0:
156,168,201631,5,0,0:0:0:0:
156,168,201731,1,0,0:0:0:0:
156,168,201831,2,0,P|152:232|148:264,1,90,0|0,1:0|0:0,0:0:0:0:
44,344,202231,1,0,1:0:0:0:
40,156,202431,1,0,0:0:0:0:
68,244,202631,1,0,1:0:0:0:
176,68,202831,6,0,P|256:48|376:88,1,180,0|0,1:0|1:0,0:0:0:0:
405,233,203431,2,0,L|400:144,1,90,0|0,1:0|0:0,0:0:0:0:
240,244,203831,2,0,L|245:333,1,90,0|0,1:0|0:0,0:0:0:0:
284,164,204231,1,0,1:0:0:0:
104,168,204431,1,0,0:0:0:0:
104,168,204531,1,0,0:0:0:0:
104,168,204631,6,0,P|96:232|100:272,1,90,4|0,0:0|0:0,0:0:0:0:
208,124,205031,2,0,P|216:60|212:20,1,90,0|0,1:0|0:0,0:0:0:0:
132,76,205431,1,0,1:0:0:0:
272,204,205631,1,0,0:0:0:0:
392,56,205831,1,0,1:0:0:0:
260,72,206031,1,0,0:0:0:0:
260,72,206131,1,0,0:0:0:0:
260,72,206231,6,0,P|260:116|257:161,2,90,0|0|0,1:0|0:0|1:0,0:0:0:0:
200,232,206831,1,0,0:0:0:0:
352,244,207031,1,0,1:0:0:0:
260,364,207231,1,0,0:0:0:0:
272,276,207431,1,0,1:0:0:0:
344,328,207631,1,0,0:0:0:0:
344,328,207731,1,0,0:0:0:0:
344,328,207831,6,0,P|408:348|460:348,2,90,0|0|0,1:0|0:0|1:0,0:0:0:0:
320,128,208431,1,0,0:0:0:0:
180,272,208631,2,0,P|128:268|80:252,2,90,0|0|0,1:0|0:0|1:0,0:0:0:0:
256,64,209231,6,0,P|316:38|415:131,1,180,4|0,0:0|1:0,0:0:0:0:
392,288,209831,1,0,1:0:0:0:
372,200,210031,1,0,1:0:0:0:
240,348,210231,1,0,1:0:0:0:
240,260,210431,1,0,1:0:0:0:
64,348,210631,1,0,1:0:0:0:
56,260,210831,1,0,1:0:0:0:
48,100,211031,6,0,P|92:68|208:128,2,180,4|0|0,0:0|1:0|1:0,0:0:0:0:
192,260,212231,2,0,P|148:292|32:232,1,180,0|0,1:0|1:0,0:0:0:0:
248,184,212831,2,0,P|248:128|300:0,1,180
424,128,213431,1,0,1:0:0:0:
424,128,213631,2,0,L|432:228,2,90
424,128,214131,1,0,0:0:0:0:
424,128,214231,1,0,1:0:0:0:
356,184,214431,5,0,0:0:0:0:
356,32,214631,1,0,1:0:0:0:
280,216,214831,1,0,0:0:0:0:
268,12,215031,1,0,1:0:0:0:
200,264,215231,1,0,0:0:0:0:
200,264,215331,1,0,0:0:0:0:
200,264,215431,6,0,P|136:272|100:264,1,90,0|0,1:0|0:0,0:0:0:0:
92,256,215731,1,0,0:0:0:0:
76,240,215831,1,0,1:0:0:0:
128,40,216031,5,0,0:0:0:0:
128,40,216231,2,0,L|124:144,1,90,0|0,1:0|0:0,0:0:0:0:
268,356,216631,2,0,L|272:252,1,90,0|0,1:0|0:0,0:0:0:0:
271,266,216931,1,0,0:0:0:0:
271,266,217031,1,0,1:0:0:0:
200,80,217231,2,0,L|196:136,2,45,0|0|4,1:0|1:0|1:0,0:0:0:0:
200,80,217831,5,0,1:0:0:0:
336,200,218231,2,0,P|432:200|476:120,1,180,0|0,1:0|1:0,0:0:0:0:
474,136,218831,1,0,0:0:0:0:
264,124,219031,1,0,1:0:0:0:
264,124,219231,6,0,P|228:192|288:300,1,180,0|0,1:0|1:0,0:0:0:0:
384,364,219831,2,0,L|392:272,1,90,0|0,1:0|0:0,0:0:0:0:
391,274,220131,1,0,0:0:0:0:
391,274,220231,1,4,0:0:0:0:
152,236,220431,1,0,0:0:0:0:
152,236,220631,6,0,L|144:328,1,90,0|0,1:0|1:0,1:0:0:0:
76,164,221031,1,0,0:0:0:0:
76,164,221231,2,0,L|84:72,1,90,0|0,0:0|1:0,1:0:0:0:
264,72,221631,1,0,1:0:0:0:
176,88,221831,1,0,0:0:0:0:
276,228,222031,6,0,P|356:260|456:228,1,180,4|0,0:0|1:0,0:0:0:0:
196,192,222631,2,0,L|196:296,1,90,0|0,1:0|1:0,0:0:0:0:
364,104,223031,2,0,L|364:0,1,90,0|0,1:0|0:0,0:0:0:0:
364,204,223431,5,0,0:0:0:0:
60,336,223831,6,0,P|56:280|148:216,1,180,4|0,1:0|1:0,0:0:0:0:
240,228,224431,1,0,0:0:0:0:
200,148,224631,2,0,P|200:96|196:52,1,90
68,160,225031,2,0,P|68:212|72:256,1,90,0|0,1:0|0:0,0:0:0:0:
316,164,225431,5,0,0:0:0:0:
404,180,225631,1,0,0:0:0:0:
376,96,225831,1,0,1:0:0:0:
344,248,226031,1,0,0:0:0:0:
464,112,226231,2,0,P|464:64|436:28,1,90
292,76,226631,2,0,P|291:120|316:156,1,90,0|0,1:0|0:0,0:0:0:0:
356,28,227031,6,0,L|156:20,1,180,0|0,0:0|1:0,0:0:0:0:
88,16,227631,1,0,0:0:0:0:
140,92,227831,2,0,B|136:156|136:156|124:188,1,90
192,296,228231,2,0,B|196:232|196:232|208:200,1,90,0|0,1:0|0:0,0:0:0:0:
436,320,228631,6,0,P|376:328|332:328,1,90,0|0,1:0|0:0,0:0:0:0:
192,296,229031,2,0,P|252:288|296:288,1,90,0|0,1:0|0:0,0:0:0:0:
428,228,229431,2,0,P|368:236|324:236,1,90,0|0,1:0|0:0,0:0:0:0:
256,196,229831,1,0,1:0:0:0:
256,196,229931,1,0,0:0:0:0:
256,196,230031,1,0,0:0:0:0:
192,296,230231,6,0,P|144:316|32:264,1,180,4|0,1:0|1:0,0:0:0:0:
20,176,230831,1,0,0:0:0:0:
148,48,231031,2,0,P|148:108|144:156,1,90
20,176,231431,2,0,P|20:116|24:68,1,90,0|0,1:0|0:0,0:0:0:0:
244,120,231831,5,0,0:0:0:0:
332,120,232031,1,0,0:0:0:0:
488,208,232231,5,0,1:0:0:0:
416,260,232431,1,0,0:0:0:0:
256,332,232631,5,0,0:0:0:0:
272,244,232831,1,0,0:0:0:0:
292,372,233031,1,0,1:0:0:0:
240,200,233231,1,0,0:0:0:0:
240,200,233331,1,0,0:0:0:0:
240,200,233431,6,0,P|168:200|92:288,1,180,0|0,0:0|1:0,0:0:0:0:
92,364,234031,1,0,0:0:0:0:
28,208,234231,2,0,P|32:152|28:108,1,90,0|0,1:0|0:0,0:0:0:0:
120,24,234631,2,0,P|116:80|120:124,1,90,0|0,1:0|0:0,0:0:0:0:
208,236,235031,5,0,1:0:0:0:
208,236,235131,1,0,0:0:0:0:
208,236,235231,1,0,0:0:0:0:
360,304,235431,2,0,P|412:316|456:296,1,90,0|4,1:0|0:0,0:0:0:0:
256,192,235731,12,0,238231,0:0:0:0:
