osu file format v14

[General]
AudioFilename: audio.mp3
AudioLeadIn: 0
PreviewTime: 61323
Countdown: 0
SampleSet: Soft
StackLeniency: 0.5
Mode: 0
LetterboxInBreaks: 0
WidescreenStoryboard: 0

[Editor]
Bookmarks: 10404,20782,22647,41539,51917,62134,83053
DistanceSpacing: 2
BeatDivisor: 4
GridSize: 4
TimelineZoom: 2.4

[Metadata]
Title:Jakusha no Sengen
TitleUnicode:弱者の宣言
Artist:HoneyWorks feat. Gero
ArtistUnicode:HoneyWorks feat. Gero
Creator:Serizawa Haruki
Version:Space's Insane
Source:
Tags:ハニワ げろりん EGOIST メグッポイド グミ Megpoid GUMI ボーカロイド ボカロ Vocaloid ゴム Gom フェルナンドP Fernando-P シト shito チョリスP Chorisu-P ケイキ cake AtsuyuK! 中西 Nakanishi Jack J_a_c_k Irohas MugiwaraSekai Kyle_Y Elcheer -Space- Faputa Poii
BeatmapID:1485025
BeatmapSetID:643153

[Difficulty]
HPDrainRate:6
CircleSize:4.2
OverallDifficulty:8
ApproachRate:9
SliderMultiplier:1.6
SliderTickRate:1

[Events]
//Background and Video events
0,0,"bg.jpg",0,0
//Break Periods
//Storyboard Layer 0 (Background)
//Storyboard Layer 1 (Fail)
//Storyboard Layer 2 (Pass)
//Storyboard Layer 3 (Foreground)
//Storyboard Sound Samples

[TimingPoints]
26,324.324324324324,4,2,1,50,1,0
26,-111.111111111111,4,2,1,50,0,0
7809,-99.9999999999999,4,2,1,50,0,0
8458,-99.9999999999999,4,2,1,60,0,0
8782,-99.9999999999999,4,2,1,70,0,0
10404,-90.9090909090909,4,2,1,80,0,0
20782,-111.111111111111,4,2,1,50,0,0
28890,-100,4,2,1,50,0,0
29215,-100,4,2,1,60,0,0
29539,-100,4,2,1,70,0,0
41539,-133.333333333333,4,2,1,50,0,0
51917,-100,4,2,1,60,0,0
57107,-133.333333333333,4,2,0,25,0,0
60998,-133.333333333333,4,2,1,55,0,0
62134,-100,4,2,1,80,0,1
83053,-100,4,2,1,80,0,0
93431,-100,4,2,1,100,0,0

[Colours]
Combo1 : 191,255,249
Combo2 : 255,128,255
Combo3 : 0,128,255
Combo4 : 255,128,128
Combo5 : 128,128,255
Combo6 : 255,244,168

[HitObjects]
116,88,26,6,0,L|104:172,1,71.9999978027344,6|0,0:0|0:0,0:0:0:0:
224,244,350,2,0,L|213:172,1,71.9999978027344,2|0,0:0|0:0,0:0:0:0:
332,92,674,1,2,0:0:0:0:
328,236,836,1,0,0:0:0:0:
416,108,998,2,0,P|412:60|388:28,1,71.9999978027344,2|0,0:0|0:0,0:0:0:0:
416,208,1323,6,0,L|496:76,1,143.999995605469,6|2,0:0|0:0,0:0:0:0:
340,164,1809,1,0,0:0:0:0:
496,232,1971,2,0,L|440:316,1,71.9999978027344,2|0,0:0|0:0,0:0:0:0:
332,332,2296,2,0,P|292:312|268:276,1,71.9999978027344,2|0,0:0|0:0,0:0:0:0:
220,156,2620,6,0,B|204:128|204:128|156:252,1,143.999995605469,6|2,0:0|0:0,0:0:0:0:
308,208,3107,1,0,0:0:0:0:
116,136,3269,2,0,L|84:216,1,71.9999978027344,2|0,0:0|0:0,0:0:0:0:
296,128,3593,2,0,L|328:48,1,71.9999978027344,2|0,0:0|0:0,0:0:0:0:
108,116,3917,5,6,0:0:0:0:
412,160,4242,1,2,0:0:0:0:
112,276,4566,2,0,L|188:272,1,71.9999978027344,2|0,0:0|0:0,0:0:0:0:
400,320,4890,2,0,L|324:316,1,71.9999978027344,2|0,0:0|0:0,0:0:0:0:
244,200,5215,5,12,0:0:0:0:
408,336,5377,1,8,0:0:0:0:
392,192,5539,6,0,L|384:100,1,71.9999978027344,2|0,0:0|0:0,0:0:0:0:
252,64,5863,2,0,P|200:108|108:108,1,143.999995605469,2|2,0:0|0:0,0:0:0:0:
12,24,6350,1,0,0:0:0:0:
136,132,6512,5,12,0:0:0:0:
48,304,6674,1,8,0:0:0:0:
188,340,6836,6,0,P|240:344|276:332,1,71.9999978027344,2|0,0:0|0:0,0:0:0:0:
392,220,7161,2,0,P|340:216|304:228,1,71.9999978027344,2|0,0:0|0:0,0:0:0:0:
180,96,7485,2,0,P|232:100|268:88,1,71.9999978027344,2|0,0:0|0:0,0:0:0:0:
384,8,7809,5,6,0:0:0:0:
384,8,8134,2,0,L|332:12,3,40,2|2|2|2,0:0|0:0|0:0|0:0,0:0:0:0:
444,96,8458,2,0,L|496:100,3,40,8|8|8|8,0:0|0:0|0:0|0:0,0:0:0:0:
332,152,8782,2,0,L|280:156,3,40,8|8|8|8,0:0|0:0|0:0|0:0,0:0:0:0:
332,152,9107,5,12,0:0:0:0:
328,268,9755,2,0,B|276:272|276:272|220:252|220:252|160:256,1,160,2|2,0:0|0:0,0:0:0:0:
236,368,10242,1,0,0:0:0:0:
264,140,10404,6,0,P|260:80|232:36,1,88.000002685547,4|2,0:0|0:0,0:0:0:0:
128,184,10728,1,8,0:0:0:0:
240,320,10890,2,0,P|172:364|64:352,1,176.000005371094,2|0,0:0|0:0,0:0:0:0:
128,184,11377,1,8,0:0:0:0:
364,160,11539,6,0,B|384:152|396:132|396:132|340:92|254:93,1,176.000005371094,4|0,0:0|0:0,0:0:0:0:
240,320,12025,1,8,0:0:0:0:
172,156,12188,1,2,0:0:0:0:
32,264,12350,2,0,L|40:352,1,88.000002685547,8|2,0:0|0:0,0:0:0:0:
180,244,12674,2,0,L|172:156,1,88.000002685547,8|2,0:0|0:0,0:0:0:0:
336,224,12998,5,4,0:0:0:0:
160,236,13161,1,0,0:0:0:0:
364,328,13323,1,8,0:0:0:0:
424,124,13485,1,2,0:0:0:0:
260,304,13647,2,0,P|212:316|164:292,1,88.000002685547,8|2,0:0|0:0,0:0:0:0:
48,184,13971,1,8,0:0:0:0:
164,52,14134,6,0,P|175:138|220:213,1,176.000005371094,4|2,0:0|0:0,0:0:0:0:
340,84,14620,1,8,0:0:0:0:
232,224,14782,1,2,0:0:0:0:
350,94,14944,1,8,0:0:0:0:
360,103,15269,1,8,0:0:0:0:
370,112,15593,5,4,0:0:0:0:
124,224,15755,1,2,0:0:0:0:
148,60,15917,2,0,L|152:172,1,88.000002685547,8|2,0:0|0:0,0:0:0:0:
201,348,16242,2,0,L|205:236,1,88.000002685547,8|2,0:0|0:0,0:0:0:0:
260,92,16566,1,8,0:0:0:0:
304,260,16728,6,0,P|384:292|440:196,1,176.000005371094,4|0,0:0|0:0,0:0:0:0:
440,60,17215,1,8,0:0:0:0:
368,220,17377,1,2,0:0:0:0:
260,92,17539,2,0,L|272:204,1,88.000002685547,8|2,0:0|0:0,0:0:0:0:
212,332,17863,2,0,L|200:220,1,88.000002685547,8|2,0:0|0:0,0:0:0:0:
100,100,18188,5,4,0:0:0:0:
260,92,18350,1,2,0:0:0:0:
13,188,18512,2,0,L|114:182,1,88.000002685547,8|2,0:0|0:0,0:0:0:0:
276,168,18836,2,0,P|316:192|332:248,1,88.000002685547,8|2,0:0|0:0,0:0:0:0:
232,376,19161,1,8,0:0:0:0:
104,260,19323,6,0,P|66:182|95:102,1,176.000005371094,4|0,0:0|0:0,0:0:0:0:
232,212,19809,1,8,0:0:0:0:
292,48,19971,1,0,0:0:0:0:
412,180,20134,1,8,0:0:0:0:
384,184,20458,5,8,0:0:0:0:
352,189,20539,1,0,0:0:0:0:
322,195,20620,1,2,0:0:0:0:
291,201,20701,1,0,0:0:0:0:
261,208,20782,5,4,0:0:0:0:
296,68,20944,1,2,0:0:0:0:
184,296,21107,2,0,P|140:300|108:292,1,71.9999978027344,8|0,0:0|0:0,0:0:0:0:
28,180,21431,2,0,B|68:40,1,143.999995605469,8|8,0:0|0:0,0:0:0:0:
204,32,21917,1,0,0:0:0:0:
96,200,22080,6,0,P|60:203|26:191,1,71.9999978027344,4|0,0:0|0:0,0:0:0:0:
232,240,22404,1,8,0:0:0:0:
48,280,22566,1,0,0:0:0:0:
268,160,22728,2,0,L|288:308,1,143.999995605469,8|8,0:0|0:0,0:0:0:0:
396,208,23215,1,0,0:0:0:0:
252,144,23377,6,0,L|168:148,1,71.9999978027344,4|0,0:0|0:0,0:0:0:0:
48,200,23701,2,0,L|132:204,1,71.9999978027344,8|0,0:0|0:0,0:0:0:0:
296,228,24025,2,0,L|192:232,1,71.9999978027344,8|0,0:0|0:0,0:0:0:0:
24,284,24350,2,0,L|127:288,1,71.9999978027344,8|0,0:0|0:0,0:0:0:0:
316,216,24674,6,0,P|328:136|300:68,1,143.999995605469,4|8,0:0|0:0,0:0:0:0:
184,156,25161,1,0,0:0:0:0:
388,252,25323,2,0,P|404:212|408:164,1,71.9999978027344,8|0,0:0|0:0,0:0:0:0:
224,230,25647,2,0,L|128:238,1,71.9999978027344,8|0,0:0|0:0,0:0:0:0:
312,168,25971,5,4,0:0:0:0:
140,252,26134,1,0,0:0:0:0:
216,132,26296,2,0,L|220:40,1,71.9999978027344,8|0,0:0|0:0,0:0:0:0:
244,248,26620,2,0,P|324:272|396:228,1,143.999995605469,8|8,0:0|0:0,0:0:0:0:
320,116,27107,1,0,0:0:0:0:
232,264,27269,6,0,L|235:335,1,71.9999978027344,4|0,0:0|0:0,0:0:0:0:
108,192,27593,1,8,0:0:0:0:
116,344,27755,1,0,0:0:0:0:
40,148,27917,2,0,P|92:111|167:136,1,143.999995605469,8|8,0:0|0:0,0:0:0:0:
112,268,28404,1,0,0:0:0:0:
160,48,28566,6,0,L|166:119,1,71.9999978027344,4|0,0:0|0:0,0:0:0:0:
292,220,28890,2,0,L|288:272,3,40
356,184,29215,2,0,L|352:144,3,40
424,224,29539,2,0,L|420:263,3,40
432,150,29863,5,4,0:0:0:0:
412,348,30025,1,8,3:0:0:0:
360,116,30188,2,0,P|392:80|440:72,1,80,8|2,3:0|0:0,0:0:0:0:
312,203,30512,1,4,0:0:0:0:
128,60,30674,1,0,0:0:0:0:
305,283,30836,2,0,L|312:204,1,80,8|0,3:0|0:0,0:0:0:0:
293,171,31080,1,0,0:0:0:0:
272,136,31161,5,4,0:0:0:0:
396,316,31323,1,0,0:0:0:0:
284,56,31485,2,0,P|240:60|204:92,1,80,8|0,0:0|0:0,0:0:0:0:
120,212,31809,2,0,L|184:360,1,160,8|8,0:0|0:0,0:0:0:0:
276,228,32296,1,0,0:0:0:0:
24,232,32458,6,0,L|102:205,1,80,4|0,0:0|0:0,0:0:0:0:
252,156,32782,1,8,0:0:0:0:
252,316,32944,1,0,0:0:0:0:
328,120,33107,2,0,P|264:72|184:108,1,160,8|8,0:0|0:0,0:0:0:0:
320,204,33593,1,0,0:0:0:0:
140,24,33755,6,0,L|164:196,1,160,4|8,0:0|0:0,0:0:0:0:
52,64,34242,1,0,0:0:0:0:
216,248,34404,2,0,P|240:208|240:160,1,80,8|0,0:0|0:0,0:0:0:0:
84,144,34728,1,8,0:0:0:0:
324,128,34890,1,0,0:0:0:0:
140,288,35053,6,0,L|300:276,1,160,4|8,0:0|0:0,0:0:0:0:
400,152,35539,1,0,0:0:0:0:
180,328,35701,2,0,L|268:320,1,80,8|0,0:0|0:0,0:0:0:0:
392,168,36025,2,0,L|304:176,1,80,8|0,0:0|0:0,0:0:0:0:
432,304,36350,6,0,L|520:296,1,80,4|0,0:0|0:0,0:0:0:0:
410,138,36674,1,8,0:0:0:0:
344,284,36836,1,0,0:0:0:0:
484,104,36998,2,0,P|436:60|344:92,1,160,8|8,0:0|0:0,0:0:0:0:
420,228,37485,1,0,0:0:0:0:
268,100,37647,6,0,P|272:52|304:16,1,80,4|0,0:0|0:0,0:0:0:0:
212,168,37971,2,0,P|184:128|185:80,1,80,8|0,0:0|0:0,0:0:0:0:
232,248,38296,2,0,L|68:224,1,160,8|8,0:0|0:0,0:0:0:0:
288,192,38782,1,0,0:0:0:0:
44,296,38944,6,0,L|123:308,1,80,4|0,0:0|0:0,0:0:0:0:
172,156,39269,1,8,0:0:0:0:
312,268,39431,1,0,0:0:0:0:
232,24,39593,2,0,L|256:112,1,80,8|0,0:0|0:0,0:0:0:0:
318,288,39917,1,8,0:0:0:0:
258,116,40080,1,0,0:0:0:0:
388,332,40242,6,0,P|400:284|380:232,1,80,4|0,0:0|3:0,0:0:0:0:
240,216,40566,1,8,3:0:0:0:
440,148,40728,1,0,3:0:0:0:
464,168,40809,1,0,0:0:0:0:
485,186,40890,6,0,L|489:250,2,53.3333333333333,4|0|8,0:0|0:0|0:0,0:0:0:0:
416,128,41215,2,0,L|419:74,2,53.3333333333333,8|0|8,0:0|0:0|0:0,0:0:0:0:
328,184,41539,5,4,0:0:0:0:
340,24,41701,1,0,0:0:0:0:
240,216,41863,2,0,P|256:244|288:264,1,60.0000022888184,8|0,0:0|0:0,0:0:0:0:
204,112,42188,2,0,L|64:96,1,120.000004577637,8|8,0:0|0:0,0:0:0:0:
36,208,42674,1,0,0:0:0:0:
80,320,42836,6,0,P|128:336|208:328,1,120.000004577637,4|8,0:0|0:0,0:0:0:0:
372,168,43485,1,8,0:0:0:0:
372,168,43809,1,8,0:0:0:0:
160,52,44134,6,0,B|140:36|140:36|256:48,1,120.000004577637,4|2,0:0|0:0,0:0:0:0:
200,284,44782,1,8,0:0:0:0:
200,284,45107,1,8,0:0:0:0:
380,124,45431,6,0,P|407:159|424:244,1,120.000004577637,4|2,0:0|0:0,0:0:0:0:
436,352,45917,1,0,0:0:0:0:
328,296,46080,2,0,P|296:292|264:300,1,60.0000022888184,8|0,0:0|0:0,0:0:0:0:
160,344,46404,1,2,0:0:0:0:
300,208,46566,1,0,0:0:0:0:
184,232,46728,6,0,L|60:196,1,120.000004577637,4|2,0:0|0:0,0:0:0:0:
52,80,47215,1,0,0:0:0:0:
148,8,47377,2,0,L|212:28,1,60.0000022888184,8|0,0:0|0:0,0:0:0:0:
348,112,47701,2,0,L|284:96,1,60.0000022888184,8|0,0:0|0:0,0:0:0:0:
332,232,48025,6,0,L|460:192,1,120.000004577637,4|8,0:0|0:0,0:0:0:0:
236,312,48674,2,0,L|108:272,1,120.000004577637,8|8,0:0|0:0,0:0:0:0:
44,180,49161,1,0,0:0:0:0:
104,280,49323,6,0,P|68:296|24:296,1,60.0000022888184,4|0,0:0|0:0,0:0:0:0:
44,180,49647,1,0,0:0:0:0:
260,80,49971,1,8,0:0:0:0:
300,300,50296,1,8,0:0:0:0:
340,192,50458,1,0,0:0:0:0:
192,308,50620,6,0,L|76:272,1,120.000004577637,4|8,0:0|0:0,0:0:0:0:
56,152,51107,1,0,0:0:0:0:
50,122,51188,1,0,0:0:0:0:
44,95,51269,1,0,0:0:0:0:
144,32,51431,1,8,3:0:0:0:
152,140,51593,2,0,L|136:227,1,60.0000022888184,8|0,3:0|3:0,0:0:0:0:
260,64,51917,5,4,0:0:0:0:
220,272,52080,1,0,0:0:0:0:
352,180,52242,2,0,L|436:172,1,80,8|0,0:0|0:0,0:0:0:0:
208,280,52566,2,0,L|128:272,1,80,8|0,0:0|0:0,0:0:0:0:
344,192,52890,1,8,0:0:0:0:
232,356,53053,1,0,0:0:0:0:
228,196,53215,6,0,P|240:140|336:72,1,160,4|8,0:0|0:0,0:0:0:0:
68,280,53863,2,0,L|88:104,1,160,8|8,0:0|0:0,0:0:0:0:
212,24,54350,1,0,0:0:0:0:
304,156,54512,6,0,P|360:160|396:148,1,80,4|0,0:0|0:0,0:0:0:0:
280,276,54836,2,0,P|224:272|188:284,1,80,8|0,0:0|0:0,0:0:0:0:
344,72,55161,2,0,L|464:208,1,160,8|8,0:0|0:0,0:0:0:0:
296,148,55647,1,0,0:0:0:0:
432,60,55809,6,0,L|504:144,1,80,4|0,0:0|0:0,0:0:0:0:
288,168,56134,2,0,L|240:180,3,40
212,92,56458,2,0,L|260:104,3,40
172,164,56782,2,0,L|124:176,3,40
60,192,57107,6,0,L|68:268,1,60.0000022888184,2|0,0:0|0:0,0:0:0:0:
132,352,57431,2,0,L|140:276,1,60.0000022888184,2|0,0:0|0:0,0:0:0:0:
208,176,57755,2,0,L|220:312,1,120.000004577637,2|2,0:0|0:0,0:0:0:0:
296,204,58242,6,0,L|284:68,1,120.000004577637,2|2,0:0|0:0,0:0:0:0:
404,64,58728,1,0,0:0:0:0:
332,292,59053,2,0,P|276:300|212:256,1,120.000004577637
412,196,59701,6,0,L|428:324,1,120.000004577637,2|2,0:0|0:0,0:0:0:0:
100,196,60350,2,0,L|84:324,1,120.000004577637,2|2,0:0|0:0,0:0:0:0:
256,252,60836,1,0,0:0:0:0:
85,315,60998,5,4,0:0:0:0:
189,151,61161,1,0,3:0:0:0:
177,347,61323,1,8,3:0:0:0:
77,195,61485,1,0,3:0:0:0:
253,243,61647,1,4,3:0:0:0:
97,103,61809,1,0,3:0:0:0:
281,151,61971,1,4,3:0:0:0:
17,135,62134,6,0,P|25:55|101:15,1,160,4|2,0:0|0:0,0:0:0:0:
360,68,62620,2,0,L|263:84,1,80,8|0,0:0|0:0,0:0:0:0:
292,300,62944,1,0,0:0:0:0:
148,240,63107,1,2,0:0:0:0:
363,148,63269,1,0,0:0:0:0:
116,320,63431,6,0,P|68:276|96:172,1,160,4|2,0:0|0:0,0:0:0:0:
236,216,63917,1,8,0:0:0:0:
192,60,64080,2,0,B|228:40|268:64|268:64|304:88|352:64,1,160,2|2,0:0|0:0,0:0:0:0:
240,228,64566,1,8,0:0:0:0:
308,4,64728,6,0,L|315:180,1,160,4|2,0:0|0:0,0:0:0:0:
184,276,65215,1,8,0:0:0:0:
400,172,65377,1,2,0:0:0:0:
172,264,65539,2,0,L|168:164,1,80,8|2,0:0|0:0,0:0:0:0:
408,80,65863,1,0,0:0:0:0:
160,256,66025,6,0,L|152:88,1,160,4|0,0:0|0:0,0:0:0:0:
60,228,66512,1,8,0:0:0:0:
228,84,66674,2,0,P|208:40|164:20,1,80,2|2,0:0|0:0,0:0:0:0:
56,124,66998,1,2,0:0:0:0:
160,256,67161,1,8,0:0:0:0:
280,148,67323,6,0,B|328:152|328:152|380:128|380:128|440:132,1,160,4|2,0:0|0:0,0:0:0:0:
320,244,67809,2,0,L|212:232,1,80,8|2,0:0|0:0,0:0:0:0:
380,312,68134,2,0,L|459:303,1,80,8|2,0:0|0:0,0:0:0:0:
228,224,68458,1,8,0:0:0:0:
404,212,68620,6,0,B|504:200|504:200|496:160|456:152,1,160,4|0,0:0|0:0,0:0:0:0:
364,304,69107,1,8,0:0:0:0:
228,224,69269,1,2,0:0:0:0:
280,76,69431,2,0,P|240:64|192:68,1,80,8|2,0:0|0:0,0:0:0:0:
372,160,69755,1,8,0:0:0:0:
456,24,69917,6,0,L|504:208,1,160,4|2,0:0|0:0,0:0:0:0:
408,312,70404,1,8,0:0:0:0:
396,88,70566,1,0,0:0:0:0:
476,364,70728,2,0,P|492:316|484:272,1,80,8|2,0:0|0:0,0:0:0:0:
344,244,71053,1,0,0:0:0:0:
472,128,71215,6,0,B|496:104|496:104|432:120|368:112,1,160,4|0,0:0|0:0,0:0:0:0:
224,40,71701,1,8,0:0:0:0:
172,200,71863,1,2,0:0:0:0:
252,336,72025,1,8,3:0:0:0:
274,328,72107,1,0,3:0:0:0:
298,323,72188,1,0,3:0:0:0:
322,320,72269,1,0,3:0:0:0:
346,319,72350,1,8,3:0:0:0:
370,321,72431,1,0,3:0:0:0:
393,325,72512,6,0,B|397:245|397:245|377:153,1,160,4|2,0:0|0:0,0:0:0:0:
256,64,72998,2,0,L|276:172,1,80,8|2,0:0|0:0,0:0:0:0:
144,240,73323,2,0,L|158:161,1,80,8|2,0:0|0:0,0:0:0:0:
268,52,73647,1,8,0:0:0:0:
212,284,73809,6,0,P|156:320|64:256,1,160,4|2,0:0|0:0,0:0:0:0:
172,156,74296,1,8,0:0:0:0:
308,240,74458,1,2,0:0:0:0:
136,84,74620,2,0,P|100:116|92:160,1,80,8|2,0:0|0:0,0:0:0:0:
272,156,74944,1,0,0:0:0:0:
248,316,75107,6,0,L|424:260,1,160,4|2,0:0|0:0,0:0:0:0:
444,112,75593,1,8,0:0:0:0:
324,8,75755,1,2,0:0:0:0:
272,156,75917,2,0,P|232:192|184:208,1,80,8|2,0:0|0:0,0:0:0:0:
60,144,76242,1,0,0:0:0:0:
216,224,76404,6,0,L|236:392,1,160,4|2,0:0|0:0,0:0:0:0:
312,176,76890,2,0,P|284:136|220:120,1,80,8|2,0:0|0:0,0:0:0:0:
392,264,77215,2,0,P|420:224|420:172,1,80,8|0,0:0|3:0,0:0:0:0:
420,172,77458,1,0,3:0:0:0:
413,149,77539,1,0,3:0:0:0:
320,296,77701,1,4,0:0:0:0:
316,40,77863,5,0,0:0:0:0:
260,248,78025,1,2,0:0:0:0:
232,40,78188,1,8,0:0:0:0:
176,247,78350,1,0,0:0:0:0:
148,36,78512,2,0,L|132:128,1,80,8|2,0:0|0:0,0:0:0:0:
88,324,78836,2,0,L|104:232,1,80,8|2,0:0|0:0,0:0:0:0:
164,20,79161,5,0,0:0:0:0:
380,95,79323,1,2,0:0:0:0:
144,104,79485,1,8,0:0:0:0:
392,188,79647,1,0,0:0:0:0:
120,188,79809,1,8,0:0:0:0:
408,280,79971,1,2,0:0:0:0:
60,124,80134,2,0,P|36:160|40:216,1,80,8|2,0:0|0:0,0:0:0:0:
184,252,80458,6,0,L|256:92,1,160,4|8,0:0|0:0,0:0:0:0:
256,288,80944,1,2,0:0:0:0:
272,40,81107,2,0,P|228:40|188:72,1,80,8|0,0:0|0:0,0:0:0:0:
324,156,81431,1,8,0:0:0:0:
132,84,81593,6,0,B|124:68|128:44|128:44|88:96|100:176,1,160,4|2,0:0|0:0,0:0:0:0:
208,276,82080,2,0,L|308:260,1,80,8|0,0:0|0:0,0:0:0:0:
132,232,82404,1,8,3:0:0:0:
123,254,82485,1,0,3:0:0:0:
120,278,82566,1,0,3:0:0:0:
124,301,82647,1,0,3:0:0:0:
134,323,82728,1,8,3:0:0:0:
149,341,82809,1,0,3:0:0:0:
169,355,82890,1,8,3:0:0:0:
192,363,82971,1,0,3:0:0:0:
216,364,83053,5,4,0:0:0:0:
200,204,83215,1,2,0:0:0:0:
236,360,83377,2,0,L|286:297,1,80,8|2,0:0|0:0,0:0:0:0:
268,144,83701,1,8,0:0:0:0:
356,344,83863,1,2,0:0:0:0:
348,184,84025,1,8,0:0:0:0:
136,264,84188,6,0,P|112:216|168:120,1,160,4|2,0:0|0:0,0:0:0:0:
104,336,84674,2,0,P|60:296|40:244,1,80,8|2,0:0|0:0,0:0:0:0:
208,312,84998,1,8,0:0:0:0:
272,164,85161,1,2,0:0:0:0:
360,296,85323,1,8,0:0:0:0:
424,148,85485,1,2,0:0:0:0:
192,300,85647,6,0,B|144:240|144:240|148:144,1,160,4|8,0:0|0:0,0:0:0:0:
272,248,86134,1,2,0:0:0:0:
60,132,86296,2,0,L|56:240,1,80,8|2,0:0|0:0,0:0:0:0:
140,44,86620,1,8,0:0:0:0:
344,288,86782,6,0,P|352:228|276:164,1,160,4|2,0:0|0:0,0:0:0:0:
280,324,87269,2,0,P|316:356|372:356,1,80,8|0,0:0|0:0,0:0:0:0:
264,168,87593,1,8,0:0:0:0:
244,172,87917,1,8,0:0:0:0:
224,176,88242,5,4,0:0:0:0:
356,84,88404,1,2,0:0:0:0:
180,252,88566,2,0,P|148:220|140:168,1,80,8|2,0:0|0:0,0:0:0:0:
204,332,88890,2,0,P|144:320|76:240,1,160,8|8,0:0|0:0,0:0:0:0:
116,92,89377,6,0,L|272:60,1,160,4|0,0:0|0:0,0:0:0:0:
138,187,89863,1,8,0:0:0:0:
308,256,90025,1,2,0:0:0:0:
168,328,90188,1,8,0:0:0:0:
272,128,90350,1,2,0:0:0:0:
456,199,90512,2,0,P|481:169|489:130,1,80,8|2,0:0|0:0,0:0:0:0:
408,268,90836,6,0,B|428:284|456:284|456:284|400:300|360:344,1,160,4|8,0:0|0:0,0:0:0:0:
204,336,91323,1,2,0:0:0:0:
100,216,91485,2,0,L|128:112,1,80,8|2,0:0|0:0,0:0:0:0:
68,332,91809,1,8,0:0:0:0:
196,156,91971,6,0,P|184:96|96:64,1,160,4|2,0:0|0:0,0:0:0:0:
256,224,92458,2,0,P|280:184|280:128,1,80,8|0,0:0|0:0,0:0:0:0:
276,312,92782,1,8,0:0:0:0:
280,336,93107,1,8,0:0:0:0:
284,360,93431,5,4,0:0:0:0:
