osu file format v14

[General]
AudioFilename: audio.mp3
AudioLeadIn: 0
PreviewTime: 61323
Countdown: 0
SampleSet: Soft
StackLeniency: 0.5
Mode: 0
LetterboxInBreaks: 0
WidescreenStoryboard: 0

[Editor]
DistanceSpacing: 0.6
BeatDivisor: 4
GridSize: 4
TimelineZoom: 2.2

[Metadata]
Title:Jakusha no Sengen
TitleUnicode:弱者の宣言
Artist:HoneyWorks feat. Gero
ArtistUnicode:HoneyWorks feat. Gero
Creator:Serizawa Haruki
Version:Ky's Hard
Source:
Tags:ハニワ げろりん EGOIST メグッポイド グミ Megpoid GUMI ボーカロイド ボカロ Vocaloid ゴム Gom フェルナンドP Fernando-P シト shito チョリスP Chorisu-P ケイキ cake AtsuyuK! 中西 Nakanishi Jack J_a_c_k Irohas MugiwaraSekai Kyle_Y Elcheer -Space- Faputa Poii
BeatmapID:1393097
BeatmapSetID:643153

[Difficulty]
HPDrainRate:5
CircleSize:3
OverallDifficulty:6
ApproachRate:7
SliderMultiplier:1.5
SliderTickRate:1

[Events]
//Background and Video events
0,0,"bg.jpg",0,0
//Break Periods
2,57306,60098
//Storyboard Layer 0 (Background)
//Storyboard Layer 1 (Fail)
//Storyboard Layer 2 (Pass)
//Storyboard Layer 3 (Foreground)
//Storyboard Sound Samples

[TimingPoints]
26,324.324324324324,4,2,1,50,1,0
26,-100,4,2,1,50,0,0
7809,-100,4,2,1,50,0,0
8458,-100,4,2,1,60,0,0
8782,-100,4,2,1,70,0,0
9755,-200,4,2,1,70,0,0
10323,-200,4,2,1,5,0,0
10404,-100,4,2,1,80,0,0
20782,-100,4,2,1,50,0,0
28890,-100,4,2,1,50,0,0
29215,-100,4,2,1,60,0,0
29539,-100,4,2,1,70,0,0
41539,-117.647058823529,4,2,1,50,0,0
51917,-100,4,2,1,60,0,0
57107,-100,4,2,1,25,0,0
60998,-100,4,2,1,55,0,0
62134,-100,4,2,1,80,0,1
83053,-100,4,2,1,80,0,0

[Colours]
Combo1 : 191,255,249
Combo2 : 255,128,255
Combo3 : 0,128,255
Combo4 : 255,128,128
Combo5 : 128,128,255
Combo6 : 255,244,168

[HitObjects]
156,96,26,6,0,L|141:184,1,75,4|0,0:0|0:0,0:0:0:0:
65,215,350,2,0,L|88:293,1,75,8|0,0:0|0:0,0:0:0:0:
169,320,674,2,0,P|242:296|322:344,1,150,0|8,0:0|0:0,0:0:0:0:
389,359,1161,1,0,0:0:0:0:
444,288,1323,6,0,P|467:240|438:141,1,150,0|8,0:0|0:0,0:0:0:0:
373,95,1809,1,0,0:0:0:0:
302,151,1971,2,0,P|256:162|219:151,1,75,0|0,0:0|0:0,0:0:0:0:
174,84,2296,1,8,0:0:0:0:
101,137,2458,1,0,0:0:0:0:
26,86,2620,6,0,P|23:183|75:224,1,150,0|8,0:0|0:0,0:0:0:0:
132,265,3107,1,0,0:0:0:0:
219,244,3269,2,0,L|316:265,1,75,0|0,0:0|0:0,0:0:0:0:
339,336,3593,1,8,0:0:0:0:
422,301,3755,1,0,0:0:0:0:
399,213,3917,6,0,L|413:83,1,112.5,2|0,0:0|0:0,0:0:0:0:
401,80,4242,1,8,0:0:0:0:
225,42,4566,2,0,P|187:33|148:43,1,75,2|0,0:0|0:0,0:0:0:0:
113,121,4890,2,0,P|151:130|190:120,1,75,10|0,0:0|0:0,0:0:0:0:
275,114,5215,5,4,0:0:0:0:
256,217,5377,1,4,0:0:0:0:
256,217,5539,2,0,L|331:239,1,75,8|0,0:0|0:0,0:0:0:0:
395,297,5863,2,0,P|374:230|416:158,1,150,0|8,0:0|0:0,0:0:0:0:
471,96,6350,1,0,0:0:0:0:
392,52,6512,5,6,0:0:0:0:
300,104,6674,1,4,0:0:0:0:
300,104,6836,2,0,L|219:96,1,75,8|0,0:0|0:0,0:0:0:0:
168,26,7161,2,0,P|191:99|147:165,1,150,0|8,0:0|0:0,0:0:0:0:
102,87,7647,1,0,0:0:0:0:
54,163,7809,6,0,P|94:241|151:261,1,150,4|8,0:0|0:0,0:0:0:0:
222,314,8296,1,0,0:0:0:0:
303,351,8458,2,0,L|317:309,3,37.5,8|0|0|0,0:0|0:0|0:0|0:0,0:0:0:0:
322,292,8782,2,0,L|317:249,3,37.5,8|0|0|0,0:0|0:0|0:0|0:0,0:0:0:0:
324,231,9107,1,4,0:0:0:0:
324,231,9755,6,0,P|387:238|441:202,1,131.25,2|0,0:0|0:0,3:0:0:0:
456,174,10404,6,0,L|476:251,2,75,4|0|8,0:0|0:0|0:0,0:0:0:0:
488,86,10890,2,0,P|415:90|367:156,1,150
324,231,11377,1,8,0:0:0:0:
245,187,11539,6,0,P|237:259|286:312,1,150,4|0,0:0|0:0,0:0:0:0:
212,364,12025,2,0,P|183:339|148:328,1,75,8|0,0:0|0:0,0:0:0:0:
63,362,12350,2,0,P|66:289|112:248,1,112.5,2|0,0:0|0:0,0:0:0:0:
108,248,12674,1,8,0:0:0:0:
68,72,12998,6,0,P|32:76|-4:104,2,75,4|0|8,0:0|0:0|0:0,0:0:0:0:
151,33,13485,2,0,P|217:54|305:29,1,150,0|0,0:0|0:0,0:0:0:0:
382,20,13971,1,8,0:0:0:0:
445,84,14134,6,0,P|475:159|431:229,1,150,4|0,0:0|0:0,0:0:0:0:
385,151,14620,1,8,0:0:0:0:
318,211,14782,1,0,0:0:0:0:
318,211,14863,1,0,0:0:0:0:
318,211,14944,2,0,P|258:217|194:207,1,112.5,8|0,0:0|0:0,0:0:0:0:
184,203,15269,1,8,0:0:0:0:
50,82,15593,6,0,P|70:40|73:10,2,75,4|0|8,0:0|0:0|0:0,0:0:0:0:
65,171,16080,2,0,P|104:243|72:318,1,150
15,246,16566,1,8,0:0:0:0:
4,335,16728,6,0,P|78:328|174:347,1,150,6|0,0:0|0:0,0:0:0:0:
235,361,17215,2,0,P|278:367|322:355,1,75,8|0,0:0|0:0,0:0:0:0:
340,276,17539,2,0,P|357:196|343:154,1,112.5
342,147,17863,1,8,0:0:0:0:
188,240,18188,6,0,P|154:257|117:260,2,75,4|0|8,0:0|0:0|0:0,0:0:0:0:
130,171,18674,2,0,P|60:191|27:274,1,150,0|0,0:0|0:0,0:0:0:0:
62,338,19161,1,8,0:0:0:0:
148,362,19323,6,0,P|221:370|310:362,1,150,6|0,0:0|0:0,0:0:0:0:
384,340,19809,2,0,L|395:245,1,75,8|0,0:0|0:0,0:0:0:0:
412,176,20134,2,0,L|402:131,3,37.5,8|0|0|0,0:0|0:0|0:0|0:0,0:0:0:0:
412,119,20458,2,0,L|419:53,3,37.5,8|0|0|0,0:0|0:0|0:0|0:0,0:0:0:0:
400,65,20782,6,0,L|320:43,1,75,4|0,0:0|0:0,0:0:0:0:
266,111,21107,2,0,L|186:133,1,75,8|0,0:0|0:0,0:0:0:0:
135,62,21431,2,0,P|152:143|116:216,1,150,0|8,0:0|0:0,0:0:0:0:
74,275,21917,1,0,0:0:0:0:
154,316,22080,6,0,P|227:324|312:321,1,150,4|8,0:0|0:0,0:0:0:0:
367,258,22566,1,0,0:0:0:0:
308,190,22728,2,0,P|288:109|346:46,1,150,0|8,0:0|0:0,0:0:0:0:
375,131,23215,1,0,0:0:0:0:
437,66,23377,6,0,P|460:106|464:145,1,75,4|0,0:0|0:0,0:0:0:0:
508,212,23701,2,0,P|485:252|481:291,1,75,8|0,0:0|0:0,0:0:0:0:
512,363,24025,2,0,P|456:316|384:326,1,150,0|8,0:0|0:0,0:0:0:0:
300,366,24512,1,0,0:0:0:0:
218,329,24674,6,0,L|200:207,1,112.5,4|0,0:0|0:0,0:0:0:0:
187,199,24998,1,8,0:0:0:0:
69,62,25323,1,0,0:0:0:0:
151,27,25485,1,0,0:0:0:0:
151,27,25566,1,0,0:0:0:0:
151,27,25647,2,0,L|227:40,1,75,8|0,0:0|0:0,0:0:0:0:
313,26,25971,6,0,L|347:101,1,75,12|0,0:0|0:0,0:0:0:0:
431,116,26296,2,0,L|397:191,1,75,8|0,0:0|0:0,0:0:0:0:
461,249,26620,2,0,P|397:221|311:273,1,150,0|8,0:0|0:0,0:0:0:0:
394,311,27107,1,0,0:0:0:0:
313,350,27269,6,0,P|236:343|148:354,1,150,4|8,0:0|0:0,0:0:0:0:
112,276,27755,1,0,0:0:0:0:
48,339,27917,2,0,P|24:266|66:199,1,150,0|8,0:0|0:0,0:0:0:0:
116,136,28404,1,0,0:0:0:0:
189,187,28566,6,0,P|226:195|290:176,1,75,4|0,0:0|0:0,0:0:0:0:
315,116,28890,2,0,L|296:27,1,75,8|0,0:0|0:0,0:0:0:0:
210,27,29215,2,0,L|167:30,3,37.5,2|0|0|0,0:0|0:0|0:0|0:0,0:0:0:0:
153,41,29539,2,0,L|110:44,3,37.5,10|0|0|0,0:0|0:0|0:0|0:0,0:0:0:0:
93,39,29863,6,0,P|53:33|7:47,1,75,14|0,0:0|0:0,0:0:0:0:
57,123,30188,1,8,0:0:0:0:
57,123,30350,1,0,0:0:0:0:
5,196,30512,2,0,L|28:281,1,75,10|0,0:0|0:0,0:0:0:0:
88,331,30836,1,8,0:0:0:0:
161,279,30998,1,2,0:0:0:0:
161,279,31080,1,0,0:0:0:0:
161,279,31161,6,0,L|246:290,1,75,4|0,0:0|0:0,0:0:0:0:
317,325,31485,1,8,0:0:0:0:
317,325,31647,1,0,0:0:0:0:
385,266,31809,2,0,P|409:215|370:127,1,150,0|8,0:0|0:0,0:0:0:0:
320,203,32296,1,0,0:0:0:0:
267,129,32458,6,0,L|280:50,1,75,4|0,0:0|0:0,0:0:0:0:
196,19,32782,1,8,0:0:0:0:
196,19,32944,1,0,0:0:0:0:
122,71,33107,2,0,P|80:127|102:213,1,150,0|8,0:0|0:0,0:0:0:0:
168,151,33593,1,0,0:0:0:0:
204,233,33755,6,0,L|231:307,1,75,4|0,0:0|0:0,0:0:0:0:
311,343,34080,1,8,0:0:0:0:
311,343,34242,1,0,0:0:0:0:
346,260,34404,2,0,L|282:90,1,150,0|8,0:0|0:0,0:0:0:0:
359,58,34890,1,0,0:0:0:0:
441,94,35053,6,0,L|428:179,1,75,4|0,0:0|0:0,0:0:0:0:
495,228,35377,2,0,L|506:302,1,75,8|0,0:0|0:0,0:0:0:0:
425,340,35701,2,0,P|371:369|314:368,1,112.5,2|0,0:0|0:0,0:0:0:0:
298,365,36025,1,10,0:0:0:0:
118,348,36350,6,0,L|124:274,1,75,4|0,0:0|0:0,0:0:0:0:
66,205,36674,1,8,0:0:0:0:
66,205,36836,1,0,0:0:0:0:
97,120,36998,2,0,P|179:105|236:151,1,150,0|8,0:0|0:0,0:0:0:0:
154,191,37485,1,0,0:0:0:0:
229,239,37647,6,0,L|310:217,1,75,4|0,0:0|0:0,0:0:0:0:
372,274,37971,1,8,0:0:0:0:
372,274,38134,1,0,0:0:0:0:
308,337,38296,2,0,P|369:363|449:319,1,150,0|8,0:0|0:0,0:0:0:0:
482,250,38782,1,0,0:0:0:0:
417,186,38944,6,0,P|411:150|422:100,1,75,4|0,0:0|0:0,0:0:0:0:
467,36,39269,1,8,0:0:0:0:
467,36,39431,1,0,0:0:0:0:
377,24,39593,2,0,P|296:54|214:40,1,150,2|10,0:0|0:0,0:0:0:0:
145,31,40080,1,0,0:0:0:0:
64,72,40242,6,0,L|58:165,1,75,6|0,0:0|0:0,0:0:0:0:
52,168,40485,1,0,0:0:0:0:
44,188,40566,2,0,L|38:281,1,75,8|0,0:0|0:0,0:0:0:0:
126,293,40890,6,0,L|128:342,2,50,8|2|10,0:0|0:0|0:0,0:0:0:0:
179,234,41215,2,0,L|193:163,2,50,8|2|10,0:0|0:0|0:0,0:0:0:0:
218,303,41539,6,0,L|283:330,1,63.7500012159348,4|0,0:0|0:0,0:0:0:0:
344,279,41863,2,0,L|424:263,1,63.7500012159348,8|0,0:0|0:0,0:0:0:0:
480,304,42188,2,0,P|448:240|472:184,1,127.50000243187,2|8,0:0|0:0,0:0:0:0:
505,118,42674,1,0,0:0:0:0:
440,65,42836,6,0,B|392:57|392:57|352:65|352:65|296:57,1,127.50000243187,2|8,0:0|0:0,0:0:0:0:
152,21,43485,2,0,L|127:98,1,63.7500012159348,2|0,0:0|0:0,0:0:0:0:
53,107,43809,2,0,L|70:184,1,63.7500012159348,8|0,0:0|0:0,0:0:0:0:
21,239,44134,6,0,P|73:253|138:212,1,127.50000243187,2|8,0:0|0:0,0:0:0:0:
290,164,44782,2,0,P|352:160|398:202,1,127.50000243187,2|8,0:0|0:0,0:0:0:0:
239,251,45431,5,0,0:0:0:0:
135,122,45755,1,8,0:0:0:0:
135,122,45917,2,0,P|148:84|172:43,2,63.7500012159348,0|2|0,0:0|0:0|0:0,0:0:0:0:
66,169,46404,1,10,0:0:0:0:
36,328,46728,6,0,L|110:350,1,63.7500012159348,6|0,0:0|0:0,0:0:0:0:
178,362,47053,2,0,L|252:340,1,63.7500012159348,8|0,0:0|0:0,0:0:0:0:
314,310,47377,2,0,P|385:290|459:320,1,127.50000243187,2|8,0:0|0:0,0:0:0:0:
503,351,47863,2,0,P|474:310|481:224,1,127.50000243187,2|0,0:0|0:0,0:0:0:0:
494,153,48350,5,8,0:0:0:0:
365,78,48674,1,0,0:0:0:0:
365,228,48998,1,0,0:0:0:0:
504,153,49323,5,8,0:0:0:0:
421,10,49647,1,8,0:0:0:0:
278,93,49971,1,0,0:0:0:0:
361,236,50295,1,0,0:0:0:0:
361,236,50458,6,0,P|302:257|224:236,1,127.50000243187,6|0,0:0|0:0,0:0:0:0:
293,87,51107,2,0,P|315:81|344:73,2,31.8750006079674,2|0|0,0:0|0:0|0:0,0:0:0:0:
224,40,51431,2,0,P|193:31|134:17,1,63.7500012159348,2|8,0:0|0:0,0:0:0:0:
5,112,51917,5,6,0:0:0:0:
68,176,52080,1,0,0:0:0:0:
30,257,52242,2,0,L|45:330,1,75,8|0,0:0|0:0,0:0:0:0:
125,290,52566,2,0,L|193:343,1,75,0|0,0:0|0:0,0:0:0:0:
231,259,52890,2,0,L|304:224,1,75,8|0,0:0|0:0,0:0:0:0:
365,286,53215,6,0,P|386:216|351:153,1,150,2|8,0:0|0:0,0:0:0:0:
263,133,53701,1,0,0:0:0:0:
325,67,53863,2,0,L|392:34,1,75,0|0,0:0|0:0,0:0:0:0:
436,113,54188,2,0,L|510:106,1,75,8|0,0:0|0:0,0:0:0:0:
507,195,54512,6,0,P|471:258|492:328,1,150,4|8,0:0|0:0,0:0:0:0:
409,361,54998,1,0,0:0:0:0:
331,314,55161,2,0,L|229:287,1,75,0|0,0:0|0:0,0:0:0:0:
189,352,55485,2,0,L|100:370,1,75,8|0,0:0|0:0,0:0:0:0:
65,292,55809,6,0,P|107:236|90:150,1,150,4|8,0:0|0:0,0:0:0:0:
50,66,56296,1,0,0:0:0:0:
131,26,56458,1,8,0:0:0:0:
168,107,56620,1,0,0:0:0:0:
88,146,56782,6,0,P|42:153|3:140,2,75,8|0|4,0:0|0:0|0:0,0:0:0:0:
372,143,60998,5,6,0:0:0:0:
310,77,61161,1,8,0:0:0:0:
310,77,61323,1,0,0:0:0:0:
236,128,61485,1,0,0:0:0:0:
155,90,61647,2,0,L|117:17,1,75,0|0,0:0|0:0,0:0:0:0:
40,64,61971,1,8,0:0:0:0:
78,162,62134,6,0,P|80:232|46:302,1,150,4|0,0:0|0:0,0:0:0:0:
112,360,62620,2,0,L|197:347,1,75,8|0,0:0|0:0,0:0:0:0:
272,368,62944,1,0,0:0:0:0:
360,352,63107,2,0,P|368:304|392:264,1,75,0|8,0:0|0:0,0:0:0:0:
293,254,63431,6,0,P|313:204|310:164,1,75,2|0,0:0|0:0,0:0:0:0:
398,155,63755,2,0,P|364:111|328:95,1,75,0|8,0:0|0:0,0:0:0:0:
331,13,64080,2,0,P|282:38|259:70,1,75,0|0,0:0|0:0,0:0:0:0:
184,81,64404,2,0,P|216:123|252:140,1,75,0|8,0:0|0:0,0:0:0:0:
134,163,64728,6,0,P|77:209|73:281,1,150,4|0,0:0|0:0,0:0:0:0:
144,339,65215,2,0,P|96:370|47:372,1,75,8|0,0:0|0:0,0:0:0:0:
158,250,65539,2,0,L|241:276,1,75,0|0,0:0|0:0,0:0:0:0:
302,348,65863,1,8,0:0:0:0:
400,312,66025,6,0,L|376:233,1,75,2|0,0:0|0:0,0:0:0:0:
463,209,66350,2,0,L|402:152,1,75,0|8,0:0|0:0,0:0:0:0:
438,72,66674,2,0,L|356:81,1,75,0|0,0:0|0:0,0:0:0:0:
293,22,66998,2,0,L|274:102,1,75,0|8,0:0|0:0,0:0:0:0:
191,158,67323,6,0,P|137:166|62:103,1,150,4|0,0:0|0:0,0:0:0:0:
7,180,67809,2,0,L|29:270,1,75,8|0,0:0|0:0,0:0:0:0:
84,347,68134,1,0,0:0:0:0:
128,268,68296,1,0,0:0:0:0:
41,269,68458,1,8,0:0:0:0:
99,356,68620,6,0,P|153:358|220:280,1,150,2|0,0:0|0:0,0:0:0:0:
298,333,69107,2,0,L|384:345,1,75,8|0,0:0|0:0,0:0:0:0:
460,360,69431,1,0,0:0:0:0:
445,273,69593,1,0,0:0:0:0:
376,329,69755,1,8,0:0:0:0:
460,267,69917,6,0,P|509:204|498:138,1,150,4|2,0:0|0:0,0:0:0:0:
412,114,70404,2,0,P|409:151|420:186,1,75,8|0,0:0|0:0,0:0:0:0:
481,56,70728,2,0,P|446:32|411:24,1,75,0|0,0:0|0:0,0:0:0:0:
333,65,71053,1,8,0:0:0:0:
305,150,71215,6,0,P|250:100|271:1,1,150,4|0,0:0|0:0,0:0:0:0:
161,35,71701,2,0,L|67:48,1,75,8|0,0:0|0:0,0:0:0:0:
27,113,72025,1,8,0:0:0:0:
95,171,72188,2,0,L|64:200,3,37.5,8|0|0|0,0:0|0:0|0:0|0:0,0:0:0:0:
50,210,72512,6,0,P|134:229|150:308,1,150,4|2,0:0|0:0,0:0:0:0:
119,364,72998,2,0,P|158:372|220:349,1,75,8|2,0:0|0:0,0:0:0:0:
272,323,73323,1,0,0:0:0:0:
331,253,73485,2,0,L|421:229,1,75,0|8,0:0|0:0,0:0:0:0:
484,194,73809,6,0,P|461:164|428:146,1,75,2|0,0:0|0:0,0:0:0:0:
433,56,74134,2,0,P|396:60|364:80,1,75,0|8,0:0|0:0,0:0:0:0:
289,32,74458,2,0,P|274:66|275:103,1,75,0|0,0:0|0:0,0:0:0:0:
194,140,74782,2,0,P|216:169|249:187,1,75,0|8,0:0|0:0,0:0:0:0:
331,253,75107,6,0,P|257:231|177:269,1,150,4|0,0:0|0:0,0:0:0:0:
152,336,75593,2,0,P|115:359|54:360,1,75,8|0,0:0|0:0,0:0:0:0:
89,274,75917,2,0,P|73:238|37:187,1,75
7,130,76242,1,8,0:0:0:0:
96,113,76404,6,0,L|176:123,1,75,2|0,0:0|0:0,0:0:0:0:
187,33,76728,2,0,L|253:82,1,75,0|8,0:0|0:0,0:0:0:0:
327,33,77053,2,0,L|332:115,1,75,0|0,0:0|0:0,0:0:0:0:
409,154,77377,2,0,L|384:181,2,37.5,8|0|8,0:0|0:0|0:0,0:0:0:0:
445,72,77701,6,0,P|449:153|495:216,1,150,4|0,0:0|0:0,0:0:0:0:
440,335,78188,2,0,P|431:298|407:270,1,75,8|0,0:0|0:0,0:0:0:0:
308,262,78512,1,0,0:0:0:0:
352,338,78674,1,0,0:0:0:0:
394,262,78836,1,8,0:0:0:0:
289,272,78998,6,0,P|220:307|142:262,1,150,4|0,0:0|0:0,0:0:0:0:
219,218,79485,2,0,P|226:183|214:134,1,75,8|0,0:0|0:0,0:0:0:0:
135,181,79809,1,0,0:0:0:0:
205,122,79971,1,0,0:0:0:0:
120,90,80134,1,8,0:0:0:0:
219,123,80296,6,0,P|273:126|329:82,1,112.5,4|0,0:0|0:0,0:0:0:0:
334,77,80620,1,0,0:0:0:0:
412,122,80782,2,0,P|419:163|415:210,1,75,8|0,0:0|0:0,0:0:0:0:
324,291,81107,2,0,P|323:253|330:217,1,75,8|0,0:0|0:0,0:0:0:0:
403,335,81431,1,8,0:0:0:0:
302,296,81593,6,0,P|221:279|137:309,1,150,4|0,0:0|0:0,0:0:0:0:
91,357,82080,2,0,P|73:323|69:286,1,75,8|0,0:0|0:0,0:0:0:0:
105,204,82404,2,0,L|96:164,3,37.5,2|0|0|0,0:0|0:0|0:0|0:0,0:0:0:0:
98,144,82728,2,0,L|110:96,3,37.5,8|0|0|0,0:0|0:0|0:0|0:0,0:0:0:0:
111,85,83053,6,0,P|76:77|25:40,2,75,4|0|8,0:0|0:0|0:0,0:0:0:0:
197,61,83539,2,0,P|254:31|338:67,1,150,2|0,0:0|0:0,0:0:0:0:
352,146,84025,1,8,0:0:0:0:
266,120,84188,6,0,P|273:192|332:233,1,150,4|0,0:0|0:0,0:0:0:0:
419,209,84674,2,0,P|438:174|441:131,1,75,8|0,0:0|0:0,0:0:0:0:
510,219,84998,2,0,P|516:272|508:348,1,112.5,2|0,0:0|0:0,0:0:0:0:
491,344,85323,1,8,0:0:0:0:
311,348,85647,6,0,P|268:366|219:363,2,75,4|0|8,0:0|0:0|0:0,0:0:0:0:
383,293,86134,2,0,P|311:309|251:268,1,150,2|0,0:0|0:0,0:0:0:0:
248,178,86620,1,8,0:0:0:0:
283,94,86782,6,0,B|313:102|331:136|331:136|327:221,1,150,4|0,0:0|0:0,0:0:0:0:
414,195,87269,1,8,0:0:0:0:
495,157,87431,1,2,0:0:0:0:
495,157,87512,1,0,0:0:0:0:
495,157,87593,2,0,P|507:97|503:33,1,112.5,10|0,0:0|0:0,0:0:0:0:
501,22,87917,1,8,0:0:0:0:
321,11,88242,6,0,P|285:2|249:8,2,75,4|0|8,0:0|0:0|0:0,0:0:0:0:
283,94,88728,2,0,P|214:95|157:26,1,150,2|2,0:0|0:0,0:0:0:0:
73,18,89215,1,8,0:0:0:0:
24,93,89377,6,0,P|17:152|24:254,1,150,4|0,0:0|0:0,0:0:0:0:
47,327,89863,2,0,P|84:334|121:327,1,75,8|0,0:0|0:0,0:0:0:0:
208,336,90188,2,0,P|184:268|128:240,1,112.5,2|0,0:0|0:0,0:0:0:0:
132,240,90512,1,8,0:0:0:0:
280,140,90836,6,0,P|317:144|351:168,2,75,4|0|8,0:0|0:0|0:0,0:0:0:0:
290,51,91323,2,0,P|364:67|423:112,1,150,2|0,0:0|0:0,0:0:0:0:
428,202,91809,1,8,0:0:0:0:
499,257,91971,6,0,P|424:252|349:260,1,150,4|0,0:0|0:0,0:0:0:0:
284,321,92458,1,8,0:0:0:0:
284,321,92620,1,2,0:0:0:0:
209,236,92782,2,0,P|203:188|212:121,1,112.5,8|0,0:0|0:0,0:0:0:0:
194,108,93107,2,0,P|146:114|79:105,1,112.5,8|0,0:0|0:0,0:0:0:0:
62,95,93431,5,6,0:0:0:0:
