osu file format v14

[General]
AudioFilename: audio.mp3
AudioLeadIn: 0
PreviewTime: 61323
Countdown: 0
SampleSet: Soft
StackLeniency: 0.5
Mode: 0
LetterboxInBreaks: 0
WidescreenStoryboard: 0

[Editor]
Bookmarks: 10404,20782,31161,41539,51917,57107,62134,83053
DistanceSpacing: 0.8
BeatDivisor: 2
GridSize: 16
TimelineZoom: 2.4

[Metadata]
Title:Jakusha no Sengen
TitleUnicode:弱者の宣言
Artist:HoneyWorks feat. Gero
ArtistUnicode:HoneyWorks feat. Gero
Creator:Serizawa Haruki
Version:Irohas' Normal
Source:
Tags:ハニワ げろりん EGOIST メグッポイド グミ Megpoid GUMI ボーカロイド ボカロ Vocaloid ゴム Gom フェルナンドP Fernando-P シト shito チョリスP Chorisu-P ケイキ cake AtsuyuK! 中西 Nakanishi Jack J_a_c_k Irohas MugiwaraSekai Kyle_Y Elcheer -Space- Faputa Poii
BeatmapID:1508350
BeatmapSetID:643153

[Difficulty]
HPDrainRate:3
CircleSize:3.5
OverallDifficulty:4
ApproachRate:5
SliderMultiplier:1.1
SliderTickRate:1

[Events]
//Background and Video events
0,0,"bg.jpg",0,0
//Break Periods
2,57307,59798
//Storyboard Layer 0 (Background)
//Storyboard Layer 1 (Fail)
//Storyboard Layer 2 (Pass)
//Storyboard Layer 3 (Foreground)
//Storyboard Sound Samples

[TimingPoints]
26,324.324324324324,4,2,1,60,1,0
62134,-100,4,2,3,90,0,1
62458,-100,4,2,1,70,0,1
83053,-100,4,2,1,60,0,0

[Colours]
Combo1 : 191,255,249
Combo2 : 255,128,255
Combo3 : 0,128,255
Combo4 : 255,128,128
Combo5 : 128,128,255
Combo6 : 255,244,168

[HitObjects]
0,208,26,6,0,P|11:276|21:342,1,110,4|2,0:0|0:0,0:0:0:0:
98,350,674,2,0,P|106:295|115:241,1,110,2|2,0:0|0:0,0:0:0:0:
179,180,1323,2,0,P|225:162|289:191,1,110,2|2,0:0|0:0,0:0:0:0:
345,240,1971,1,2,0:0:0:0:
420,194,2296,2,0,P|459:203|490:212,1,55,2|0,0:0|0:0,0:0:0:0:
512,232,2620,6,0,P|503:177|494:123,1,110,2|2,0:0|0:0,0:0:0:0:
420,76,3269,2,0,P|368:82|306:91,1,110,2|2,0:0|0:0,0:0:0:0:
274,115,3755,1,0,0:0:0:0:
274,115,3917,2,0,P|219:107|164:100,1,110,2|2,0:0|0:0,0:0:0:0:
83,135,4566,1,2,0:0:0:0:
129,209,4890,1,2,0:0:0:0:
83,284,5215,6,8,P|92:322|103:362,2,55,8|8|2,0:0|0:0|0:0,0:0:0:0:
129,209,5863,2,0,P|175:191|239:220,1,110,2|2,0:0|0:0,0:0:0:0:
285,279,6512,2,8,P|276:317|265:357,2,55,8|8|2,0:0|0:0|0:0,0:0:0:0:
349,219,7161,2,0,P|340:164|331:110,1,110,2|2,0:0|0:0,0:0:0:0:
254,67,7809,6,0,P|245:121|236:175,1,110,4|8,0:0|0:0,0:0:0:0:
185,247,8458,2,8,P|157:242|130:239,1,55
99,208,8782,2,8,P|71:211|44:215,1,55
6,238,9107,1,4,0:0:0:0:
17,232,10404,6,0,P|8:177|0:123,1,110,4|8,0:0|0:0,0:0:0:0:
60,59,11053,2,8,P|69:21|80:-19,2,55,2|2|8,0:0|0:0|0:0,0:0:0:0:
95,84,11539,2,0,P|149:76|204:69,1,110,6|2,0:0|0:0,0:0:0:0:
243,50,12025,1,8,0:0:0:0:
312,103,12350,2,0,P|339:106|366:112,2,55,2|2|8,0:0|0:0|0:0,0:0:0:0:
231,139,12998,6,0,P|211:186|240:244,1,110,6|8,0:0|0:0,0:0:0:0:
305,286,13647,2,0,P|301:317|294:356,2,55,2|2|8,0:0|0:0|0:0,0:0:0:0:
341,261,14134,2,0,P|395:253|450:246,1,110,6|2,0:0|0:0,0:0:0:0:
487,223,14620,1,8,0:0:0:0:
433,153,14944,1,6,0:0:0:0:
492,87,15269,1,12,0:0:0:0:
425,29,15593,6,0,P|373:13|322:35,1,110,6|8,0:0|0:0,0:0:0:0:
254,88,16242,2,0,P|263:127|273:166,2,55,2|2|8,0:0|0:0|0:0,0:0:0:0:
222,57,16728,2,0,P|167:63|113:71,1,110,6|2,0:0|0:0,0:0:0:0:
69,64,17215,1,8,0:0:0:0:
0,118,17539,2,0,P|7:151|17:189,1,55,2|2,0:0|0:0,0:0:0:0:
28,212,17863,1,8,0:0:0:0:
114,194,18188,6,0,P|105:249|97:303,1,110,4|8,0:0|0:0,0:0:0:0:
178,336,18836,2,0,P|184:303|193:257,2,55,2|2|8,0:0|0:0|0:0,0:0:0:0:
210,366,19323,2,0,P|262:382|313:360,1,110,6|2,0:0|0:0,0:0:0:0:
331,322,19809,1,8,0:0:0:0:
411,357,20134,1,8,0:0:0:0:
487,314,20458,2,8,P|481:276|477:249,1,55
449,226,20782,6,0,P|457:171|466:117,1,110,4|2,0:0|0:0,0:0:0:0:
403,55,21431,1,2,0:0:0:0:
325,96,21755,1,2,0:0:0:0:
250,48,22080,2,0,P|213:52|127:64,1,110,2|2,0:0|0:0,0:0:0:0:
66,15,22728,1,2,0:0:0:0:
11,84,23053,2,0,P|18:117|28:155,1,55,2|0,0:0|0:0,0:0:0:0:
58,164,23377,6,0,P|51:197|31:292,1,110,2|2,0:0|0:0,0:0:0:0:
59,356,24025,2,0,P|110:375|168:349,1,110,2|2,0:0|0:0,0:0:0:0:
180,317,24512,1,0,0:0:0:0:
180,317,24674,2,0,P|231:298|289:324,1,110,2|2,0:0|0:0,0:0:0:0:
342,380,25323,1,2,0:0:0:0:
416,333,25647,1,2,0:0:0:0:
489,384,25971,6,0,P|500:330|511:276,1,110,4|2,0:0|0:0,0:0:0:0:
448,214,26620,1,2,0:0:0:0:
493,139,26944,1,2,0:0:0:0:
440,68,27269,2,0,P|395:53|338:78,1,110,2|2,0:0|0:0,0:0:0:0:
276,137,27917,2,0,P|270:191|264:246,1,110,2|2,0:0|0:0,0:0:0:0:
180,274,28566,6,0,P|174:219|168:164,2,110,6|2|0,0:0|0:0|0:0,0:0:0:0:
121,339,29539,1,2,0:0:0:0:
199,378,29863,2,0,P|235:372|275:367,1,55,8|2,0:0|0:0,0:0:0:0:
292,348,30188,1,2,0:0:0:0:
292,348,30350,2,0,P|326:350|414:358,1,110,8|2,0:3|0:0,0:0:0:0:
445,350,30836,2,8,L|431:284,1,55
408,259,31161,6,8,P|416:207|426:137,1,110,4|8,0:0|0:0,0:0:0:0:
480,82,31809,2,0,P|472:46|465:15,2,55,2|2|8,0:0|0:0|0:0,0:0:0:0:
424,150,32458,2,0,P|379:167|317:141,1,110,6|8,0:0|0:0,0:0:0:0:
245,103,33107,2,0,P|253:67|260:36,1,55,2|2,0:0|0:0,0:0:0:0:
237,9,33431,1,8,0:0:0:0:
160,53,33755,6,0,P|122:49|46:41,1,110,6|10,0:0|0:0,0:0:0:0:
73,126,34404,2,0,P|105:130|145:135,2,55,2|2|8,0:0|0:0|0:0,0:0:0:0:
0,172,35053,2,0,P|7:212|12:248,1,55,2|2,0:0|0:0,0:0:0:0:
48,245,35377,2,8,P|40:299|31:353,1,110,8|2,0:0|0:0,0:0:0:0:
118,384,36025,1,8,0:0:0:0:
199,349,36350,6,0,P|244:332|306:358,1,110,6|8,0:0|0:0,0:0:0:0:
375,306,36998,2,0,P|367:270|360:239,2,55,2|2|8,0:0|0:0|0:0,0:0:0:0:
458,333,37647,2,8,P|466:281|476:211,1,110,4|8,0:0|0:0,0:0:0:0:
430,147,38296,2,0,P|396:151|359:157,1,55,2|2,0:0|0:0,0:0:0:0:
340,181,38620,1,8,0:0:0:0:
266,132,38944,6,0,P|228:128|152:120,1,110,6|10,0:0|0:0,0:0:0:0:
86,67,39593,2,0,P|56:63|21:72,2,55,2|2|8,0:0|0:0|0:0,0:0:0:0:
156,120,40242,2,0,P|150:157|143:190,1,55,6|8,0:0|0:0,0:0:0:0:
123,211,40566,2,8,P|130:265|139:319,1,110,2|10,0:0|0:0,0:0:0:0:
211,370,41215,1,8,0:3:0:0:
274,308,41539,6,0,B|391:280|363:378|482:349,1,220,6|8,0:0|0:0,0:0:0:0:
511,267,42512,2,0,P|504:239|496:203,1,55,2|2,0:3|0:0,0:0:0:0:
483,172,42836,2,0,P|433:154|380:176,1,110,2|2,0:3|0:0,0:0:0:0:
322,239,43485,2,0,P|272:257|219:235,1,110,8|2,0:0|0:3,0:0:0:0:
152,181,44134,6,0,B|128:243|128:243|162:318|162:318|137:385,1,220,0|8,0:0|0:0,0:0:0:0:
225,378,45107,2,0,P|270:368|303:361,1,55,2|2,0:3|0:0,0:0:0:0:
320,352,45431,2,0,P|346:357|373:363,1,55,2|8,0:3|0:0,0:0:0:0:
416,352,45755,1,6,0:0:0:0:
474,285,46080,2,0,P|464:236|451:156,1,110,8|2,0:0|0:3,0:0:0:0:
499,101,46728,6,0,P|449:145|344:61,1,220,4|8,0:0|0:0,0:0:0:0:
271,16,47701,2,0,P|257:49|258:85,1,55,2|2,0:3|0:0,0:0:0:0:
261,111,48025,2,0,P|218:106|136:96,1,110,2|6,0:3|0:0,0:0:0:0:
74,140,48674,1,10,0:0:0:0:
109,220,48998,1,2,0:3:0:0:
61,293,49323,6,0,P|113:310|164:289,1,110,2|2,0:0|0:3,0:0:0:0:
219,224,49971,2,0,P|269:206|322:228,1,110,8|2,0:0|0:3,0:0:0:0:
344,262,50458,2,0,P|334:316|325:379,1,110,2|10,0:0|0:0,0:0:0:0:
238,373,51107,1,2,0:0:0:0:
238,373,51269,2,0,P|211:370|168:365,1,55,12|2,0:0|0:0,0:0:0:0:
144,346,51593,2,0,P|116:349|89:352,1,55,8|2,0:0|0:0,0:0:0:0:
46,359,51917,6,0,P|37:304|28:250,1,110,6|2,0:0|0:0,0:0:0:0:
80,179,52566,1,2,0:0:0:0:
158,219,52890,1,2,0:0:0:0:
234,174,53215,2,0,P|242:119|251:65,1,110,2|2,0:0|0:0,0:0:0:0:
337,46,53863,2,0,P|346:100|354:154,1,110,2|2,0:0|0:0,0:0:0:0:
420,212,54512,5,2,0:0:0:0:
376,288,54836,1,2,0:0:0:0:
425,361,55161,2,0,P|375:379|322:357,1,110,2|2,0:0|0:3,0:0:0:0:
263,295,55809,2,0,P|213:277|160:299,1,110,2|2,0:0|0:0,0:0:0:0:
83,336,56458,2,8,P|78:299|75:271,1,55
45,249,56782,2,8,P|50:212|53:184,1,55
68,152,57107,5,6,0:0:0:0:
425,40,60998,6,8,P|418:83|413:109,1,55
386,127,61323,2,0,P|393:170|398:196,1,55,2|8,0:0|0:0,0:0:0:0:
427,210,61647,2,0,P|421:251|410:329,1,110,2|8,0:0|0:0,0:0:0:0:
385,354,62134,6,0,P|334:364|281:330,1,110,4|0,0:1|0:0,0:0:0:0:
265,297,62620,1,8,0:0:0:0:
183,330,62944,2,0,P|187:360|193:392,2,55,2|2|8,0:0|0:0|0:0,0:0:0:0:
150,300,63431,2,0,P|103:302|36:306,2,110,6|2|2,0:0|0:3|0:0,0:0:0:0:
202,229,64404,2,0,P|194:198|185:156,1,55,2|8,0:0|0:0,0:0:0:0:
207,135,64728,6,0,P|258:116|316:142,1,110,6|2,0:0|0:0,0:0:0:0:
332,168,65215,1,8,0:0:0:0:
402,115,65539,2,0,P|394:84|385:42,2,55,2|2|8,0:0|0:0|0:0,0:0:0:0:
430,148,66025,2,0,P|424:189|413:267,1,110,2|2,0:0|0:0,0:0:0:0:
352,319,66674,2,0,P|299:313|221:307,1,110,2|2,0:0|0:0,0:0:0:0:
202,289,67161,1,8,0:0:0:0:
202,289,67323,6,0,P|147:293|92:299,1,110,6|2,0:0|0:0,0:0:0:0:
51,283,67809,1,8,0:0:0:0:
77,198,68134,2,0,P|69:167|60:125,1,55,2|2,0:0|0:0,0:0:0:0:
84,105,68458,1,8,0:0:0:0:
84,105,68620,2,0,P|139:109|194:115,1,110,6|2,0:0|0:0,0:0:0:0:
231,137,69107,1,8,0:0:0:0:
308,96,69431,2,0,P|301:55|296:26,2,55,2|2|8,0:0|0:0|0:0,0:0:0:0:
342,123,69917,6,0,P|336:164|325:242,1,110,4|2,0:0|0:0,0:0:0:0:
342,273,70404,1,8,0:0:0:0:
417,318,70728,2,0,P|457:311|488:307,2,55,2|2|8,0:0|0:0|0:0,0:0:0:0:
392,355,71215,2,0,P|342:372|287:353,1,110,6|2,0:0|0:0,0:0:0:0:
259,322,71701,1,12,0:0:0:0:
181,363,72025,2,0,P|153:359|126:356,1,55,12|2,0:0|0:0,0:0:0:0:
82,356,72350,1,8,0:0:0:0:
82,356,72512,6,0,B|60:309|60:309|83:251,1,110,4|2,0:0|0:0,0:0:0:0:
115,226,72998,1,12,0:0:0:0:
191,181,73323,2,0,P|184:140|179:111,2,55,2|2|8,0:0|0:0|0:0,0:0:0:0:
222,211,73809,2,0,P|216:252|205:330,2,110,2|2|2,0:3|0:0|0:0,0:0:0:0:
290,155,74782,2,0,P|329:164|360:173,1,55,2|8,0:0|0:0,0:0:0:0:
382,193,75107,6,0,P|373:138|364:84,1,110,4|2,0:0|0:0,0:0:0:0:
377,42,75593,1,8,0:0:0:0:
292,18,75917,2,0,P|264:22|237:25,1,55,2|2,0:0|0:0,0:0:0:0:
199,47,76242,1,8,0:0:0:0:
199,47,76404,2,0,P|144:41|89:37,1,110,2|2,0:0|0:3,0:0:0:0:
15,84,77053,2,0,P|24:138|32:192,1,110,2|2,0:3|0:3,0:0:0:0:
72,211,77539,1,8,0:0:0:0:
72,211,77701,6,0,P|62:265|54:319,1,110,6|2,0:0|0:3,0:0:0:0:
73,359,78188,1,8,0:0:0:0:
148,313,78512,2,0,P|152:285|155:258,2,55,2|2|8,0:0|0:0|0:0,0:0:0:0:
178,344,78998,2,0,P|232:338|287:334,1,110,2|2,0:0|0:3,0:0:0:0:
330,343,79485,1,8,0:0:0:0:
402,293,79809,2,0,P|429:297|456:301,2,55,2|2|8,0:0|0:0|0:0,0:0:0:0:
368,264,80296,6,0,P|374:214|384:150,1,110,4|2,0:0|0:0,0:0:0:0:
414,123,80782,1,8,0:0:0:0:
336,80,81107,1,8,0:0:0:0:
259,123,81431,1,8,0:0:0:0:
259,123,81593,2,0,P|267:177|274:231,1,110,4|2,0:0|0:0,0:0:0:0:
252,270,82080,1,8,0:0:0:0:
329,312,82404,2,0,P|367:307|399:304,1,55,8|8,0:0|0:0,0:0:0:0:
415,275,82728,2,0,P|442:277|469:281,1,55,2|2,0:0|0:0,0:0:0:0:
495,245,83053,6,0,P|504:190|512:136,1,110,4|8,0:0|0:0,0:0:0:0:
452,72,83701,2,8,P|443:34|432:-6,2,55,2|2|8,0:0|0:0|0:0,0:0:0:0:
417,97,84188,2,0,P|363:89|308:82,1,110,6|2,0:0|0:0,0:0:0:0:
269,63,84674,1,8,0:0:0:0:
200,116,84998,2,0,P|173:119|146:125,2,55,2|2|8,0:0|0:0|0:0,0:0:0:0:
281,152,85647,6,0,P|301:199|272:257,1,110,6|8,0:0|0:0,0:0:0:0:
207,299,86296,2,0,P|211:330|218:369,2,55,2|2|8,0:0|0:0|0:0,0:0:0:0:
171,274,86782,2,0,P|117:266|62:259,1,110,6|2,0:0|0:0,0:0:0:0:
25,236,87269,1,8,0:0:0:0:
79,166,87593,5,6,0:0:0:0:
20,100,87917,1,12,0:0:0:0:
87,42,88242,6,0,P|139:26|190:48,1,110,6|8,0:0|0:0,0:0:0:0:
258,99,88890,2,0,P|249:138|239:177,2,55,2|2|8,0:0|0:0|0:0,0:0:0:0:
290,68,89377,2,0,P|345:74|399:82,1,110,6|2,0:0|0:0,0:0:0:0:
443,75,89863,1,8,0:0:0:0:
512,129,90188,2,0,P|505:162|495:200,1,55,2|2,0:0|0:0,0:0:0:0:
487,224,90512,1,8,0:0:0:0:
402,199,90836,6,0,P|411:254|419:308,1,110,4|8,0:0|0:0,0:0:0:0:
331,322,91485,2,0,P|325:289|316:243,2,55,2|2|8,0:0|0:0|0:0,0:0:0:0:
308,359,91971,2,0,P|256:375|205:353,1,110,6|2,0:0|0:0,0:0:0:0:
187,315,92458,1,8,0:0:0:0:
107,350,92782,1,8,0:0:0:0:
35,298,93107,1,2,0:0:0:0:
53,212,93431,5,6,0:0:0:0:
