osu file format v14

[General]
AudioFilename: audio.mp3
AudioLeadIn: 0
PreviewTime: 61323
Countdown: 0
SampleSet: Soft
StackLeniency: 0.5
Mode: 0
LetterboxInBreaks: 0
WidescreenStoryboard: 0

[Editor]
Bookmarks: 10404,20782,41539,51917,62134,83053
DistanceSpacing: 2.1
BeatDivisor: 4
GridSize: 4
TimelineZoom: 1.7

[Metadata]
Title:Jakusha no Sengen
TitleUnicode:弱者の宣言
Artist:HoneyWorks feat. Gero
ArtistUnicode:HoneyWorks feat. Gero
Creator:Serizawa Haruki
Version:Desperation
Source:
Tags:ハニワ げろりん EGOIST メグッポイド グミ Megpoid GUMI ボーカロイド ボカロ Vocaloid ゴム Gom フェルナンドP Fernando-P シト shito チョリスP Chorisu-P ケイキ cake AtsuyuK! 中西 Nakanishi Jack J_a_c_k Irohas MugiwaraSekai Kyle_Y Elcheer -Space- Faputa Poii
BeatmapID:1454357
BeatmapSetID:643153

[Difficulty]
HPDrainRate:6.2
CircleSize:3.7
OverallDifficulty:8.7
ApproachRate:9.2
SliderMultiplier:1.4
SliderTickRate:1

[Events]
//Background and Video events
0,0,"bg.jpg",0,0
//Break Periods
//Storyboard Layer 0 (Background)
//Storyboard Layer 1 (Fail)
//Storyboard Layer 2 (Pass)
//Storyboard Layer 3 (Foreground)
//Storyboard Sound Samples

[TimingPoints]
26,324.324324324324,4,2,1,60,1,0
10404,-100,4,2,1,70,0,0
20782,-100,4,2,1,60,0,0
41539,-133.333333333333,4,2,1,50,0,0
51917,-100,4,2,1,70,0,0
57755,-100,4,2,1,30,0,0
60998,-100,4,2,1,70,0,0
62134,-100,4,2,1,80,0,1
83053,-100,4,2,1,70,0,0

[Colours]
Combo1 : 191,255,249
Combo2 : 255,128,255
Combo3 : 0,128,255
Combo4 : 255,128,128
Combo5 : 128,128,255
Combo6 : 255,244,168

[HitObjects]
1,158,26,6,0,L|73:172,1,70,6|0,0:0|0:0,0:0:0:0:
187,208,350,1,2,0:0:0:0:
98,292,512,1,0,0:0:0:0:
236,316,674,2,0,L|373:342,1,140,2|2,0:0|0:0,0:0:0:0:
491,305,1161,1,0,0:0:0:0:
436,176,1323,6,0,L|297:149,1,140,2|2,0:0|0:0,0:0:0:0:
178,127,1809,1,0,0:0:0:0:
113,252,1971,2,0,P|132:325|187:356,1,140,2|2,0:0|0:0,0:0:0:0:
306,336,2458,1,0,0:0:0:0:
316,196,2620,6,0,B|316:100|316:100|340:60,1,140,2|2,0:0|0:0,0:0:0:0:
440,156,3107,1,0,0:0:0:0:
384,280,3269,2,0,L|244:292,1,140,2|2,0:0|0:0,0:0:0:0:
168,196,3755,1,0,0:0:0:0:
241,76,3917,6,0,P|247:110|239:143,1,70,2|0,0:0|0:0,0:0:0:0:
98,144,4242,2,0,P|90:110|96:76,1,70,2|0,0:0|0:0,0:0:0:0:
168,196,4566,2,0,P|160:264|101:303,1,140,2|2,0:0|0:0,0:0:0:0:
320,232,5215,5,8,0:0:0:0:
88,220,5377,1,8,0:0:0:0:
188,80,5539,2,0,L|200:148,1,70,2|0,0:0|0:0,0:0:0:0:
236,320,5863,2,0,L|248:252,1,70,2|0,0:0|0:0,0:0:0:0:
288,80,6188,2,0,L|300:148,1,70,2|0,0:0|0:0,0:0:0:0:
336,320,6512,5,8,0:0:0:0:
105,340,6674,1,8,0:0:0:0:
212,227,6836,2,0,L|205:298,1,70,2|0,0:0|0:0,0:0:0:0:
300,148,7161,2,0,L|306:219,1,70,2|0,0:0|0:0,0:0:0:0:
396,67,7485,2,0,L|389:138,1,70,2|0,0:0|0:0,0:0:0:0:
372,308,7809,6,0,P|327:352|282:307,1,140,6|2,0:0|0:0,0:0:0:0:
263,175,8296,2,0,L|259:139,1,35,2|2,0:0|0:0,0:0:0:0:
221,31,8458,2,0,L|218:67,1,35,8|8,0:0|0:0,0:0:0:0:
185,185,8620,2,0,L|181:149,1,35,8|8,0:0|0:0,0:0:0:0:
143,21,8782,2,0,L|139:57,1,35,8|8,0:0|0:0,0:0:0:0:
108,195,8944,2,0,L|104:159,1,35,8|8,0:0|0:0,0:0:0:0:
65,11,9107,5,12,0:0:0:0:
133,266,9755,2,0,B|213:202|213:202|327:212,1,210,2|0,0:0|0:0,0:0:0:0:
476,230,10404,5,6,0:0:0:0:
314,97,10566,1,0,0:0:0:0:
297,306,10728,1,8,0:0:0:0:
388,117,10890,2,0,P|359:35|304:21,1,140,0|2,0:0|0:0,0:0:0:0:
174,26,11377,1,8,0:0:0:0:
152,235,11539,6,0,B|168:283|168:283|244:342,1,140,6|2,0:0|0:0,0:0:0:0:
397,200,12025,2,0,P|371:176|338:165,1,70,8|0,0:0|0:0,0:0:0:0:
130,134,12350,1,2,0:0:0:0:
291,268,12512,1,2,0:0:0:0:
221,70,12674,2,0,L|197:3,1,70,8|0,0:0|0:0,0:0:0:0:
339,165,12998,5,6,0:0:0:0:
141,89,13161,1,0,0:0:0:0:
344,37,13323,1,8,0:0:0:0:
228,212,13485,2,0,B|151:258|151:258|100:263,1,140,0|2,0:0|0:0,0:0:0:0:
29,143,13971,1,8,0:0:0:0:
204,25,14134,6,0,P|274:19|321:78,1,140,6|2,0:0|0:0,0:0:0:0:
349,274,14620,1,8,0:0:0:0:
252,100,14782,1,8,0:0:0:0:
252,100,14863,1,8,0:0:0:0:
252,100,14944,1,8,0:0:0:0:
73,207,15107,1,8,0:0:0:0:
73,207,15188,1,8,0:0:0:0:
73,207,15269,2,0,P|65:173|72:139,1,70,8|0,0:0|0:0,0:0:0:0:
229,0,15593,5,6,0:0:0:0:
190,206,15755,1,0,0:0:0:0:
71,33,15917,1,8,0:0:0:0:
247,150,16080,2,0,P|269:220|231:275,1,140,0|2,0:0|0:0,0:0:0:0:
117,347,16566,1,8,0:0:0:0:
67,143,16728,6,0,B|56:95|56:95|81:7,1,140,6|2,0:0|0:0,0:0:0:0:
287,52,17215,2,0,L|303:123,1,70,8|0,0:0|0:0,0:0:0:0:
354,323,17539,1,2,0:0:0:0:
218,163,17701,1,2,0:0:0:0:
423,208,17863,2,0,L|498:226,1,70,8|0,0:0|0:0,0:0:0:0:
411,29,18188,5,6,0:0:0:0:
331,223,18350,1,0,0:0:0:0:
504,103,18512,1,8,0:0:0:0:
322,0,18674,2,0,B|271:9|271:9|196:63,1,140,0|2,0:0|0:0,0:0:0:0:
85,143,19161,1,8,0:0:0:0:
181,319,19323,6,0,P|248:348|304:314,1,140,6|2,0:0|0:0,0:0:0:0:
384,177,19809,2,0,L|384:143,1,35,8|2,0:0|0:0,0:0:0:0:
302,48,19971,2,0,L|302:96,1,35,2|2,0:0|0:0,0:0:0:0:
302,209,20134,2,0,L|302:175,1,35,8|2,0:0|0:0,0:0:0:0:
220,80,20296,2,0,L|220:128,1,35,2|2,0:0|0:0,0:0:0:0:
220,220,20458,1,8,0:0:0:0:
225,230,20539,1,8,0:0:0:0:
230,241,20620,1,8,0:0:0:0:
235,251,20701,1,8,0:0:0:0:
242,261,20782,6,0,P|269:280|303:288,1,70,6|0,0:0|0:0,0:0:0:0:
434,242,21107,1,2,0:0:0:0:
302,209,21269,1,0,0:0:0:0:
389,307,21431,2,0,P|491:296|512:259,1,140,2|2,0:0|0:0,0:0:0:0:
512,136,21917,1,0,0:0:0:0:
391,72,22080,6,0,B|368:109|368:109|368:205,1,140,2|2,0:0|0:0,0:0:0:0:
512,136,22566,1,0,0:0:0:0:
456,22,22728,2,0,P|396:-10|328:20,1,140,2|2,0:0|0:0,0:0:0:0:
281,142,23215,1,0,0:0:0:0:
200,32,23377,6,0,B|241:8|241:8|336:14,1,140,2|2,0:0|0:0,0:0:0:0:
456,22,23863,1,0,0:0:0:0:
400,136,24025,2,0,B|380:179|380:179|393:270,1,140,2|2,0:0|0:0,0:0:0:0:
512,210,24512,1,0,0:0:0:0:
400,136,24674,6,0,L|328:142,1,70,2|0,0:0|0:0,0:0:0:0:
233,236,24998,2,0,L|304:242,1,70,2|0,0:0|0:0,0:0:0:0:
400,136,25323,2,0,P|395:65|345:25,1,140,2|2,0:0|0:0,0:0:0:0:
138,157,25971,6,0,L|207:184,1,70,6|0,0:0|0:0,0:0:0:0:
353,244,26296,1,2,0:0:0:0:
260,113,26458,1,0,0:0:0:0:
278,273,26620,2,0,P|346:323|409:301,1,140,2|2,0:0|0:0,0:0:0:0:
482,175,27107,1,0,0:0:0:0:
329,125,27269,6,0,L|190:112,1,140,2|2,0:0|0:0,0:0:0:0:
56,201,27755,1,0,0:0:0:0:
203,266,27917,2,0,P|215:233|209:197,1,70,2|0,0:0|0:0,0:0:0:0:
183,40,28242,1,2,0:0:0:0:
61,145,28404,1,0,0:0:0:0:
221,164,28566,6,0,L|296:172,1,70,2|0,0:0|0:0,0:0:0:0:
451,187,28890,1,2,0:0:0:0:
356,318,29053,1,0,0:0:0:0:
290,171,29215,2,0,P|279:138|285:103,1,70,2|0,0:0|0:0,0:0:0:0:
421,17,29539,1,2,0:0:0:0:
402,177,29701,1,0,0:0:0:0:
321,30,29863,5,8,0:0:0:0:
477,147,30025,1,8,0:0:0:0:
259,157,30188,1,8,0:0:0:0:
442,286,30350,1,8,0:0:0:0:
321,30,30512,1,8,0:0:0:0:
360,306,30674,1,8,0:0:0:0:
439,45,30836,1,8,0:0:0:0:
261,271,30998,1,8,0:0:0:0:
261,271,31080,1,8,0:0:0:0:
261,271,31161,6,0,P|233:292|198:298,1,70,6|0,0:0|0:0,0:0:0:0:
84,196,31485,2,0,L|84:122,1,70,8|0,0:0|0:0,0:0:0:0:
232,84,31809,1,2,0:0:0:0:
172,226,31971,1,2,0:0:0:0:
148,73,32134,2,0,L|137:0,1,70,8|0,0:0|0:0,0:0:0:0:
280,62,32458,6,0,L|269:131,1,70,2|0,0:0|0:0,0:0:0:0:
244,283,32782,2,0,P|278:284|310:269,1,70,8|0,0:0|0:0,0:0:0:0:
401,144,33107,1,2,0:0:0:0:
260,203,33269,1,2,0:0:0:0:
407,245,33431,2,0,L|474:264,1,70,8|0,0:0|0:0,0:0:0:0:
512,115,33755,6,0,L|445:134,1,70,2|0,0:0|0:0,0:0:0:0:
308,201,34080,2,0,P|301:235|309:268,1,70,8|0,0:0|0:0,0:0:0:0:
439,353,34404,1,2,0:0:0:0:
415,201,34566,1,2,0:0:0:0:
349,340,34728,2,0,P|316:351|281:347,1,70,8|0,0:0|0:0,0:0:0:0:
191,172,35053,5,2,0:0:0:0:
308,272,35215,1,2,0:0:0:0:
420,167,35377,2,0,L|432:97,1,70,8|0,0:0|0:0,0:0:0:0:
457,250,35701,1,2,0:0:0:0:
339,151,35863,1,2,0:0:0:0:
423,22,36025,2,0,L|493:22,1,70,8|0,0:0|0:0,0:0:0:0:
409,151,36350,6,0,L|337:151,1,70,6|0,0:0|0:0,0:0:0:0:
188,151,36674,2,0,P|180:117|186:83,1,70,8|0,0:0|0:0,0:0:0:0:
313,0,36998,1,2,0:0:0:0:
264,147,37161,1,2,0:0:0:0:
111,161,37323,2,0,L|33:168,1,70,8|0,0:0|0:0,0:0:0:0:
143,283,37647,6,0,L|212:289,1,70,2|0,0:0|0:0,0:0:0:0:
358,239,37971,2,0,P|365:205|359:171,1,70,8|0,0:0|0:0,0:0:0:0:
260,52,38296,1,2,0:0:0:0:
283,204,38458,1,2,0:0:0:0:
358,70,38620,2,0,L|391:5,1,70,8|0,0:0|0:0,0:0:0:0:
479,133,38944,6,0,L|447:195,1,70,2|0,0:0|0:0,0:0:0:0:
324,289,39269,2,0,P|291:277|265:254,1,70,8|0,0:0|0:0,0:0:0:0:
212,109,39593,1,2,0:0:0:0:
347,184,39755,1,2,0:0:0:0:
193,194,39917,2,0,L|123:197,1,70,8|0,0:0|0:0,0:0:0:0:
0,72,40242,5,8,0:0:0:0:
212,109,40404,1,8,0:0:0:0:
51,256,40566,2,0,P|31:185|57:133,1,105,8|2,0:0|0:0,0:0:0:0:
85,94,40890,6,0,L|85:48,2,46.6666666666667,2|8|2,0:0|0:0|0:0,0:0:0:0:
117,165,41215,2,0,L|117:211,2,46.6666666666667,2|2|2,0:0|0:0|0:0,0:0:0:0:
163,101,41539,5,6,0:0:0:0:
258,56,41701,1,0,0:0:0:0:
249,161,41863,2,0,P|249:187|239:211,1,52.5000020027161,0|2,0:0|0:0,0:0:0:0:
189,304,42188,2,0,L|299:304,1,105.000004005432,2|0,0:0|0:0,0:0:0:0:
399,304,42674,1,2,0:0:0:0:
463,221,42836,6,0,P|475:165|459:117,1,105.000004005432,0|2,0:0|0:0,0:0:0:0:
264,47,43485,2,0,L|156:47,1,105.000004005432,2|0,0:0|0:0,0:0:0:0:
182,256,44134,5,2,0:0:0:0:
364,152,44458,2,0,L|364:100,1,52.5000020027161,0|2,0:0|0:0,0:0:0:0:
260,84,44782,2,0,L|260:192,1,105.000004005432,2|0,0:0|0:0,0:0:0:0:
252,294,45269,2,0,P|232:310|207:318,1,52.5000020027161,2|0,0:0|0:0,0:0:0:0:
102,320,45593,5,2,0:0:0:0:
41,235,45755,2,0,L|41:183,1,52.5000020027161,2|0,0:0|0:0,0:0:0:0:
117,110,46080,1,2,0:0:0:0:
192,183,46242,2,0,L|192:236,1,52.5000020027161,0|0,0:0|0:0,0:0:0:0:
381,145,46728,6,0,L|442:145,2,52.5000020027161,6|0|0,0:0|0:0|0:0,0:0:0:0:
290,92,47215,1,2,0:0:0:0:
290,197,47377,1,2,0:0:0:0:
450,333,47701,1,0,0:0:0:0:
345,333,47863,2,0,L|286:333,1,52.5000020027161,2|0,0:0|0:0,0:0:0:0:
187,333,48188,5,0,0:0:0:0:
98,277,48350,2,0,P|86:221|102:173,1,105.000004005432,2|2,0:0|0:0,0:0:0:0:
173,101,48836,1,0,0:0:0:0:
201,202,48998,1,0,0:0:0:0:
382,310,49323,6,0,L|435:303,1,52.5000020027161,2|0,0:0|0:0,0:0:0:0:
447,199,49647,2,0,L|394:206,1,52.5000020027161,2|0,0:0|0:0,0:0:0:0:
303,153,49971,2,0,P|289:203|302:254,1,105.000004005432,2|0,0:0|0:0,0:0:0:0:
382,310,50458,1,2,0:0:0:0:
110,276,50782,5,2,0:0:0:0:
281,64,51107,1,2,0:0:0:0:
281,64,51188,1,2,0:0:0:0:
281,64,51269,1,2,0:0:0:0:
371,116,51431,5,2,0:0:0:0:
280,169,51593,2,0,P|254:173|229:169,1,52.5000020027161,2|0,0:0|0:0,0:0:0:0:
49,87,51917,5,6,0:0:0:0:
110,276,52080,1,0,0:0:0:0:
183,93,52242,2,0,L|260:86,1,70,2|0,0:0|0:0,0:0:0:0:
89,197,52566,2,0,L|19:203,1,70,2|0,0:0|0:0,0:0:0:0:
204,272,52890,2,0,L|281:265,1,70,2|0,0:0|0:0,0:0:0:0:
419,165,53215,6,0,L|426:95,1,70,2|0,0:0|0:0,0:0:0:0:
253,119,53539,2,0,L|260:189,1,70,2|0,0:0|0:0,0:0:0:0:
449,246,53863,2,0,P|484:243|513:224,1,70,2|0,0:0|0:0,0:0:0:0:
415,52,54188,2,0,P|380:55|351:74,1,70,2|0,0:0|0:0,0:0:0:0:
256,220,54512,6,0,L|256:290,1,70,2|0,0:0|0:0,0:0:0:0:
89,239,54836,2,0,L|89:169,1,70,2|0,0:0|0:0,0:0:0:0:
225,25,55161,2,0,P|258:16|291:25,1,70,2|0,0:0|0:0,0:0:0:0:
255,220,55485,2,0,P|222:227|188:220,1,70,2|0,0:0|0:0,0:0:0:0:
0,118,55809,5,2,0:0:0:0:
223,145,55971,1,2,0:0:0:0:
16,279,56134,1,8,0:0:0:0:
73,27,56296,1,8,0:0:0:0:
256,220,56458,1,8,0:0:0:0:
0,118,56620,1,8,0:0:0:0:
294,123,56782,1,8,0:0:0:0:
8,199,56944,1,8,0:0:0:0:
323,272,57107,5,12,0:0:0:0:
343,278,57755,5,0,0:0:0:0:
363,284,58404,5,0,0:0:0:0:
345,1,59701,5,0,0:0:0:0:
333,15,60350,5,0,0:0:0:0:
321,29,60998,5,8,0:0:0:0:
153,246,61161,1,8,0:0:0:0:
385,90,61323,1,8,0:0:0:0:
109,168,61485,1,8,0:0:0:0:
403,176,61647,1,8,0:0:0:0:
118,81,61809,1,8,0:0:0:0:
370,257,61971,1,8,0:0:0:0:
163,17,62134,6,0,P|100:5|44:56,1,140,6|2,0:0|0:0,0:0:0:0:
11,258,62620,2,0,L|81:275,1,70,8|0,0:0|0:0,0:0:0:0:
303,330,62944,1,2,0:0:0:0:
200,122,63107,1,2,0:0:0:0:
130,346,63269,1,8,0:0:0:0:
282,152,63431,6,0,P|277:83|211:35,1,140,2|2,0:0|0:0,0:0:0:0:
18,14,63917,2,0,L|18:87,1,70,8|0,0:0|0:0,0:0:0:0:
18,316,64242,1,2,0:0:0:0:
130,114,64404,1,2,0:0:0:0:
130,346,64566,1,8,0:0:0:0:
241,119,64728,6,0,B|264:75|264:75|353:51,1,140,6|2,0:0|0:0,0:0:0:0:
460,232,65215,2,0,L|389:238,1,70,8|0,0:0|0:0,0:0:0:0:
161,261,65539,1,2,0:0:0:0:
379,336,65701,1,2,0:0:0:0:
149,359,65863,1,8,0:0:0:0:
321,184,66025,6,0,P|345:115|309:59,1,140,2|2,0:0|0:0,0:0:0:0:
109,7,66512,2,0,L|112:87,1,70,8|0,0:0|0:0,0:0:0:0:
125,307,66836,1,2,0:0:0:0:
268,126,66998,1,2,0:0:0:0:
38,160,67161,1,8,0:0:0:0:
270,239,67323,6,0,B|405:287,1,140,6|2,0:0|0:0,0:0:0:0:
432,69,67809,2,0,P|400:54|366:55,1,70,8|0,0:0|0:0,0:0:0:0:
171,181,68134,1,2,0:0:0:0:
400,215,68296,1,2,0:0:0:0:
171,181,68458,1,8,0:0:0:0:
416,140,68620,6,0,P|475:195|454:270,1,140,2|2,0:0|0:0,0:0:0:0:
289,358,69107,2,0,L|217:358,1,70,8|0,0:0|0:0,0:0:0:0:
400,215,69431,1,2,0:0:0:0:
171,181,69593,1,2,0:0:0:0:
400,215,69755,1,8,0:0:0:0:
153,256,69917,6,0,P|98:207|106:137,1,140,6|2,0:0|0:0,0:0:0:0:
279,23,70404,2,0,L|348:23,1,70,8|0,0:0|0:0,0:0:0:0:
512,186,70728,1,2,0:0:0:0:
296,104,70890,1,2,0:0:0:0:
504,0,71053,1,8,0:0:0:0:
332,177,71215,6,0,B|291:212|291:212|201:226,1,140,2|2,0:0|0:0,0:0:0:0:
43,93,71701,2,0,L|127:79,1,70,8|0,0:0|0:0,0:0:0:0:
340,45,72025,1,2,0:0:0:0:
205,225,72188,1,8,0:0:0:0:
198,234,72269,1,8,0:0:0:0:
191,243,72350,1,8,0:0:0:0:
184,253,72431,1,8,0:0:0:0:
178,262,72512,6,0,P|121:278|104:214,1,140,6|2,0:0|0:0,0:0:0:0:
194,24,72998,2,0,L|266:40,1,70,8|0,0:0|0:0,0:0:0:0:
487,98,73323,1,2,0:0:0:0:
264,160,73485,1,2,0:0:0:0:
431,1,73647,1,8,0:0:0:0:
321,220,73809,6,0,P|225:234|187:190,1,140,2|2,0:0|0:0,0:0:0:0:
96,19,74296,2,0,L|100:92,1,70,8|0,0:0|0:0,0:0:0:0:
115,319,74620,1,2,0:0:0:0:
193,102,74782,1,2,0:0:0:0:
213,332,74944,1,8,0:0:0:0:
271,93,75107,6,0,P|216:27|166:28,1,140,6|2,0:0|0:0,0:0:0:0:
67,212,75593,2,0,L|140:230,1,70,8|0,0:0|0:0,0:0:0:0:
360,280,75917,1,2,0:0:0:0:
130,312,76080,1,2,0:0:0:0:
356,357,76242,1,8,0:0:0:0:
204,165,76404,6,0,B|173:129|173:129|186:36,1,140,2|2,0:0|0:0,0:0:0:0:
394,11,76890,2,0,L|382:97,1,70,8|0,0:0|0:0,0:0:0:0:
360,280,77215,1,2,0:0:0:0:
292,99,77377,1,8,0:0:0:0:
292,99,77458,1,8,0:0:0:0:
292,99,77539,1,8,0:0:0:0:
434,281,77701,6,0,B|288:328,1,140,6|2,0:0|0:0,0:0:0:0:
78,341,78188,2,0,L|100:271,1,70,8|0,0:0|0:0,0:0:0:0:
179,58,78512,1,2,0:0:0:0:
216,279,78674,1,2,0:0:0:0:
296,63,78836,1,8,0:0:0:0:
281,321,78998,6,0,P|215:357|147:314,1,140,2|0,0:0|0:0,0:0:0:0:
201,126,79485,2,0,L|273:145,1,70,8|0,0:0|0:0,0:0:0:0:
89,280,79809,1,2,0:0:0:0:
316,237,79971,1,2,0:0:0:0:
91,180,80134,1,8,0:0:0:0:
298,312,80296,6,0,P|375:287|392:222,1,140,6|2,0:0|0:0,0:0:0:0:
298,2,80782,1,8,0:0:0:0:
91,180,80944,1,8,0:0:0:0:
430,24,81107,1,8,0:0:0:0:
61,89,81269,1,8,0:0:0:0:
435,110,81431,1,8,0:0:0:0:
63,12,81593,6,0,P|2:38|-14:108,1,140,6|2,0:0|0:0,0:0:0:0:
68,299,82080,2,0,L|68:228,1,70,8|0,0:0|0:0,0:0:0:0:
243,112,82404,1,8,0:0:0:0:
255,112,82485,1,8,0:0:0:0:
267,112,82566,1,8,0:0:0:0:
278,112,82647,1,8,0:0:0:0:
291,112,82728,2,0,L|326:112,1,35,2|2,0:0|0:0,0:0:0:0:
368,16,82890,2,0,L|333:16,1,35,2|2,0:0|0:0,0:0:0:0:
227,16,83053,5,6,0:0:0:0:
57,139,83215,1,0,0:0:0:0:
248,224,83377,1,8,0:0:0:0:
227,16,83539,2,0,P|153:18|121:70,1,140,0|2,0:0|0:0,0:0:0:0:
143,207,84025,1,8,0:0:0:0:
348,260,84188,6,0,B|382:227|382:227|382:124,1,140,6|2,0:0|0:0,0:0:0:0:
219,2,84674,2,0,L|219:84,1,70,8|0,0:0|0:0,0:0:0:0:
219,282,84998,1,2,0:0:0:0:
69,133,85161,1,2,0:0:0:0:
277,160,85323,2,0,L|352:170,1,70,8|0,0:0|0:0,0:0:0:0:
512,298,85647,5,6,0:0:0:0:
428,106,85809,1,0,0:0:0:0:
315,283,85971,1,8,0:0:0:0:
488,162,86134,2,0,P|500:68|456:29,1,140,0|2,0:0|0:0,0:0:0:0:
337,11,86620,1,8,0:0:0:0:
267,209,86782,6,0,L|267:350,1,140,6|2,0:0|0:0,0:0:0:0:
67,282,87269,1,8,0:0:0:0:
75,80,87431,1,8,0:0:0:0:
75,80,87512,1,8,0:0:0:0:
75,80,87593,1,8,0:0:0:0:
200,261,87755,1,8,0:0:0:0:
200,261,87836,1,8,0:0:0:0:
200,261,87917,2,0,P|234:269|268:262,1,70,8|0,0:0|0:0,0:0:0:0:
453,160,88242,5,6,0:0:0:0:
273,52,88404,1,0,0:0:0:0:
267,262,88566,1,8,0:0:0:0:
453,160,88728,2,0,B|453:109|453:109|391:38,1,140,0|2,0:0|0:0,0:0:0:0:
257,11,89215,1,8,0:0:0:0:
215,216,89377,6,0,P|283:266|346:244,1,140,6|2,0:0|0:0,0:0:0:0:
426,67,89863,2,0,L|356:67,1,70,8|0,0:0|0:0,0:0:0:0:
145,67,90188,1,2,0:0:0:0:
338,149,90350,1,2,0:0:0:0:
128,149,90512,2,0,L|59:149,1,70,8|0,0:0|0:0,0:0:0:0:
127,347,90836,5,6,0:0:0:0:
253,179,90998,1,0,0:0:0:0:
52,244,91161,1,8,0:0:0:0:
261,258,91323,2,0,P|332:166|319:135,1,140,0|2,0:0|0:0,0:0:0:0:
261,34,91809,1,8,0:0:0:0:
261,258,91971,6,0,B|261:327,1,70,6|0,0:0|0:0,0:0:0:0:
336,71,92296,1,8,0:0:0:0:
446,328,92458,1,8,0:0:0:0:
191,182,92620,1,8,0:0:0:0:
487,99,92782,1,8,0:0:0:0:
261,328,92944,1,8,0:0:0:0:
397,19,93107,1,8,0:0:0:0:
404,1,93431,5,6,0:0:0:0:
