osu file format v14

[General]
AudioFilename: HoneyWorks,GUMI.ogg
AudioLeadIn: 0
PreviewTime: 139217
Countdown: 0
SampleSet: Soft
StackLeniency: 0.3
Mode: 0
LetterboxInBreaks: 0
WidescreenStoryboard: 0

[Editor]
Bookmarks: 124842
DistanceSpacing: 0.1
BeatDivisor: 4
GridSize: 8
TimelineZoom: 1.6

[Metadata]
Title:Hatsukoi no Ehon
TitleUnicode:初恋の絵本
Artist:HoneyWorks feat. GUMI
ArtistUnicode:HoneyWorks feat. GUMI
Creator:yf_bmp
Version:z1085684963's Extra
Source:
Tags:VOCALOID We have always been 10 cm apart. Kokuhaku Jikkou Iinkai japanese pop itsudatte bokura no koi wa datta. centi 好きすぎてやばい。 ~告白実行委員会キャラクターソング集~ 東京ウインターセッション 告白実行委員会〜恋愛シリーズ〜 Sukisugiteyabai Kokuhakujikkouiinkai Character Song Shu Tokyo Winter Session picture book first love 初恋ノート Hatsukoi Note confession executive committee series vocaloid sahuang z1085684963 Pururut Karen Vert Garden Binguo
BeatmapID:839903
BeatmapSetID:381779

[Difficulty]
HPDrainRate:6
CircleSize:4.1
OverallDifficulty:8
ApproachRate:9.3
SliderMultiplier:1.6
SliderTickRate:1

[Events]
//Background and Video events
0,0,"BG.jpg",0,0
//Break Periods
2,107990,116078
2,128200,132499
//Storyboard Layer 0 (Background)
//Storyboard Layer 1 (Fail)
//Storyboard Layer 2 (Pass)
//Storyboard Layer 3 (Foreground)
//Storyboard Layer 4 (Overlay)
//Storyboard Sound Samples

[TimingPoints]
-448,685.714285714286,4,2,1,60,1,0
9151,-100,4,2,1,70,0,0
9837,631.578947368421,4,2,1,60,1,0
11633,315.789473684211,4,2,1,80,1,0
11790,315.789473684211,4,2,1,80,1,0
25684,-133.333333333333,4,2,1,80,0,0
26947,-133.333333333333,4,2,1,50,0,0
34526,-133.333333333333,4,2,1,20,0,0
35158,-133.333333333333,4,2,1,30,0,0
35790,-133.333333333333,4,2,1,40,0,0
36421,-133.333333333333,4,2,1,50,0,0
37053,-200,4,2,1,70,0,0
42105,-100,4,2,1,80,0,0
42420,-100,4,2,1,60,0,0
43368,-100,4,2,1,80,0,0
43684,-100,4,2,1,40,0,0
43842,-100,4,2,1,50,0,0
44000,-100,4,2,1,60,0,0
44158,-100,4,2,1,70,0,0
44316,-100,4,2,1,80,0,0
62158,-133.333333333333,4,2,1,80,0,0
62316,-66.6666666666667,4,2,1,80,0,0
62632,-80,4,2,1,70,0,0
62947,-100,4,2,1,60,0,0
63263,-200,4,2,1,50,0,0
64842,-100,4,2,1,80,0,0
73684,-80,4,2,1,80,0,0
74316,-66.6666666666667,4,2,1,80,0,0
75263,-100,4,2,1,80,0,0
80632,-80,4,2,1,80,0,0
87263,-66.6666666666667,4,2,1,80,0,0
87579,-66.6666666666667,4,2,1,80,0,1
88053,-100,4,2,1,80,0,1
90105,-66.6666666666667,4,2,1,80,0,1
90579,-100,4,2,1,80,0,1
97053,-50,4,2,1,80,0,1
97684,-100,4,2,1,80,0,1
100842,-100,4,2,2,80,0,1
101158,-100,4,2,1,80,0,1
102579,-50,4,2,1,80,0,1
105895,-100,4,2,1,80,0,1
107790,-100,4,2,1,60,0,0
117579,-133.333333333333,4,2,1,60,0,0
122947,-133.333333333333,4,2,1,40,0,0
123579,-133.333333333333,4,2,1,45,0,0
124211,-133.333333333333,4,2,1,50,0,0
124842,-133.333333333333,4,2,1,55,0,0
125474,-133.333333333333,4,2,1,60,0,0
125790,-100,4,2,1,60,0,0
126105,-66.6666666666667,4,2,1,60,0,0
126421,-50,4,2,1,60,0,0
133053,-100,4,2,1,60,0,0
134316,-100,4,2,1,45,0,0
140000,-100,4,2,1,60,0,0
140316,-133.333333333333,4,2,1,60,0,0
140552,-133.333333333333,4,2,1,5,0,0
140632,-100,4,2,1,80,0,0
150105,-66.6666666666667,4,2,1,80,0,0
151053,-100,4,2,1,80,0,0
158316,-133.333333333333,4,2,1,80,0,0
158947,-100,4,2,1,80,0,0
159579,-80,4,2,1,80,0,0
160211,-133.333333333333,4,2,1,80,0,0
160368,-100,4,2,1,80,0,0
160526,-80,4,2,1,80,0,0
160684,-66.6666666666667,4,2,1,80,0,0
160842,-100,4,2,1,80,0,0
161790,-133.333333333333,4,2,1,80,0,0
162105,-100,4,2,1,80,0,0
164000,-80,4,2,1,80,0,0
164632,-66.6666666666667,4,2,1,80,0,0
165263,-50,4,2,1,80,0,0
165895,-200,4,2,1,80,0,0
168421,-100,4,2,1,80,0,0
170316,-100,4,2,1,40,0,0
170474,-100,4,2,1,50,0,0
170632,-100,4,2,1,60,0,0
170790,-100,4,2,1,70,0,0
170947,-100,4,2,1,80,0,0

[Colours]
Combo1 : 255,0,128
Combo2 : 128,255,0
Combo3 : 255,128,255
Combo4 : 252,14,55

[HitObjects]
120,384,237,5,0,2:0:0:0:
150,310,580,1,0,2:0:0:0:
88,258,923,1,2,2:0:0:0:
19,300,1609,5,0,2:0:0:0:
37,378,2294,5,2,2:0:0:0:
120,384,2980,5,0,2:0:0:0:
150,310,3323,1,0,2:0:0:0:
221,274,3666,1,2,2:0:0:0:
300,271,4009,1,0,2:0:0:0:
363,320,4352,1,0,2:0:0:0:
442,323,4694,1,0,2:0:0:0:
504,273,5037,5,2,2:0:0:0:
510,193,5380,1,0,2:0:0:0:
456,133,5723,1,2,2:0:0:0:
475,55,6066,1,0,2:0:0:0:
398,79,6409,5,2,2:0:0:0:
321,103,6752,1,0,2:0:0:0:
257,54,7094,1,0,2:0:0:0:
107,158,7780,5,2,2:0:0:0:
172,109,8123,1,0,2:0:0:0:
249,133,8466,1,2,2:0:0:0:
228,210,8809,2,0,P|186:226|141:222,1,80,0|2,2:0|2:0,2:0:0:0:
151,224,9494,6,0,L|159:182,2,26.6666666666667,2|0|0,2:0|2:0|2:0,2:0:0:0:
71,276,9837,2,0,L|73:318,2,26.6666666666667,2|0|0,2:0|2:0|2:0,2:0:0:0:
9,201,10152,2,0,L|8:153,2,26.6666666666667,0|0|0,2:0|2:0|2:0,2:0:0:0:
26,190,10468,1,0,2:0:0:0:
26,190,11100,2,0,L|22:312,1,120,0|0,2:0|2:0,2:0:0:0:
40,334,11633,2,0,L|102:328,1,40,0|0,3:0|3:0,2:0:0:0:
299,347,11790,6,0,P|242:359|194:325,1,120,4|0,2:1|2:0,2:0:0:0:
189,310,12105,1,0,2:0:0:0:
253,167,12263,2,0,L|261:263,1,80,2|0,2:0|3:0,2:0:0:0:
330,88,12579,1,4,2:3:0:0:
315,336,12737,1,4,2:3:0:0:
512,250,12895,1,0,3:0:0:0:
512,250,12974,1,0,3:0:0:0:
512,250,13053,6,0,L|335:258,1,160,4|0,2:0|2:0,2:0:0:0:
435,304,13526,2,0,P|449:252|435:197,1,80,2|8,2:0|2:3,2:0:0:0:
429,138,13790,2,0,L|487:151,1,53.3333333333333,0|4,2:0|2:3,2:0:0:0:
359,57,14000,2,0,P|389:38|418:10,2,53.3333333333333,2|4|0,2:0|2:3|2:0,2:0:0:0:
243,101,14316,6,0,B|170:130|160:51|64:106,1,160,4|0,2:0|2:0,2:0:0:0:
121,255,14790,1,0,3:0:0:0:
121,255,14868,1,0,3:0:0:0:
121,255,14947,2,0,L|126:160,1,80,8|0,2:3|3:0,2:0:0:0:
216,21,15263,1,4,2:3:0:0:
223,312,15421,1,0,3:0:0:0:
211,309,15500,1,0,3:0:0:0:
199,307,15579,6,0,P|142:351|61:326,1,160,4|0,2:0|2:0,2:0:0:0:
42,204,16053,2,0,P|99:160|180:185,1,160,6|0,2:0|1:0,2:0:0:0:
267,225,16526,2,0,L|374:202,1,80,0|0,2:0|1:0,2:0:0:0:
433,168,16842,5,4,2:0:0:0:
474,81,17000,1,0,3:0:0:0:
414,5,17158,1,0,3:0:0:0:
323,37,17316,1,8,3:0:0:0:
326,131,17474,1,8,3:0:0:0:
338,44,17632,1,0,3:0:0:0:
422,20,17790,1,4,3:0:0:0:
467,94,17947,1,4,3:0:0:0:
415,165,18105,5,4,2:0:0:0:
449,321,18263,1,0,2:0:0:0:
291,351,18421,1,2,2:0:0:0:
223,293,18579,2,0,P|291:263|373:313,1,160,0|2,2:0|2:0,2:0:0:0:
363,298,18974,1,0,2:0:0:0:
363,298,19053,1,0,1:0:0:0:
283,360,19211,1,0,1:0:0:0:
203,291,19368,5,4,2:0:0:0:
183,295,19526,1,0,3:0:0:0:
46,238,19684,1,0,3:0:0:0:
66,242,19842,1,0,3:0:0:0:
193,213,20000,1,0,3:0:0:0:
173,217,20158,1,0,3:0:0:0:
36,160,20316,1,0,1:0:0:0:
56,164,20474,1,0,3:0:0:0:
183,135,20632,5,8,2:0:0:0:
310,106,20790,1,8,2:0:0:0:
310,106,20868,1,0,2:0:0:0:
310,106,20947,2,0,L|316:53,1,40,8|0,2:0|2:0,2:0:0:0:
193,77,21105,2,0,L|199:130,1,40,8|0,2:0|2:0,2:0:0:0:
363,184,21263,2,0,L|408:189,1,40,0|0,3:0|2:0,2:0:0:0:
161,221,21421,2,0,L|116:226,1,40,0|0,3:0|2:0,2:0:0:0:
266,310,21579,2,0,P|285:255|265:200,1,120,4|0,1:2|1:0,2:0:0:0:
256,192,21895,5,2,2:0:0:0:
256,192,21974,12,0,24105,2:0:0:0:
256,192,24263,5,0,2:0:0:0:
271,197,24342,1,0,2:0:0:0:
286,202,24421,1,0,1:0:0:0:
111,224,24579,1,0,3:0:0:0:
99,234,24658,1,0,3:0:0:0:
87,244,24737,1,0,1:0:0:0:
155,82,24895,1,0,3:0:0:0:
153,67,24974,1,0,3:0:0:0:
150,51,25053,1,0,1:0:0:0:
271,186,25211,5,0,3:0:0:0:
302,193,25290,1,0,3:0:0:0:
333,194,25368,1,0,1:0:0:0:
484,128,25526,2,0,P|480:102|461:63,1,40,0|0,1:0|1:0,2:0:0:0:
478,8,25684,6,0,B|422:3|385:59|385:59|414:123|417:198|417:198|465:227|520:205,1,360.000000000001,4|0,2:0|2:0,2:0:0:0:
509,199,26947,6,0,P|489:243|488:271,1,60.0000000000002,0|0,3:0|2:0,2:0:0:0:
404,237,27263,2,0,P|408:285|421:309,1,60.0000000000002,0|0,3:0|2:0,2:0:0:0:
248,235,27579,2,0,P|228:191|227:163,1,60.0000000000002,0|0,3:0|2:0,2:0:0:0:
143,197,27895,2,0,P|147:148|160:124,1,60.0000000000002,0|0,3:0|2:0,2:0:0:0:
226,98,28211,5,0,3:0:0:0:
226,98,28526,1,0,3:0:0:0:
309,111,28684,1,0,2:0:0:0:
361,251,28842,1,0,3:0:0:0:
444,238,29000,1,0,2:0:0:0:
493,169,29158,2,0,P|509:112|496:60,1,90.0000000000002,0|0,3:0|2:0,2:0:0:0:
498,65,29474,6,0,L|417:59,1,60.0000000000002,0|0,3:0|2:0,2:0:0:0:
309,111,29790,2,0,L|368:115,1,60.0000000000002,0|0,3:0|2:0,2:0:0:0:
222,260,30105,2,0,L|163:265,1,60.0000000000002,0|0,3:0|2:0,2:0:0:0:
33,214,30421,2,0,L|93:210,1,60.0000000000002,0|0,3:0|2:0,2:0:0:0:
82,293,30737,5,0,3:0:0:0:
82,293,31053,1,0,3:0:0:0:
93,210,31211,1,0,2:0:0:0:
295,165,31368,1,0,3:0:0:0:
284,82,31526,1,0,2:0:0:0:
224,22,31684,2,0,P|161:13|116:50,1,120,0|0,3:0|3:0,2:0:0:0:
80,120,32158,6,0,P|39:133|9:129,1,60.0000000000002,0|0,2:0|3:0,2:0:0:0:
34,45,32474,1,0,2:0:0:0:
163,117,32632,2,0,L|170:192,1,60.0000000000002,0|0,3:0|2:0,2:0:0:0:
116,320,32947,1,0,3:0:0:0:
168,176,33105,1,0,2:0:0:0:
276,333,33263,6,0,P|312:331|346:304,1,60.0000000000002,0|0,3:0|2:0,2:0:0:0:
287,247,33579,1,0,3:0:0:0:
416,309,33737,1,0,2:0:0:0:
416,309,33816,1,0,2:0:0:0:
416,309,33895,2,0,L|499:323,1,60.0000000000002,0|0,3:0|2:0,2:0:0:0:
499,141,34211,1,0,3:0:0:0:
368,240,34368,1,0,2:0:0:0:
430,7,34526,5,0,1:0:0:0:
483,158,34684,1,0,1:0:0:0:
341,222,34842,2,0,L|340:298,1,60.0000000000002,0|0,1:0|1:0,2:0:0:0:
344,293,35079,1,0,2:0:0:0:
348,304,35158,5,0,1:0:0:0:
393,158,35316,1,0,1:0:0:0:
259,89,35474,2,0,L|258:13,1,60.0000000000002,0|0,1:0|1:0,2:0:0:0:
262,18,35711,1,0,2:0:0:0:
266,7,35790,5,8,1:2:0:0:
180,204,35947,1,0,1:0:0:0:
314,143,36105,1,8,1:2:0:0:
166,195,36263,1,8,1:2:0:0:
264,339,36421,5,8,1:2:0:0:
173,180,36579,1,0,1:0:0:0:
9,337,36737,1,8,1:2:0:0:
190,190,36895,1,8,1:2:0:0:
16,147,37053,6,0,P|22:198|40:223,2,80,0|2|0,2:0|2:0|2:0,2:0:0:0:
50,74,38000,1,2,2:0:0:0:
248,130,38316,6,0,P|299:124|324:106,2,80,0|2|0,2:0|2:0|2:0,2:0:0:0:
362,41,39263,1,2,2:0:0:0:
486,258,39579,6,0,P|480:309|462:334,2,80,0|2|0,2:0|2:0|2:0,2:0:0:0:
463,181,40526,1,2,2:0:0:0:
169,283,40842,6,0,P|208:285|242:305,2,80,0|2|0,2:0|2:0|2:0,2:0:0:0:
297,365,41790,1,2,2:0:0:0:
181,377,42105,6,0,L|188:185,1,160,6|8,1:2|1:2,2:0:0:0:
186,217,42579,1,8,1:2:0:0:
297,365,42737,1,8,1:2:0:0:
74,292,42895,1,8,1:2:0:0:
329,255,43053,2,0,P|368:259|404:275,1,80,8|8,1:2|1:2,2:0:0:0:
349,170,43368,5,0,1:0:0:0:
332,133,43447,1,0,1:0:0:0:
335,94,43526,1,8,3:0:0:0:
358,61,43605,1,8,3:0:0:0:
393,43,43684,5,0,1:0:0:0:
403,43,43763,1,0,1:0:0:0:
413,45,43842,1,0,1:0:0:0:
422,49,43921,1,0,1:0:0:0:
430,54,44000,5,0,1:0:0:0:
393,109,44079,1,0,1:0:0:0:
333,133,44158,1,0,1:0:0:0:
269,117,44237,1,0,1:0:0:0:
255,125,44316,1,8,3:0:0:0:
218,70,44395,1,0,3:0:0:0:
158,46,44474,1,0,3:0:0:0:
94,62,44553,1,0,3:0:0:0:
68,81,44632,6,0,L|64:192,1,80,4|0,3:1|2:0,2:0:0:0:
238,281,44947,2,0,P|240:231|220:197,1,80,8|2,1:2|2:0,2:0:0:0:
17,267,45263,2,0,B|50:296|92:287|92:287|119:251|170:257,2,160,0|8|0,3:0|1:2|3:0,2:0:0:0:
65,160,46053,5,0,2:0:0:0:
159,343,46211,1,8,1:2:0:0:
2,289,46368,1,2,2:0:0:0:
2,289,46447,1,2,2:0:0:0:
2,289,46526,2,0,L|107:283,1,80,0|0,3:0|3:0,2:0:0:0:
403,258,46842,2,0,P|336:208|283:224,1,120,8|0,1:2|2:0,2:0:0:0:
331,288,47158,5,0,3:0:0:0:
469,304,47316,1,0,2:0:0:0:
426,100,47474,1,8,1:2:0:0:
403,258,47632,1,2,2:0:0:0:
451,193,47790,2,0,P|415:179|375:182,1,80,0|0,3:0|3:0,2:0:0:0:
392,339,48105,1,8,1:2:0:0:
426,100,48263,1,2,2:0:0:0:
426,100,48342,1,0,2:0:0:0:
426,100,48421,6,0,L|440:7,1,80,0|0,3:0|2:0,2:0:0:0:
193,62,48737,1,12,1:2:0:0:
219,170,48895,1,2,2:0:0:0:
138,246,49053,2,0,L|30:254,1,80,0|0,3:0|3:0,2:0:0:0:
7,49,49368,2,0,P|63:25|140:43,1,120,8|0,1:2|2:0,2:0:0:0:
193,62,49684,5,4,2:0:0:0:
327,144,49842,1,0,2:0:0:0:
219,170,50000,1,8,1:2:0:0:
301,36,50158,1,2,2:0:0:0:
186,74,50316,1,0,3:0:0:0:
368,145,50474,1,0,3:0:0:0:
240,201,50632,1,8,1:2:0:0:
313,18,50790,1,2,2:0:0:0:
500,227,50947,5,0,3:0:0:0:
318,298,51105,1,0,2:0:0:0:
446,354,51263,1,12,1:2:0:0:
373,171,51421,1,2,2:0:0:0:
496,240,51579,1,0,3:0:0:0:
256,287,51737,1,0,3:0:0:0:
401,384,51895,1,8,1:2:0:0:
351,143,52053,1,0,2:0:0:0:
162,298,52211,6,0,P|106:279|47:299,1,120,2|0,3:2|2:0,2:0:0:0:
37,307,52526,1,8,1:2:0:0:
112,176,52684,1,2,2:0:0:0:
172,311,52842,2,0,B|257:318,1,80,0|0,3:0|3:0,2:0:0:0:
330,323,53079,1,0,2:0:0:0:
330,323,53158,1,8,1:2:0:0:
426,156,53316,1,2,2:0:0:0:
330,323,53474,6,0,P|316:274|323:233,1,80,0|2,3:0|2:0,2:0:0:0:
497,205,53790,2,0,P|511:156|504:115,1,80,8|2,1:2|2:0,2:0:0:0:
400,274,54105,1,0,3:0:0:0:
286,114,54263,1,0,3:0:0:0:
286,114,54342,1,0,2:0:0:0:
286,114,54421,1,4,1:2:0:0:
65,160,54579,1,0,2:0:0:0:
151,16,54737,5,0,1:0:0:0:
158,22,54895,1,0,1:0:0:0:
149,25,55053,1,8,3:0:0:0:
444,5,55211,2,0,P|464:43|453:93,1,80,0|2,2:0|3:2,2:0:0:0:
444,5,55684,1,0,3:0:0:0:
405,131,55842,2,0,L|404:183,1,40,0|0,2:0|2:0,2:0:0:0:
420,260,56000,5,0,1:0:0:0:
413,254,56158,1,0,1:0:0:0:
422,251,56316,1,4,3:0:0:0:
127,271,56474,2,0,P|85:268|48:309,1,80,0|2,2:0|3:2,2:0:0:0:
127,271,56947,5,0,3:0:0:0:
37,366,57105,2,0,L|109:363,1,40,0|0,2:0|2:0,2:0:0:0:
260,318,57263,5,0,1:0:0:0:
258,325,57421,1,0,1:0:0:0:
322,367,57579,2,0,B|455:373|455:373|405:344,1,160,8|2,3:0|3:2,2:0:0:0:
309,182,58211,2,0,B|332:168|332:168|199:174,1,160,0|6,3:0|2:0,2:0:0:0:
433,12,58842,5,0,3:0:0:0:
427,110,59000,2,0,L|422:196,1,80,2|0,2:0|2:0,2:0:0:0:
199,174,59316,2,0,L|194:94,1,80,0|2,2:0|3:2,2:0:0:0:
205,272,59632,1,0,2:0:0:0:
189,6,59790,5,4,2:1:0:0:
52,55,60105,1,2,2:0:0:0:
44,54,60737,1,2,2:0:0:0:
36,53,61368,1,2,2:0:0:0:
27,52,62000,1,2,2:0:0:0:
27,52,62158,2,0,L|84:59,1,30.0000000000001,2|2,2:0|2:0,2:0:0:0:
141,114,62316,6,0,P|160:147|166:189,3,60,2|0|0|0,2:0|2:0|2:0|2:0,2:0:0:0:
165,246,62632,2,0,P|161:275|145:308,3,50,2|0|0|0,2:0|2:0|2:0|2:0,2:0:0:0:
131,329,62947,2,0,P|113:346|92:358,3,40,2|0|0|0,2:0|2:0|2:0|2:0,2:0:0:0:
84,364,63263,2,0,P|68:368|52:370,3,20,2|0|0|0,2:0|2:0|2:0|2:0,2:0:0:0:
42,371,63579,5,0,2:0:0:0:
42,371,64211,2,0,B|20:356|16:335|16:335|23:255,1,120,0|0,2:0|2:0,2:0:0:0:
14,248,64842,6,0,B|6:328,1,80,4|0,3:1|2:0,2:0:0:0:
217,103,65158,1,4,1:2:0:0:
191,295,65316,2,0,B|198:375,1,80,0|0,2:0|3:0,2:0:0:0:
197,374,65553,1,0,2:0:0:0:
197,374,65632,1,2,2:0:0:0:
71,187,65790,1,8,1:0:0:0:
282,151,65947,1,0,2:0:0:0:
197,374,66105,6,0,B|158:381|158:381|91:363,1,80,2|0,3:2|2:0,2:0:0:0:
25,114,66421,2,0,B|63:103|63:103|102:110,1,80,8|0,1:0|2:0,2:0:0:0:
152,174,66737,1,0,3:2:0:0:
287,24,66895,1,2,2:0:0:0:
257,236,67053,1,8,1:0:0:0:
303,22,67211,1,0,2:0:0:0:
388,202,67368,6,0,P|448:188|513:269,1,160,2|8,3:2|1:0,2:0:0:0:
292,374,67842,1,0,2:0:0:0:
233,313,68000,1,2,3:2:0:0:
315,292,68158,2,0,L|409:304,1,80,0|8,2:0|1:0,2:0:0:0:
283,383,68474,1,0,2:0:0:0:
283,383,68553,1,0,2:0:0:0:
283,383,68632,5,2,3:2:0:0:
229,300,68790,1,2,2:0:0:0:
327,294,68947,1,4,1:2:0:0:
421,371,69105,1,0,1:0:0:0:
440,369,69184,1,0,1:0:0:0:
459,362,69263,1,0,3:0:0:0:
511,252,69421,1,0,3:0:0:0:
472,104,69579,1,8,1:0:0:0:
288,56,69737,1,2,2:0:0:0:
288,56,69895,6,0,L|121:70,1,160,4|8,3:1|1:0,2:0:0:0:
336,128,70368,1,0,2:0:0:0:
48,24,70526,2,0,L|40:128,1,80,2|0,3:2|2:0,2:0:0:0:
272,256,70842,2,0,P|216:224|168:240,1,80,8|0,1:0|2:0,2:0:0:0:
56,320,71158,6,0,B|128:280|144:352|224:296,1,160,2|8,3:2|1:0,2:0:0:0:
376,336,71632,1,0,2:0:0:0:
384,344,71711,1,0,2:0:0:0:
392,352,71790,1,0,3:0:0:0:
104,384,71947,1,2,2:0:0:0:
392,352,72105,2,0,L|296:344,1,80,8|0,1:0|2:0,2:0:0:0:
40,328,72421,6,0,P|24:280|88:208,1,120,2|0,3:2|2:0,2:0:0:0:
40,208,72737,2,0,L|128:200,1,80,8|0,1:0|2:0,2:0:0:0:
336,184,73053,1,2,3:2:0:0:
344,104,73211,1,0,2:0:0:0:
280,56,73368,1,8,1:0:0:0:
416,72,73526,1,8,1:2:0:0:
416,72,73605,1,0,2:0:0:0:
416,72,73684,6,0,B|384:16|384:16|328:32,1,100,0|8,1:0|1:2,2:0:0:0:
280,56,73921,1,0,1:2:0:0:
280,56,74000,2,0,B|247:111|247:111|289:152,1,100,0|8,1:0|1:2,2:0:0:0:
336,184,74237,1,0,1:0:0:0:
336,184,74316,6,0,B|352:200|384:192|384:192|368:216,1,60,2|0,1:2|2:0,2:0:0:0:
400,368,74474,2,0,B|384:352|352:360|352:360|368:336,1,60,8|0,1:2|1:0,2:0:0:0:
456,240,74632,2,0,B|440:256|448:288|448:288|424:272,1,60,2|2,1:2|1:2,2:0:0:0:
272,304,74790,2,0,B|288:288|280:256|280:256|304:272,1,60,0|2,1:0|1:2,2:0:0:0:
208,352,74947,5,6,3:1:0:0:
192,272,75105,1,0,2:0:0:0:
128,224,75263,2,0,P|88:216|48:248,1,80,6|0,1:2|2:0,2:0:0:0:
48,248,75500,1,0,2:0:0:0:
40,264,75579,1,0,3:0:0:0:
64,168,75737,1,0,2:0:0:0:
152,120,75895,2,0,P|200:112|240:128,1,80,10|0,1:0|2:0,2:0:0:0:
248,144,76132,1,0,2:0:0:0:
264,168,76211,6,0,L|416:152,1,120,2|0,3:1|2:0,2:0:0:0:
400,168,76526,2,0,L|408:64,1,80,6|0,1:2|2:0,2:0:0:0:
496,128,76842,1,2,3:1:0:0:
360,256,77000,1,0,2:0:0:0:
320,80,77158,2,0,L|312:-24,1,80,10|0,1:0|2:0,2:0:0:0:
88,136,77474,6,0,B|88:72|128:40|128:40|136:80|176:88,1,160,2|10,3:1|1:0,2:0:0:0:
376,184,77947,1,0,2:0:0:0:
368,168,78026,1,0,2:0:0:0:
360,152,78105,1,2,3:1:0:0:
200,24,78263,1,0,2:0:0:0:
136,200,78421,2,0,P|88:216|40:200,1,80,10|0,1:0|2:0,2:0:0:0:
304,296,78737,6,0,P|256:288|208:352,1,120,2|2,3:1|2:0,2:0:0:0:
216,352,79053,2,0,L|120:344,1,80,4|2,1:2|1:2,2:0:0:0:
56,336,79368,1,2,3:1:0:0:
224,160,79526,1,0,2:0:0:0:
56,336,79684,1,10,1:0:0:0:
224,160,79842,1,2,2:0:0:0:
232,152,79921,1,0,2:0:0:0:
240,144,80000,6,0,L|320:136,1,80,4|2,3:1|2:0,2:0:0:0:
432,280,80316,2,0,P|384:272|352:224,1,80,10|2,1:0|2:0,2:0:0:0:
448,0,80632,6,0,L|440:160,1,150,2|0,3:1|2:0,2:0:0:0:
440,149,80947,1,8,1:0:0:0:
288,320,81105,1,8,1:2:0:0:
168,56,81263,5,4,3:1:0:0:
152,136,81579,1,0,2:0:0:0:
72,152,81895,1,0,2:0:0:0:
88,24,82211,1,2,2:0:0:0:
24,80,85053,5,0,1:0:0:0:
24,80,85368,1,0,1:0:0:0:
152,136,85526,1,0,1:0:0:0:
88,24,85684,1,0,1:0:0:0:
72,152,85842,1,0,1:0:0:0:
168,56,86000,1,0,1:0:0:0:
24,80,86158,1,0,1:0:0:0:
56,280,86316,5,0,1:0:0:0:
85,282,86395,1,0,1:0:0:0:
115,284,86474,1,0,1:0:0:0:
145,286,86553,1,0,1:0:0:0:
168,320,86632,1,0,1:0:0:0:
138,322,86711,1,0,1:0:0:0:
108,324,86790,1,8,3:0:0:0:
78,326,86868,1,8,3:0:0:0:
48,352,86947,1,8,3:0:0:0:
77,354,87026,1,4,3:0:0:0:
107,356,87105,1,0,3:0:0:0:
137,358,87184,1,0,3:0:0:0:
216,384,87263,6,0,P|248:360|288:360,1,60,2|2,2:0|2:0,2:0:0:0:
416,344,87421,2,0,P|455:349|483:377,1,60,2|2,2:0|2:0,2:0:0:0:
336,304,87579,6,0,B|344:160|344:160|368:208,1,180,4|0,3:1|2:0,2:0:0:0:
368,208,87895,1,8,1:0:0:0:
192,240,88053,2,0,B|136:232|136:232|96:272|32:264,1,160,2|2,2:0|2:0,2:0:0:0:
24,112,88526,2,0,P|56:144|64:192,1,80,8|2,1:0|2:0,2:0:0:0:
152,312,88842,5,0,3:0:0:0:
200,248,89000,1,2,2:0:0:0:
208,168,89158,1,8,1:0:0:0:
176,96,89316,1,2,2:0:0:0:
488,48,89474,1,0,3:0:0:0:
416,144,89632,1,2,2:0:0:0:
400,264,89790,1,8,1:0:0:0:
448,376,89947,1,2,2:0:0:0:
448,376,90026,1,0,2:0:0:0:
448,376,90105,6,0,P|400:352|328:384,2,120,2|0|8,3:2|2:0|1:0,2:0:0:0:
504,304,90579,2,0,P|512:232|464:176,1,120,2|0,2:0|2:0,2:0:0:0:
416,144,90895,1,2,2:0:0:0:
416,144,90974,1,2,2:0:0:0:
416,144,91053,1,8,1:0:0:0:
336,176,91132,1,2,2:0:0:0:
296,178,91211,1,2,2:0:0:0:
261,160,91290,1,0,2:0:0:0:
208,96,91368,6,0,P|200:40|216:8,1,80,2|0,3:2|2:0,2:0:0:0:
8,8,91684,1,8,1:0:0:0:
48,88,91842,2,0,L|56:184,1,80,2|0,2:0|2:0,2:0:0:0:
72,352,92158,1,2,2:0:0:0:
248,296,92316,1,8,1:0:0:0:
214,316,92395,1,2,2:0:0:0:
174,319,92474,1,2,2:0:0:0:
138,304,92553,1,2,2:0:0:0:
72,352,92632,6,0,B|56:344|56:344|-16:352,1,80,2|0,3:2|2:0,2:0:0:0:
192,224,92947,2,0,B|208:216|208:216|280:224,1,80,8|2,1:0|2:0,2:0:0:0:
472,112,93263,1,0,3:0:0:0:
480,24,93421,1,2,2:0:0:0:
288,232,93579,1,8,1:0:0:0:
296,320,93737,1,2,2:0:0:0:
488,120,93895,5,2,3:2:0:0:
408,80,94053,2,0,P|376:72|328:88,2,80,0|8|2,2:0|1:0|2:0,2:0:0:0:
472,288,94526,1,0,3:0:0:0:
472,288,94684,2,0,L|480:200,1,80,2|8,2:0|1:0,2:0:0:0:
464,376,95000,1,2,2:0:0:0:
184,237,95158,5,2,3:2:0:0:
184,237,95237,1,0,2:0:0:0:
184,237,95316,1,0,2:0:0:0:
184,237,95395,1,0,2:0:0:0:
176,229,95474,1,8,1:0:0:0:
192,245,95553,1,0,2:0:0:0:
192,229,95632,1,2,2:0:0:0:
176,245,95711,1,2,2:0:0:0:
168,237,95790,5,2,3:2:0:0:
200,237,95868,1,0,2:0:0:0:
184,221,95947,1,0,2:0:0:0:
184,253,96026,1,2,2:0:0:0:
168,253,96105,1,8,1:0:0:0:
200,253,96184,1,2,2:0:0:0:
200,221,96263,1,0,2:0:0:0:
168,221,96342,1,2,2:0:0:0:
160,245,96421,5,0,3:0:0:0:
192,261,96500,1,2,2:0:0:0:
208,229,96579,1,0,2:0:0:0:
176,213,96658,1,2,2:0:0:0:
152,229,96737,1,8,1:0:0:0:
176,269,96816,1,2,2:0:0:0:
216,245,96895,1,2,2:0:0:0:
192,205,96974,1,2,2:0:0:0:
168,125,97053,6,0,B|160:101|144:85|144:85|168:85|184:117,1,80,0|2,3:0|2:0,2:0:0:0:
72,253,97211,2,0,B|48:261|32:277|32:277|32:253|64:237,1,80,10|2,2:0|2:0,2:0:0:0:
200,349,97368,2,0,B|208:373|224:389|224:389|200:389|184:357,1,80,8|2,1:0|2:0,2:0:0:0:
296,221,97526,2,0,B|320:213|336:197|336:197|336:221|304:237,1,80,8|2,1:0|1:2,2:0:0:0:
400,264,97684,6,0,P|424:192|400:136,1,120,4|0,3:1|2:0,2:0:0:0:
392,136,98000,2,0,L|400:40,1,80,12|0,1:2|2:0,2:0:0:0:
496,112,98316,1,0,3:0:0:0:
296,88,98474,1,0,2:0:0:0:
296,88,98553,1,0,2:0:0:0:
296,88,98632,1,8,1:2:0:0:
224,32,98790,1,0,2:0:0:0:
80,104,98947,6,0,P|48:176|104:256,1,160,2|8,3:2|1:2,2:0:0:0:
136,40,99421,1,2,2:0:0:0:
112,328,99579,1,0,3:2:0:0:
328,224,99737,1,0,2:0:0:0:
168,168,99895,1,8,1:2:0:0:
272,384,100053,1,0,2:0:0:0:
392,280,100211,6,0,L|470:266,1,80,2|0,3:2|2:0,2:0:0:0:
296,64,100526,2,0,L|200:48,1,80,8|0,1:2|2:0,2:0:0:0:
48,16,100842,1,2,3:1:0:0:
80,248,101000,1,0,2:0:0:0:
83,228,101079,1,0,2:0:0:0:
91,209,101158,1,8,1:2:0:0:
192,136,101316,1,0,2:0:0:0:
408,192,101474,6,0,B|488:179|488:179|496:112,1,120,2|0,3:2|2:0,2:0:0:0:
416,112,101790,2,0,B|360:120|360:120|336:160,1,80,8|0,1:2|2:0,2:0:0:0:
424,344,102105,2,0,P|456:335|498:294,1,80,0|0,3:1|2:0,2:0:0:0:
345,335,102342,2,0,P|374:351|432:352,1,80,0|0,2:0|2:0,2:0:0:0:
296,273,102579,2,0,P|307:310|333:340,1,80,2|0,2:0|2:0,2:0:0:0:
424,344,102737,5,0,3:0:0:0:
440,208,102895,1,0,2:0:0:0:
440,208,102974,1,0,2:0:0:0:
440,208,103053,1,12,1:2:0:0:
456,72,103211,1,0,2:0:0:0:
256,368,103368,5,0,3:1:0:0:
424,200,103526,1,0,3:2:0:0:
424,200,103605,1,0,2:0:0:0:
424,200,103684,1,8,1:2:0:0:
288,8,103842,1,0,1:2:0:0:
144,320,104000,5,2,3:2:0:0:
328,208,104158,1,0,2:0:0:0:
328,208,104237,1,0,2:0:0:0:
328,208,104316,1,8,1:2:0:0:
176,32,104474,1,0,2:0:0:0:
48,336,104632,5,0,3:1:0:0:
312,216,104790,1,4,3:2:0:0:
312,216,104868,1,0,2:0:0:0:
312,216,104947,1,8,1:2:0:0:
80,16,105105,1,4,3:2:0:0:
8,64,105263,5,4,3:1:0:0:
28,85,105342,1,0,2:0:0:0:
55,98,105421,1,8,3:0:0:0:
85,101,105500,1,8,3:0:0:0:
114,95,105579,1,4,3:0:0:0:
138,112,105658,1,4,3:0:0:0:
167,119,105737,1,4,1:2:0:0:
197,116,105816,1,0,2:0:0:0:
224,104,105895,6,0,P|256:72|264:40,1,53.3333333333333,0|0,1:0|2:0,2:0:0:0:
344,16,106105,1,2,2:0:0:0:
440,48,106211,2,0,P|459:66|483:76,1,53.3333333333333,8|0,3:0|2:0,2:0:0:0:
344,16,106421,1,2,2:0:0:0:
352,96,106526,6,0,L|368:232,1,120,4|0,1:2|2:0,2:0:0:0:
368,232,106842,1,2,1:2:0:0:
496,168,107000,1,2,1:2:0:0:
152,200,107158,5,2,1:2:0:0:
336,304,107316,1,2,1:2:0:0:
336,304,107395,1,0,2:0:0:0:
336,304,107474,1,2,1:2:0:0:
312,88,107632,1,2,1:2:0:0:
288,240,107790,1,2,2:0:0:0:
288,240,116632,5,0,3:0:0:0:
16,352,116947,2,0,B|120:288|144:368|248:304,1,240,0|0,3:0|2:0,2:0:0:0:
288,240,117579,2,0,L|296:176,1,60.0000000000002,0|0,3:0|3:0,2:0:0:0:
272,48,117895,5,4,3:2:0:0:
192,16,118053,1,0,2:0:0:0:
104,24,118211,1,0,3:0:0:0:
40,80,118368,1,0,2:0:0:0:
8,160,118526,1,0,3:2:0:0:
40,280,118684,1,0,2:0:0:0:
24,168,118842,1,0,3:0:0:0:
56,288,119000,1,0,2:0:0:0:
128,336,119158,5,0,3:2:0:0:
192,272,119316,1,0,2:0:0:0:
280,256,119474,1,0,3:0:0:0:
360,296,119632,1,0,2:0:0:0:
400,376,119790,1,0,3:2:0:0:
504,304,119947,1,0,2:0:0:0:
408,360,120105,1,0,3:0:0:0:
512,288,120263,1,0,2:0:0:0:
496,208,120421,5,0,3:0:0:0:
424,160,120579,1,0,2:0:0:0:
392,80,120737,1,0,3:0:0:0:
424,0,120895,1,0,2:0:0:0:
424,0,120974,1,0,2:0:0:0:
424,0,121053,1,0,3:0:0:0:
376,72,121211,1,0,2:0:0:0:
296,104,121368,1,0,3:0:0:0:
216,72,121526,1,0,2:0:0:0:
216,72,121605,1,0,2:0:0:0:
216,72,121684,5,0,3:0:0:0:
288,120,121842,1,0,2:0:0:0:
320,200,122000,1,0,3:0:0:0:
288,280,122158,1,0,2:0:0:0:
288,280,122237,1,0,2:0:0:0:
288,280,122316,2,0,P|248:312|216:312,1,60.0000000000002,0|0,3:0|2:0,2:0:0:0:
104,376,122632,2,0,P|53:370|16:328,1,90.0000000000002,0|0,2:0|2:0,2:0:0:0:
88,304,122947,5,0,1:0:0:0:
8,224,123105,1,0,1:0:0:0:
144,256,123263,1,0,1:0:0:0:
15,217,123421,1,0,1:0:0:0:
160,184,123579,1,0,1:0:0:0:
20,208,123737,1,0,1:0:0:0:
144,112,123895,1,0,1:0:0:0:
23,199,124053,1,0,1:0:0:0:
96,56,124211,5,8,1:2:0:0:
368,88,124368,1,8,1:2:0:0:
112,45,124526,1,8,1:2:0:0:
416,160,124684,1,8,1:2:0:0:
131,39,124842,1,8,1:2:0:0:
400,264,125000,1,8,1:2:0:0:
151,38,125158,1,8,1:2:0:0:
296,344,125316,1,8,1:2:0:0:
72,336,125474,6,0,P|88:328|128:320,1,30.0000000000001,8|0,1:2|2:0,2:0:0:0:
208,320,125632,2,0,P|190:316|149:319,1,30.0000000000001,0|0,1:0|1:0,2:0:0:0:
48,320,125790,2,0,P|64:312|112:304,1,40,8|0,1:2|2:0,2:0:0:0:
227,298,125947,2,0,P|209:294|161:299,1,40,0|0,1:0|1:0,2:0:0:0:
16,288,126105,2,0,P|56:288|88:280,1,60,8|0,1:2|2:0,2:0:0:0:
249,259,126263,2,0,P|210:269|177:269,1,60,0|0,1:0|1:0,2:0:0:0:
0,232,126421,2,0,P|40:248|80:256,1,80,8|0,1:2|2:0,2:0:0:0:
250,200,126579,2,0,P|215:225|178:243,1,80,0|0,1:0|1:0,2:0:0:0:
120,192,126737,5,10,1:2:0:0:
96,32,126895,1,8,1:2:0:0:
416,32,127053,1,10,1:2:0:0:
392,192,127211,1,8,1:2:0:0:
56,112,127368,5,8,1:2:0:0:
256,8,127526,1,8,1:2:0:0:
256,8,127605,1,0,2:0:0:0:
256,8,127684,1,8,1:2:0:0:
456,112,127842,1,8,1:2:0:0:
256,336,128000,5,4,2:0:0:0:
256,336,133053,6,0,L|344:320,1,80,12|8,3:2|3:2,2:0:0:0:
432,304,133368,2,0,L|520:288,1,80,8|10,3:2|3:2,2:0:0:0:
424,383,133684,2,0,L|431:303,1,80,8|8,3:2|3:2,2:0:0:0:
440,208,134000,2,0,L|447:128,1,80,10|8,3:2|3:2,2:0:0:0:
456,40,134316,5,10,1:2:0:0:
336,16,134474,1,8,1:2:0:0:
232,80,134632,1,8,1:2:0:0:
112,56,134790,1,8,1:2:0:0:
8,120,134947,2,0,P|-8:160|8:216,1,80,10|8,1:2|1:2,2:0:0:0:
256,232,135263,2,0,P|272:192|256:136,1,80,8|8,1:2|1:2,2:0:0:0:
128,352,140000,6,0,P|120:344|104:344,7,20,2|0|0|0|0|0|0|0,1:2|2:0|2:0|2:0|1:0|2:0|2:0|2:0,2:0:0:0:
96,344,140316,2,0,P|120:296|104:256,1,90.0000000000002,2|0,1:2|2:0,2:0:0:0:
72,200,140632,6,0,L|-24:192,1,80,4|0,3:1|2:0,2:0:0:0:
312,232,140947,2,0,L|232:238,1,80,4|0,1:2|2:0,2:0:0:0:
448,40,141263,1,0,3:0:0:0:
384,192,141421,1,0,2:0:0:0:
384,192,141500,1,0,2:0:0:0:
384,192,141579,1,8,1:0:0:0:
200,176,141737,1,2,1:2:0:0:
336,128,141895,6,0,B|424:88|400:152|504:112,1,160,0|8,3:2|1:0,2:0:0:0:
480,344,142368,2,0,P|424:344|400:328,1,80,0|2,2:0|3:2,2:0:0:0:
304,200,142684,2,0,P|264:216|256:216,1,40,0|0,2:0|2:0,2:0:0:0:
144,240,142842,2,0,P|116:191|117:162,1,80,8|0,1:0|1:0,2:0:0:0:
40,72,143158,6,0,P|96:40|160:56,1,120,2|0,3:2|2:0,2:0:0:0:
160,64,143474,2,0,L|256:56,1,80,8|0,1:0|3:0,2:0:0:0:
408,40,143790,1,2,2:0:0:0:
312,24,143947,1,0,3:0:0:0:
504,56,144105,1,8,1:0:0:0:
440,160,144263,1,2,1:2:0:0:
440,160,144342,1,2,1:2:0:0:
440,160,144421,5,2,3:2:0:0:
289,179,144579,1,0,2:0:0:0:
382,299,144737,2,0,P|392:256|368:224,1,80,8|0,1:0|2:0,2:0:0:0:
224,232,145053,1,0,3:0:0:0:
73,251,145211,1,2,1:2:0:0:
166,371,145368,2,0,P|176:328|152:296,1,80,8|2,1:0|1:2,2:0:0:0:
56,264,145684,6,0,B|24:280|24:280|16:192|16:192|48:176,1,160,4|4,3:1|1:2,2:0:0:0:
128,136,146158,2,0,B|160:120|160:120|224:128,1,80,0|2,2:0|3:2,2:0:0:0:
56,88,146474,1,0,2:0:0:0:
248,256,146632,2,0,B|280:272|280:272|344:264,1,80,8|2,1:0|1:2,2:0:0:0:
456,304,146947,6,0,B|400:312|400:312|376:344|376:344|312:352,1,160,2|8,3:2|1:0,2:0:0:0:
448,384,147421,1,0,2:0:0:0:
448,384,147500,1,0,2:0:0:0:
448,384,147579,1,2,3:2:0:0:
232,336,147737,1,0,2:0:0:0:
456,376,147895,2,0,L|464:296,1,80,8|8,1:0|1:0,2:0:0:0:
512,224,148211,6,0,P|504:152|464:136,1,120,2|0,3:2|2:0,2:0:0:0:
472,120,148526,2,0,L|368:128,1,80,8|0,1:0|3:0,2:0:0:0:
192,184,148842,1,2,2:0:0:0:
120,112,149000,1,0,3:0:0:0:
146,13,149158,1,8,1:0:0:0:
120,112,149316,1,2,1:2:0:0:
22,139,149474,5,0,3:0:0:0:
22,139,149632,2,0,P|16:112|24:80,1,40,8|8,1:2|1:2,2:0:0:0:
146,13,149790,1,8,1:0:0:0:
146,13,149947,2,0,P|172:21|196:44,1,40,10|8,1:2|1:2,2:0:0:0:
192,184,150105,6,0,L|184:256,1,60,2|0,3:2|1:0,2:0:0:0:
96,368,150263,2,0,L|104:296,1,60,8|0,1:2|1:0,2:0:0:0:
240,304,150421,2,0,P|208:320|184:320,1,60,2|2,1:2|1:2,2:0:0:0:
48,248,150579,2,0,P|80:232|104:232,1,60,0|2,2:0|1:2,2:0:0:0:
312,344,150737,5,6,3:1:0:0:
408,320,150895,1,0,2:0:0:0:
480,256,151053,2,0,P|488:208|480:152,1,80,4|0,1:2|2:0,2:0:0:0:
232,144,151368,1,2,3:1:0:0:
280,72,151526,1,0,2:0:0:0:
280,72,151605,1,0,2:0:0:0:
280,72,151684,1,10,1:0:0:0:
368,80,151842,1,2,1:2:0:0:
475,163,152000,6,0,B|387:123|411:187|319:151,1,160,2|10,3:2|1:0,2:0:0:0:
280,72,152474,2,0,P|296:24|336:0,1,80,0|2,2:0|3:1,2:0:0:0:
192,216,152790,2,0,L|200:264,1,40,0|0,2:0|2:0,2:0:0:0:
7,56,152947,2,0,P|43:73|64:107,1,80,10|0,1:0|1:0,2:0:0:0:
32,176,153263,6,0,L|24:320,1,120,2|0,3:2|2:0,2:0:0:0:
16,312,153579,2,0,B|80:320|80:320|96:344,1,80,10|0,1:0|3:0,2:0:0:0:
152,384,153895,1,2,2:1:0:0:
408,352,154053,1,0,3:0:0:0:
280,368,154211,1,10,1:0:0:0:
456,288,154368,1,2,1:2:0:0:
456,288,154447,1,2,1:2:0:0:
456,288,154526,5,2,3:2:0:0:
288,264,154684,1,0,2:0:0:0:
392,130,154842,2,0,P|400:176|384:216,1,80,10|0,1:0|2:0,2:0:0:0:
216,224,155158,1,2,3:1:0:0:
48,200,155316,1,2,1:2:0:0:
152,66,155474,2,0,P|160:112|144:152,1,80,10|2,1:0|1:2,2:0:0:0:
32,216,155790,6,0,B|0:264|24:312|24:312|64:280|112:304,1,160,6|4,3:1|1:2,2:0:0:0:
144,328,156263,1,0,2:0:0:0:
408,344,156421,2,0,P|424:288|416:256,1,80,2|0,3:2|2:0,2:0:0:0:
320,240,156737,2,0,P|304:296|312:328,1,80,8|2,1:0|1:2,2:0:0:0:
408,248,157053,6,0,B|424:216|424:216|416:160,1,80,2|0,3:1|2:0,2:0:0:0:
320,144,157368,2,0,B|304:184|304:184|312:232,1,80,10|0,1:0|2:0,2:0:0:0:
408,152,157684,1,2,3:1:0:0:
424,48,157842,1,0,2:0:0:0:
328,16,158000,1,10,1:0:0:0:
312,120,158158,1,8,1:0:0:0:
96,112,158316,6,0,P|50:103|17:64,1,90.0000000000002,4|0,2:0|2:0,2:0:0:0:
91,27,158632,1,0,1:0:0:0:
105,54,158711,1,0,1:0:0:0:
106,84,158790,1,0,1:0:0:0:
95,111,158868,1,0,1:0:0:0:
168,192,158947,6,0,P|228:214|289:189,1,120,4|0,2:0|2:0,2:0:0:0:
228,98,159263,1,0,1:0:0:0:
193,118,159342,1,0,1:0:0:0:
171,151,159421,1,0,1:0:0:0:
168,192,159500,1,0,1:0:0:0:
120,304,159579,6,0,P|72:352|-32:336,1,150,4|0,2:0|2:0,2:0:0:0:
14,218,159895,1,0,1:0:0:0:
62,225,159974,1,0,1:0:0:0:
101,257,160053,1,0,1:0:0:0:
119,303,160132,1,0,1:0:0:0:
80,376,160211,6,0,L|134:382,1,30.0000000000001,0|0,1:0|1:0,2:0:0:0:
192,336,160368,2,0,L|264:344,1,40,0|0,1:0|1:0,2:0:0:0:
296,296,160526,2,0,L|350:302,1,50,0|0,1:0|1:0,2:0:0:0:
408,256,160684,2,0,L|480:264,1,60,0|0,1:0|1:0,2:0:0:0:
488,64,160842,6,0,L|496:0,1,40,6|0,2:0|2:0,2:0:0:0:
408,80,161000,1,0,1:0:0:0:
408,80,161079,1,0,1:0:0:0:
408,80,161158,1,0,1:0:0:0:
408,80,161237,1,0,1:0:0:0:
408,80,161316,6,0,L|416:16,1,40,6|0,2:0|2:0,2:0:0:0:
328,96,161474,1,0,1:0:0:0:
328,96,161553,1,0,1:0:0:0:
328,96,161632,1,0,1:0:0:0:
328,96,161711,1,0,1:0:0:0:
328,96,161790,6,0,L|336:32,1,40.0000000000001,6|0,2:0|2:0,2:0:0:0:
256,56,162026,1,0,2:0:0:0:
184,96,162105,6,0,L|176:32,1,40,6|0,2:0|2:0,2:0:0:0:
104,80,162263,1,0,1:0:0:0:
104,80,162342,1,0,1:0:0:0:
104,80,162421,1,0,1:0:0:0:
104,80,162500,1,0,1:0:0:0:
104,80,162579,6,0,L|96:16,1,40,6|0,2:0|2:0,2:0:0:0:
24,64,162737,1,0,1:0:0:0:
24,64,162816,1,0,1:0:0:0:
24,64,162895,1,0,1:0:0:0:
24,64,162974,1,0,1:0:0:0:
24,64,163053,6,0,L|16:0,3,40,8|0|0|0,1:3|1:0|2:0|2:0,2:0:0:0:
287,220,163368,6,0,P|313:225|347:216,1,40,4|0,3:1|2:0,2:0:0:0:
264,150,163526,2,0,P|256:125|231:100,1,40,0|0,1:0|1:0,2:0:0:0:
215,205,163684,2,0,P|198:225|189:259,1,40,0|0,1:0|1:0,2:0:0:0:
327,223,163842,1,0,1:0:0:0:
327,223,163921,1,0,1:0:0:0:
327,223,164000,6,0,P|357:212|388:192,1,50,0|0,1:0|1:0,2:0:0:0:
248,114,164158,2,0,P|224:94|191:77,1,50,0|0,1:0|1:0,2:0:0:0:
192,237,164316,2,0,P|185:268|188:305,1,50,0|8,1:0|2:3,2:0:0:0:
372,203,164474,1,8,2:3:0:0:
372,203,164553,1,0,2:0:0:0:
372,203,164632,6,0,P|409:167|418:134,1,60,4|0,1:0|2:0,2:0:0:0:
207,84,164790,2,0,P|158:69|124:77,1,60,0|0,2:0|2:0,2:0:0:0:
185,286,164947,2,0,P|196:335|220:360,1,60,0|0,1:0|1:0,2:0:0:0:
412,160,165105,1,0,1:0:0:0:
412,160,165184,1,0,1:0:0:0:
412,160,165263,6,0,P|416:111|399:69,1,80,8|0,3:0|3:0,2:0:0:0:
150,69,165421,2,0,P|105:89|77:125,1,80,8|0,3:0|3:0,2:0:0:0:
201,342,165579,2,0,P|241:370|286:377,1,80,8|0,3:0|3:0,2:0:0:0:
406,82,165737,1,8,3:0:0:0:
406,82,165816,1,0,3:0:0:0:
406,82,165895,6,0,P|446:109|491:116,1,80,4|2,3:1|2:0,2:0:0:0:
476,116,166842,1,2,2:0:0:0:
476,116,167158,6,0,P|431:137|403:172,1,80,0|2,2:0|2:0,2:0:0:0:
411,159,168105,1,2,2:0:0:0:
411,159,168421,6,0,L|408:320,1,160,4|8,3:1|1:2,2:0:0:0:
408,336,168895,1,8,3:2:0:0:
488,296,169053,1,0,3:0:0:0:
368,248,169211,1,8,1:2:0:0:
240,272,169368,1,8,1:2:0:0:
152,368,169526,1,8,3:2:0:0:
24,88,169684,5,4,1:2:0:0:
46,74,169763,1,4,2:3:0:0:
73,72,169842,1,4,2:3:0:0:
97,82,169921,1,0,3:0:0:0:
134,147,170000,5,8,3:0:0:0:
157,160,170079,1,8,2:3:0:0:
184,162,170158,1,4,2:3:0:0:
208,152,170237,1,0,3:0:0:0:
271,113,170316,5,0,3:0:0:0:
288,64,170395,1,0,1:0:0:0:
320,32,170474,1,0,1:0:0:0:
360,16,170553,1,0,1:0:0:0:
408,16,170632,5,2,1:2:0:0:
476,52,170711,1,2,1:2:0:0:
497,126,170790,1,2,1:2:0:0:
457,193,170868,1,0,1:0:0:0:
440,200,170947,6,0,L|536:192,1,80,4|0,3:1|2:0,2:0:0:0:
200,232,171263,2,0,L|280:238,1,80,4|0,1:2|2:0,2:0:0:0:
64,40,171579,1,0,3:0:0:0:
128,192,171737,1,2,2:0:0:0:
128,192,171816,1,0,2:0:0:0:
128,192,171895,1,8,1:0:0:0:
312,176,172053,1,2,2:0:0:0:
176,128,172211,6,0,B|88:88|112:152|8:112,1,160,0|8,3:0|1:0,2:0:0:0:
32,344,172684,2,0,P|88:344|112:328,1,80,0|0,2:0|3:0,2:0:0:0:
208,200,173000,2,0,P|248:216|256:216,1,40,0|0,2:0|2:0,2:0:0:0:
368,240,173158,2,0,P|396:191|395:162,1,80,8|0,1:0|2:0,2:0:0:0:
472,72,173474,6,0,P|416:40|352:56,1,120,2|0,3:2|2:0,2:0:0:0:
352,64,173790,2,0,L|256:56,1,80,8|0,1:0|2:0,2:0:0:0:
104,40,174105,1,2,3:2:0:0:
200,24,174263,1,0,2:0:0:0:
8,56,174421,1,8,1:0:0:0:
72,160,174579,1,0,2:0:0:0:
72,160,174658,1,0,2:0:0:0:
72,160,174737,5,2,3:2:0:0:
223,179,174895,1,0,2:0:0:0:
130,299,175053,2,0,P|120:256|144:224,1,80,8|2,1:0|2:0,2:0:0:0:
288,232,175368,1,0,3:0:0:0:
439,251,175526,1,0,3:0:0:0:
346,371,175684,2,0,P|336:328|360:296,1,80,8|2,1:0|2:0,2:0:0:0:
456,264,176000,6,0,B|488:280|488:280|496:192|496:192|464:176,1,160,4|8,3:1|1:0,2:0:0:0:
384,136,176474,2,0,B|352:120|352:120|288:128,1,80,0|2,2:0|3:2,2:0:0:0:
456,88,176790,1,0,2:0:0:0:
248,48,176947,2,0,B|216:64|216:64|152:56,1,80,8|8,1:0|1:2,2:0:0:0:
24,80,177263,5,4,3:1:0:0:
72,152,177579,1,0,2:0:0:0:
152,136,177895,1,0,2:0:0:0:
88,24,178211,1,2,2:0:0:0:
