osu file format v14

[General]
AudioFilename: HoneyWorks,GUMI.ogg
AudioLeadIn: 0
PreviewTime: 139217
Countdown: 0
SampleSet: Soft
StackLeniency: 0.7
Mode: 0
LetterboxInBreaks: 0
WidescreenStoryboard: 0

[Editor]
Bookmarks: 12263,26158,37526,55211,60263,65316,85526,128474,141105,161237,171421
DistanceSpacing: 0.9
BeatDivisor: 2
GridSize: 32
TimelineZoom: 1.7

[Metadata]
Title:Hatsukoi no Ehon
TitleUnicode:初恋の絵本
Artist:HoneyWorks feat. GUMI
ArtistUnicode:HoneyWorks feat. GUMI
Creator:yf_bmp
Version:sahuang's Normal
Source:
Tags:VOCALOID We have always been 10 cm apart. Kokuhaku Jikkou Iinkai japanese pop itsudatte bokura no koi wa datta. centi 好きすぎてやばい。 ~告白実行委員会キャラクターソング集~ 東京ウインターセッション 告白実行委員会〜恋愛シリーズ〜 Sukisugiteyabai Kokuhakujikkouiinkai Character Song Shu Tokyo Winter Session picture book first love 初恋ノート Hatsukoi Note confession executive committee series vocaloid sahuang z1085684963 Pururut Karen Vert Garden Binguo
BeatmapID:4394877
BeatmapSetID:381779

[Difficulty]
HPDrainRate:4
CircleSize:3.7
OverallDifficulty:4.5
ApproachRate:6
SliderMultiplier:1.1
SliderTickRate:1

[Events]
//Background and Video events
0,0,"BG.jpg",0,0
//Break Periods
2,9008,10740
2,107990,111792
2,113042,116845
2,128200,132003
2,135779,138950
//Storyboard Layer 0 (Background)
//Storyboard Layer 1 (Fail)
//Storyboard Layer 2 (Pass)
//Storyboard Layer 3 (Foreground)
//Storyboard Layer 4 (Overlay)
//Storyboard Sound Samples

[TimingPoints]
-448,685.714285714286,4,2,1,70,1,0
237,-125,4,2,1,70,0,0
9837,631.578947368421,4,2,1,70,1,0
11633,315.789473684211,4,2,1,70,1,0
11790,315.789473684211,4,2,1,80,1,0
26947,-111.111111111111,4,2,1,50,0,0
34526,-100,4,2,1,60,0,0
37053,-111.111111111111,4,2,1,70,0,0
42105,-111.111111111111,4,2,1,80,0,0
42421,-100,4,2,1,60,0,0
43368,-100,4,2,1,80,0,0
43683,-100,4,2,1,40,0,0
43999,-100,4,2,1,60,0,0
44316,-100,4,2,1,80,0,0
63263,-100,4,2,1,50,0,0
64842,-90.9090909090909,4,2,1,80,0,1
74316,-90.9090909090909,4,2,1,80,0,0
74947,-90.9090909090909,4,2,1,80,0,1
82368,-90.9090909090909,4,2,1,80,0,0
85368,-100,4,2,1,80,0,0
100842,-100,4,2,2,80,0,0
101157,-100,4,2,1,80,0,0
107790,-100,4,2,1,60,0,0
122947,-100,4,2,1,70,0,0
140315,-100,4,2,1,60,0,0
140632,-90.9090909090909,4,2,1,80,0,1
150105,-90.9090909090909,4,2,1,80,0,0
150737,-90.9090909090909,4,2,1,80,0,1
160842,-100,4,2,1,80,0,0
170316,-100,4,2,1,60,0,0
170631,-100,4,2,1,70,0,0
170947,-100,4,2,1,80,0,0
180737,-100,4,2,1,20,0,0

[Colours]
Combo1 : 255,0,128
Combo2 : 128,255,0
Combo3 : 255,128,255
Combo4 : 252,14,55

[HitObjects]
72,110,237,6,0,P|114:106|167:111,1,88,0|2,2:0|2:0,2:0:0:0:
236,127,1609,1,0,2:0:0:0:
307,161,2294,2,0,P|350:164|394:160,2,88,2|0|2,2:0|2:0|2:0,2:0:0:0:
236,127,4352,1,0,2:0:0:0:
159,109,5037,6,0,P|155:152|159:196,2,88,2|2|2,2:0|2:0|2:0,2:0:0:0:
196,39,7094,1,0,2:0:0:0:
268,70,7780,2,0,L|319:82,1,44,2|0,2:0|2:0,2:0:0:0:
339,107,8466,2,0,L|389:101,1,44,2|0,2:0|2:0,2:0:0:0:
179,58,11790,6,0,P|99:29|16:81,2,165,4|2|4,2:1|2:0|2:3,2:0:0:0:
262,111,13053,2,0,P|313:120|369:101,1,110,4|0,2:0|2:0,2:0:0:0:
457,62,13684,2,0,L|480:170,1,110,8|2,2:3|2:0,2:0:0:0:
494,217,14158,1,0,3:0:0:0:
494,217,14316,6,0,P|437:220|386:255,1,110,4|0,2:0|2:0,2:0:0:0:
326,320,14947,2,0,L|199:315,1,110,8|4,2:3|2:3,2:0:0:0:
131,368,15579,2,0,B|99:312|134:260|134:260|99:210,1,165,4|6,2:0|2:0,2:0:0:0:
11,185,16368,2,0,L|12:74,1,110,0|0,1:0|1:0,2:0:0:0:
45,37,16842,6,0,P|101:29|166:45,1,110,4|0,2:0|3:0,2:0:0:0:
173,84,17316,1,8,3:0:0:0:
173,84,17474,2,0,P|226:94|280:86,1,110,8|4,3:0|3:0,2:0:0:0:
371,126,18105,2,0,P|393:186|377:241,2,110,4|2|0,2:0|2:0|3:0,2:0:0:0:
295,190,19053,2,0,L|230:189,1,55,0|0,1:0|1:0,2:0:0:0:
191,198,19368,6,0,P|140:219|86:215,1,110,4|0,2:0|3:0,2:0:0:0:
38,203,19842,1,0,3:0:0:0:
38,203,20000,2,0,L|41:83,1,110,0|0,3:0|1:0,2:0:0:0:
128,46,20632,2,0,P|187:59|241:49,1,110,8|8,2:0|2:0,2:0:0:0:
281,32,21105,1,8,2:0:0:0:
281,32,21263,2,0,L|283:89,1,55,0|0,3:0|3:0,2:0:0:0:
318,121,21579,2,0,L|316:178,1,55,4|0,1:2|1:0,2:0:0:0:
313,225,21895,5,4,2:0:0:0:
256,192,22053,12,0,24421,1:0:0:0:
495,120,25684,6,0,B|510:59|456:10|394:37|394:37|339:24|339:24|298:55|298:55|242:47,1,330,4|0,2:0|2:0,2:0:0:0:
143,41,26947,6,0,P|117:89|125:138,1,99.0000000000001,0|0,3:0|3:0,2:0:0:0:
202,171,27579,2,0,P|209:224|181:269,1,99.0000000000001,0|0,3:0|3:0,2:0:0:0:
151,285,28053,1,0,2:0:0:0:
151,285,28211,2,0,L|38:282,2,99.0000000000001,0|0|0,3:0|3:0|3:0,2:0:0:0:
203,357,29158,1,0,3:0:0:0:
291,347,29474,6,0,B|314:301|314:301|303:240,1,99.0000000000001,0|0,3:0|3:0,2:0:0:0:
227,208,30105,2,0,B|221:160|221:160|245:115,1,99.0000000000001,0|0,3:0|3:0,2:0:0:0:
291,103,30579,1,0,2:0:0:0:
291,103,30737,2,0,L|403:120,2,99.0000000000001,0|0|0,3:0|3:0|3:0,2:0:0:0:
259,19,31684,1,0,3:0:0:0:
174,46,32000,6,0,P|119:37|69:63,2,99.0000000000001,0|0|0,3:0|3:0|3:0,2:0:0:0:
133,125,32947,1,0,3:0:0:0:
204,178,33263,2,0,P|258:183|306:161,2,99.0000000000001,0|0|0,3:0|3:0|3:0,2:0:0:0:
133,125,34211,1,0,3:0:0:0:
71,202,34526,6,0,L|60:313,1,110,0|0,1:0|1:0,2:0:0:0:
154,343,35158,2,0,L|164:233,1,110,0|0,1:0|1:0,2:0:0:0:
136,137,35790,2,0,P|103:93|52:74,2,110,8|8|8,1:2|1:2|1:2,2:0:0:0:
179,169,36579,1,0,1:0:0:0:
179,169,36737,2,0,L|245:167,1,55,8|8,1:2|1:2,2:0:0:0:
269,194,37053,6,0,P|293:146|347:122,1,99.0000000000001,0|2,2:0|2:0,2:0:0:0:
396,184,37684,2,0,P|365:240|314:257,1,99.0000000000001,0|2,2:0|2:0,2:0:0:0:
248,274,38316,1,0,2:0:0:0:
172,321,38632,1,2,2:0:0:0:
97,272,38947,2,0,L|80:166,1,99.0000000000001,0|2,2:0|2:0,2:0:0:0:
90,85,39579,6,0,P|140:76|195:89,1,99.0000000000001,0|2,2:0|2:0,2:0:0:0:
224,109,40053,1,0,2:0:0:0:
344,165,40526,1,2,2:0:0:0:
410,223,40842,2,0,P|360:249|296:236,1,99.0000000000001,0|2,2:0|2:0,2:0:0:0:
276,231,41316,2,0,P|214:221|113:245,1,148.5,0|2,2:0|2:0,2:0:0:0:
64,311,42105,5,6,1:2:0:0:
5,230,42421,2,0,L|12:115,1,110,8|8,1:2|1:2,2:0:0:0:
28,75,42895,1,8,1:2:0:0:
28,75,43053,2,0,L|91:75,1,55,8|8,1:2|1:2,2:0:0:0:
134,74,43368,2,0,P|133:137|154:187,2,110,0|0|0,1:0|1:0|1:0,2:0:0:0:
216,18,44316,1,8,3:0:0:0:
293,79,44632,6,0,P|294:142|273:192,1,110,4|8,3:1|1:2,2:0:0:0:
243,221,45105,1,2,2:0:0:0:
243,221,45263,2,0,L|370:224,1,110,0|8,3:0|1:2,2:0:0:0:
391,254,45737,1,2,2:0:0:0:
391,254,45895,2,0,P|412:304|401:363,2,110,0|8|0,3:0|1:2|3:0,2:0:0:0:
312,314,46842,1,8,1:2:0:0:
224,359,47158,6,0,L|77:355,1,110,0|8,3:0|1:2,2:0:0:0:
64,362,47632,1,2,2:0:0:0:
64,362,47790,2,0,P|79:299|56:236,1,110,0|8,3:0|1:2,2:0:0:0:
36,225,48263,1,2,2:0:0:0:
36,225,48421,2,0,P|16:176|27:115,2,110,0|12|0,3:0|1:2|3:0,2:0:0:0:
113,162,49368,1,8,1:2:0:0:
163,76,49684,6,0,P|217:66|268:84,2,110,4|8|0,2:0|1:2|3:0,2:0:0:0:
212,161,50632,1,8,1:2:0:0:
125,208,50947,2,0,L|106:323,1,110,0|12,3:0|1:2,2:0:0:0:
195,362,51579,2,0,L|213:253,1,110,0|8,3:0|1:2,2:0:0:0:
283,183,52211,6,0,P|337:173|388:191,2,110,2|8|0,3:2|1:2|3:0,2:0:0:0:
190,148,53158,1,8,1:2:0:0:
203,245,53474,2,0,L|184:360,1,110,0|8,3:0|1:2,2:0:0:0:
279,384,54105,2,0,L|297:275,1,110,0|4,3:0|1:2,2:0:0:0:
358,197,54737,6,0,L|433:191,1,55,0|0,1:0|1:0,2:0:0:0:
456,169,55053,2,0,P|476:118|468:64,2,110,8|2|0,3:0|3:2|3:0,2:0:0:0:
387,103,56000,2,0,L|334:89,1,55,0|0,1:0|1:0,2:0:0:0:
287,107,56316,2,0,P|269:158|276:218,2,110,4|2|0,3:0|3:2|3:0,2:0:0:0:
206,49,57263,6,0,P|180:60|153:62,1,55,0|0,1:0|1:0,2:0:0:0:
111,36,57579,2,0,L|95:161,2,110,8|2|0,3:0|3:2|3:0,2:0:0:0:
20,76,58526,2,0,B|8:152|8:152|37:195|23:245,2,165,6|2|2,2:0|2:0|3:2,2:0:0:0:
111,36,59790,6,0,L|221:46,1,110,4|2,2:1|2:0,2:0:0:0:
386,154,60737,1,2,2:0:0:0:
345,347,61368,1,2,2:0:0:0:
215,201,62000,1,2,2:0:0:0:
163,115,62316,6,0,B|206:91|250:95|286:131|286:131|310:114|310:114|344:114|344:114|358:63|393:40|441:41,1,330,2|2,2:0|2:0,2:0:0:0:
439,140,63579,1,2,2:0:0:0:
379,328,64211,2,0,L|485:298,1,110,2|2,2:0|2:0,2:0:0:0:
406,222,64842,6,0,L|286:255,1,121,4|4,3:1|1:2,2:0:0:0:
247,354,65474,1,0,3:0:0:0:
164,282,65790,1,8,1:0:0:0:
70,337,66105,2,0,P|56:278|72:220,1,121,2|8,3:2|1:0,2:0:0:0:
178,197,66737,2,0,P|170:153|155:131,1,60.5,0|2,3:2|2:0,2:0:0:0:
109,122,67053,2,0,L|126:52,1,60.5,8|0,1:0|2:0,2:0:0:0:
163,26,67368,5,2,3:2:0:0:
271,30,67684,2,0,B|330:36|330:36|381:83,2,121,8|2|8,1:0|3:2|1:0,2:0:0:0:
287,138,68632,1,2,3:2:0:0:
181,163,68947,2,0,B|158:219|158:219|176:285,2,121,4|0|8,1:2|3:0|1:0,2:0:0:0:
273,221,69895,5,4,3:1:0:0:
377,191,70211,1,8,1:0:0:0:
437,280,70526,2,0,P|429:323|414:346,1,60.5,0|2,3:2|2:0,2:0:0:0:
366,342,70842,2,0,L|296:325,1,60.5,8|0,1:0|2:0,2:0:0:0:
256,348,71158,1,2,3:2:0:0:
155,306,71474,1,8,1:0:0:0:
50,335,71790,2,0,P|33:278|54:208,1,121,0|8,3:0|1:0,2:0:0:0:
109,130,72421,6,0,B|88:88|106:49|106:49|99:10,2,121,2|8|2,3:2|1:0|3:2,2:0:0:0:
209,88,73368,1,8,1:0:0:0:
312,123,73684,2,0,P|319:93|315:64,2,60.5,0|8|0,1:0|1:2|1:0,2:0:0:0:
274,163,74158,1,8,1:2:0:0:
274,163,74316,2,0,B|296:195|296:195|296:290,1,121,2|2,1:2|1:2,2:0:0:0:
255,313,74790,1,2,2:0:0:0:
255,313,74947,6,0,P|190:305|96:303,1,121,6|6,3:1|1:2,2:0:0:0:
26,321,75579,1,0,3:0:0:0:
51,215,75895,1,10,1:0:0:0:
77,109,76211,2,0,P|133:88|193:107,1,121,2|6,3:1|1:2,2:0:0:0:
260,187,76842,2,0,P|303:179|326:164,1,60.5,0|2,3:2|2:0,2:0:0:0:
335,118,77158,2,0,L|405:135,1,60.5,8|0,1:0|2:0,2:0:0:0:
436,166,77474,6,0,L|428:25,2,121,2|10|2,3:1|1:0|3:1,2:0:0:0:
441,274,78421,1,10,1:0:0:0:
343,322,78737,2,0,L|223:300,1,121,2|4,3:1|1:2,2:0:0:0:
119,332,79368,2,0,P|86:329|45:314,1,60.5,2|2,3:2|2:0,2:0:0:0:
26,277,79684,2,0,P|29:240|43:207,1,60.5,8|0,1:0|2:0,2:0:0:0:
68,173,80000,6,0,P|123:146|181:158,1,121,4|10,3:1|1:0,2:0:0:0:
248,241,80632,1,2,3:1:0:0:
292,141,80947,1,8,1:0:0:0:
360,225,81263,2,0,L|461:217,1,60.5,4|0,3:1|2:0,2:0:0:0:
474,210,81579,2,0,P|494:158|453:106,1,121,2|2,2:0|2:0,2:0:0:0:
384,28,82211,1,2,2:0:0:0:
256,192,82368,12,0,84421,2:0:0:0:
373,73,85053,5,0,1:0:0:0:
289,125,85368,2,0,B|250:126|250:126|219:113|219:113|181:113,2,110,0|0|0,1:0|1:0|1:0,2:0:0:0:
333,157,86158,1,0,1:0:0:0:
333,157,86316,2,0,B|325:206|337:267,1,110,0|0,1:0|1:0,2:0:0:0:
260,319,86947,2,0,B|211:311|150:323,1,110,8|2,3:0|2:0,2:0:0:0:
100,321,87421,1,2,2:0:0:0:
100,321,87579,6,0,P|76:240|85:179,1,110,4|8,3:1|1:0,2:0:0:0:
89,167,88053,1,2,2:0:0:0:
119,72,88368,2,0,L|107:13,2,55,2|8|2,2:0|1:0|2:0,2:0:0:0:
168,80,88842,2,0,P|221:96|273:81,1,110,0|8,3:0|1:0,2:0:0:0:
344,13,89474,2,0,P|396:-1|448:13,1,110,0|8,3:0|1:0,2:0:0:0:
491,38,89947,1,2,2:0:0:0:
491,38,90105,6,0,B|498:98|498:98|482:175,1,110,2|8,3:2|1:0,2:0:0:0:
470,193,90579,1,2,2:0:0:0:
440,287,90895,2,0,L|452:346,2,55,2|8|2,2:0|1:0|2:0,2:0:0:0:
396,262,91368,2,0,P|343:246|291:261,1,110,2|8,3:2|1:0,2:0:0:0:
227,336,92000,2,0,P|175:350|123:336,1,110,0|8,2:0|1:0,2:0:0:0:
73,324,92474,1,2,2:0:0:0:
73,324,92632,6,0,B|68:204,1,110,2|8,3:2|1:0,2:0:0:0:
30,181,93105,2,0,P|21:118|46:65,1,110,2|2,2:0|2:0,2:0:0:0:
66,35,93579,1,8,1:0:0:0:
149,88,93895,2,0,L|287:81,1,110,2|8,3:2|1:0,2:0:0:0:
348,125,94526,2,0,P|402:142|457:128,1,110,0|8,3:0|1:0,2:0:0:0:
405,42,95158,6,0,B|431:104|399:149|399:149|368:193|387:253,1,220,2|2,3:2|3:2,2:0:0:0:
391,350,96105,1,8,1:0:0:0:
306,296,96421,2,0,P|261:317|200:324,1,110,0|8,3:0|1:0,2:0:0:0:
102,316,97053,1,0,3:0:0:0:
20,260,97368,2,0,P|10:227|12:206,1,55,8|2,1:0|2:0,2:0:0:0:
36,163,97684,6,2,L|151:118,1,110,4|12,3:1|1:2,2:1:0:0:
230,86,98316,2,0,L|294:76,1,55,0|2,3:0|2:0,2:0:0:0:
332,92,98632,1,8,1:2:0:0:
401,163,98947,2,2,P|397:217|371:270,1,110,2|8,3:2|1:2,2:1:0:0:
280,233,99579,2,2,P|275:287|301:336,1,110,0|8,3:2|1:2,2:1:0:0:
373,266,100211,5,2,3:2:0:0:
396,361,100526,1,8,1:2:0:0:
300,335,100842,2,0,P|239:339|185:337,1,110,2|8,3:1|1:2,2:0:0:0:
100,295,101474,2,0,P|66:281|51:263,1,55,2|0,3:2|2:0,2:0:0:0:
37,220,101790,2,0,P|51:186|69:171,1,55,8|0,1:2|2:0,2:0:0:0:
89,131,102105,2,0,L|202:115,1,110,0|8,3:1|1:2,2:0:0:0:
240,88,102579,1,2,2:0:0:0:
240,88,102737,6,2,P|293:76|345:91,2,110,0|12|0,3:0|1:2|3:1,2:1:0:0:
289,174,103684,1,8,1:2:0:0:
334,262,104000,2,2,P|280:273|228:258,2,110,2|8|0,3:2|1:2|3:1,2:1:0:0:
342,163,104947,2,0,P|329:130|313:115,1,55,8|0,1:2|2:0,2:0:0:0:
269,98,105263,6,0,L|161:77,1,110,4|4,3:1|3:0,2:0:0:0:
115,75,105737,1,4,1:2:0:0:
115,75,105895,2,0,L|125:133,1,55,0|0,1:0|3:1,2:0:0:0:
93,168,106211,2,0,L|83:226,1,55,8|4,3:0|3:0,2:0:0:0:
66,268,106526,2,2,P|120:267|185:268,1,110,4|2,1:2|1:2,2:1:0:0:
270,237,107158,2,0,B|324:246|324:246|392:227,1,110,2|2,1:2|1:2,2:0:0:0:
419,203,107632,1,2,1:2:0:0:
419,203,107790,5,2,1:0:0:0:
4,76,112842,5,2,3:0:0:0:
474,39,117895,6,0,B|436:77|436:77|268:49,1,220,4|0,3:2|3:2,2:0:0:0:
176,24,118842,1,0,3:0:0:0:
76,29,119158,2,0,P|62:81|78:133,1,110,0|0,3:2|3:0,2:0:0:0:
172,165,119790,2,0,P|188:216|174:269,1,110,0|0,3:2|3:0,2:0:0:0:
140,305,120263,1,0,3:0:0:0:
140,305,120421,6,0,P|199:299|361:306,1,220,0|0,3:0|3:0,2:0:0:0:
441,360,121368,1,0,3:0:0:0:
449,261,121684,2,0,P|463:211|451:156,1,110,0|0,3:0|3:0,2:0:0:0:
426,111,122158,1,0,3:0:0:0:
426,111,122316,2,0,L|304:111,1,110,0|0,3:0|2:0,2:0:0:0:
241,46,122947,6,0,L|119:38,1,110,0|0,1:0|1:0,2:0:0:0:
82,50,123421,1,0,1:0:0:0:
82,50,123579,2,0,P|93:106|75:164,1,110,0|0,1:0|1:0,2:0:0:0:
26,240,124211,1,8,1:2:0:0:
90,314,124526,1,8,1:2:0:0:
181,277,124842,2,0,L|248:271,1,55,8|8,1:2|1:2,2:0:0:0:
272,238,125158,2,0,L|339:244,1,55,8|8,1:2|1:2,2:0:0:0:
374,255,125474,5,8,1:2:0:0:
256,192,125632,12,4,128000,2:0:0:0:
256,192,133053,12,4,135579,2:0:0:0:
126,75,140000,6,0,P|71:70|22:92,1,110,2|2,1:2|1:0,2:0:0:0:
87,165,140632,6,0,P|121:214|176:235,1,121,4|8,3:1|1:0,2:0:0:0:
191,121,141263,1,0,3:0:0:0:
287,70,141579,1,8,1:0:0:0:
392,98,141895,2,0,P|406:157|390:215,1,121,0|8,3:2|1:0,2:0:0:0:
291,258,142526,2,0,P|274:316|289:375,1,121,2|8,3:2|1:0,2:0:0:0:
382,319,143158,5,2,3:2:0:0:
390,214,143474,2,0,B|414:174|385:135|408:93,2,121,8|2|8,1:0|2:0|1:0,2:0:0:0:
382,319,144421,1,2,3:2:0:0:
280,293,144737,2,0,B|244:262|201:284|163:254,2,121,8|0|8,1:0|3:0|1:0,2:0:0:0:
377,341,145684,6,0,L|446:313,1,60.5,4|2,3:1|2:0,2:0:0:0:
466,274,146000,2,0,L|438:205,1,60.5,4|0,1:2|2:0,2:0:0:0:
464,167,146316,2,0,P|474:100|455:48,1,121,2|8,3:2|1:0,2:0:0:0:
358,97,146947,1,2,3:2:0:0:
297,6,147263,2,0,L|217:21,1,60.5,8|0,2:1|2:0,2:0:0:0:
184,23,147579,2,0,P|119:14|65:32,1,121,2|8,3:2|1:0,2:0:0:0:
18,128,148211,6,0,B|-3:170|15:209|15:209|8:248,2,121,2|8|2,3:2|1:0|2:0,2:0:0:0:
119,169,149158,1,8,1:0:0:0:
101,276,149474,2,0,L|89:339,2,60.5,0|8|8,3:0|1:2|1:0,2:0:0:0:
158,271,149947,1,10,1:2:0:0:
158,271,150105,2,0,B|201:208|180:144,1,121,2|2,3:2|1:2,2:0:0:0:
159,112,150579,1,2,1:0:0:0:
159,112,150737,6,0,B|223:96|293:90,1,121,6|4,3:1|1:2,2:0:0:0:
383,62,151368,1,2,3:1:0:0:
434,158,151684,2,0,P|425:199|412:218,1,60.5,10|0,1:0|2:0,2:0:0:0:
377,245,152000,2,0,L|237:262,1,121,2|10,3:2|1:0,2:0:0:0:
147,253,152632,2,0,L|143:177,1,60.5,2|0,3:1|2:0,2:0:0:0:
133,139,152947,2,0,P|142:110|174:89,1,60.5,10|0,1:0|2:0,2:0:0:0:
212,63,153263,6,0,B|266:37|266:37|331:41,2,121,2|10|2,3:2|1:0|2:1,2:0:0:0:
288,141,154211,1,10,1:0:0:0:
215,221,154526,2,0,B|269:250|269:250|333:242,2,121,2|10|2,3:2|1:0|3:1,2:0:0:0:
138,143,155474,1,10,1:0:0:0:
208,60,155790,6,0,P|268:42|333:47,1,121,6|4,3:1|1:2,2:0:0:0:
420,103,156421,1,2,3:2:0:0:
451,207,156737,2,0,L|445:277,1,60.5,8|0,1:0|2:0,2:0:0:0:
400,298,157053,2,0,L|272:310,1,121,2|10,3:1|1:0,2:0:0:0:
171,297,157684,1,2,3:1:0:0:
120,200,158000,1,10,1:0:0:0:
146,94,158316,6,0,L|263:61,1,121,4|0,2:0|1:0,2:0:0:0:
318,47,158790,1,0,1:0:0:0:
318,47,158947,2,0,P|333:106|332:166,1,121,4|0,2:0|1:0,2:0:0:0:
323,274,159579,2,0,L|197:301,1,121,4|0,2:0|1:0,2:0:0:0:
154,315,160053,1,0,1:0:0:0:
154,315,160211,2,0,P|138:256|139:196,1,121,0|0,1:0|1:0,2:0:0:0:
115,100,160842,6,0,P|170:103|214:136,1,110,6|0,2:0|1:0,2:0:0:0:
238,183,161316,1,6,2:0:0:0:
238,183,161474,2,0,P|301:186|346:171,1,110,0|6,1:0|2:0,1:0:0:0:
447,171,162105,2,0,L|441:280,1,110,6|0,2:0|1:0,2:0:0:0:
405,315,162579,2,0,B|349:326|349:326|299:302|299:302|240:307,1,165,6|8,2:0|1:3,2:0:0:0:
149,327,163368,5,4,3:1:0:0:
50,316,163684,2,0,P|30:306|9:280,1,55,0|0,1:0|2:0,2:0:0:0:
15,231,164000,2,0,P|25:211|51:190,1,55,0|0,1:0|2:0,2:0:0:0:
99,181,164316,1,8,3:0:0:0:
122,84,164632,2,0,P|167:112|227:128,1,110,4|0,1:0|1:0,2:0:0:0:
267,153,165105,1,0,1:0:0:0:
267,153,165263,2,0,L|277:211,1,55,8|8,3:0|3:0,2:0:0:0:
299,251,165579,2,0,L|289:309,1,55,8|8,3:0|3:0,2:0:0:0:
297,354,165895,6,0,L|425:349,1,110,4|2,3:1|2:0,2:0:0:0:
471,162,166842,1,2,2:0:0:0:
316,37,167474,1,2,2:0:0:0:
160,158,168105,2,0,P|191:181|210:184,1,55,2|0,2:0|2:0,2:0:0:0:
254,189,168421,6,0,L|289:305,1,110,4|8,3:1|1:2,2:0:0:0:
373,248,169053,2,0,L|341:142,1,110,0|8,3:0|1:2,2:0:0:0:
322,102,169526,1,2,1:0:0:0:
322,102,169684,2,0,P|269:75|217:79,1,110,4|8,1:2|3:0,2:0:0:0:
176,97,170158,1,4,2:3:0:0:
176,97,170316,2,0,L|172:212,1,110,0|2,3:0|1:2,2:0:0:0:
153,304,170947,6,0,P|206:313|258:296,2,110,4|4|0,3:1|1:2|3:0,2:0:0:0:
56,274,171895,1,8,1:0:0:0:
21,180,172211,2,0,P|2:143|3:117,1,55,0|0,3:0|2:0,2:0:0:0:
10,81,172526,2,0,P|22:45|46:27,1,55,8|0,1:0|2:0,2:0:0:0:
83,28,172842,2,0,P|141:21|191:35,1,110,0|8,3:0|1:0,2:0:0:0:
268,95,173474,5,2,3:2:0:0:
353,45,173790,2,0,L|470:8,2,110,8|2|8,1:0|3:2|1:0,2:0:0:0:
268,96,174737,1,2,3:2:0:0:
353,147,175053,2,0,L|470:184,2,110,8|0|8,1:0|3:0|1:0,2:0:0:0:
269,200,176000,6,0,P|210:196|157:215,1,110,4|8,3:1|1:0,2:0:0:0:
86,275,176632,2,0,P|93:323|98:337,1,55,2|0,3:2|2:0,2:0:0:0:
131,362,176947,2,0,P|179:355|193:350,1,55,8|0,1:2|2:0,2:0:0:0:
225,323,177263,2,0,P|280:322|348:337,2,110,4|2|2,3:1|2:0|2:0,2:0:0:0:
280,240,178211,1,2,2:0:0:0:
256,192,178368,12,0,180737,2:0:0:0:
