osu file format v14

[General]
AudioFilename: HoneyWorks,GUMI.ogg
AudioLeadIn: 0
PreviewTime: 139217
Countdown: 0
SampleSet: Soft
StackLeniency: 0.7
Mode: 0
LetterboxInBreaks: 0
WidescreenStoryboard: 0

[Editor]
Bookmarks: 85526,108263,118368,124842,161237
DistanceSpacing: 1.5
BeatDivisor: 4
GridSize: 4
TimelineZoom: 2.599999

[Metadata]
Title:Hatsukoi no Ehon
TitleUnicode:初恋の絵本
Artist:HoneyWorks feat. GUMI
ArtistUnicode:HoneyWorks feat. GUMI
Creator:yf_bmp
Version:Vert's Extra
Source:
Tags:VOCALOID We have always been 10 cm apart. Kokuhaku Jikkou Iinkai japanese pop itsudatte bokura no koi wa datta. centi 好きすぎてやばい。 ~告白実行委員会キャラクターソング集~ 東京ウインターセッション 告白実行委員会〜恋愛シリーズ〜 Sukisugiteyabai Kokuhakujikkouiinkai Character Song Shu Tokyo Winter Session picture book first love 初恋ノート Hatsukoi Note confession executive committee series vocaloid sahuang z1085684963 Pururut Karen Vert Garden Binguo
BeatmapID:973824
BeatmapSetID:381779

[Difficulty]
HPDrainRate:6
CircleSize:3.8
OverallDifficulty:8
ApproachRate:9
SliderMultiplier:1.9
SliderTickRate:1

[Events]
//Background and Video events
0,0,"BG.jpg",0,0
//Break Periods
2,59990,61558
2,82411,84453
2,107990,117295
2,128200,139400
2,166095,167821
//Storyboard Layer 0 (Background)
//Storyboard Layer 1 (Fail)
//Storyboard Layer 2 (Pass)
//Storyboard Layer 3 (Foreground)
//Storyboard Layer 4 (Overlay)
//Storyboard Sound Samples

[TimingPoints]
-448,685.714285714286,4,2,1,70,1,0
9837,631.578947368421,4,2,1,70,1,0
11633,315.789473684211,4,2,1,80,1,0
11790,315.789473684211,4,2,1,80,1,0
11790,-133.333333333333,4,2,1,80,0,0
20710,-133.333333333333,4,2,1,30,0,0
20790,-133.333333333333,4,2,1,80,0,0
20868,-133.333333333333,4,2,1,30,0,0
20947,-133.333333333333,4,2,1,80,0,0
21025,-133.333333333333,4,2,1,30,0,0
21105,-133.333333333333,4,2,1,80,0,0
21183,-133.333333333333,4,2,1,30,0,0
21263,-100,4,2,1,80,0,0
21895,-200,4,2,1,80,0,0
24421,-100,4,2,1,80,0,0
25684,-200,4,2,1,80,0,0
26947,-133.333333333333,4,2,1,50,0,0
34526,-133.333333333333,4,2,1,20,0,0
35158,-133.333333333333,4,2,1,30,0,0
35790,-133.333333333333,4,2,1,40,0,0
36421,-133.333333333333,4,2,1,50,0,0
37053,-133.333333333333,4,2,1,70,0,0
42105,-133.333333333333,4,2,1,80,0,0
42421,-133.333333333333,4,2,1,60,0,0
43368,-133.333333333333,4,2,1,80,0,0
43684,-133.333333333333,4,2,1,40,0,0
43842,-133.333333333333,4,2,1,50,0,0
44000,-133.333333333333,4,2,1,60,0,0
44158,-133.333333333333,4,2,1,70,0,0
44316,-200,4,2,1,80,0,0
45263,-100,4,2,1,80,0,0
58526,-133.333333333333,4,2,1,80,0,0
62632,-133.333333333333,4,2,1,70,0,0
62947,-133.333333333333,4,2,1,60,0,0
63263,-133.333333333333,4,2,1,50,0,0
63579,-200,4,2,1,50,0,0
64842,-100,4,2,1,80,0,0
100842,-100,4,2,2,80,0,0
101158,-100,4,2,1,80,0,0
105341,-100,4,2,2,80,0,0
105737,-100,4,2,1,80,0,0
107790,-100,4,2,1,60,0,0
117895,-133.333333333333,4,2,1,60,0,0
122947,-133.333333333333,4,2,1,40,0,0
123579,-133.333333333333,4,2,1,45,0,0
124211,-133.333333333333,4,2,1,50,0,0
124842,-133.333333333333,4,2,1,55,0,0
125474,-133.333333333333,4,2,1,60,0,0
140632,-100,4,2,1,80,0,0
170316,-100,4,2,1,40,0,0
170474,-100,4,2,1,50,0,0
170632,-100,4,2,1,60,0,0
170790,-100,4,2,1,70,0,0
170947,-100,4,2,1,80,0,0

[Colours]
Combo1 : 255,0,128
Combo2 : 128,255,0
Combo3 : 255,128,255
Combo4 : 252,14,55

[HitObjects]
64,124,11633,5,0,3:0:0:0:
64,124,11711,1,0,3:0:0:0:
64,124,11790,2,0,P|108:168|192:148,1,142.5,4|0,2:1|2:0,2:0:0:0:
240,68,12263,1,2,2:0:0:0:
340,100,12421,1,0,3:0:0:0:
256,232,12579,1,4,2:3:0:0:
136,92,12737,1,4,2:3:0:0:
56,252,12895,2,0,L|48:296,1,35.6250000000001,0|0,3:0|3:0,2:0:0:0:
0,312,13053,6,0,B|48:300|48:300|164:328,1,142.5,4|0,2:0|2:0,2:0:0:0:
248,260,13526,1,2,2:0:0:0:
432,308,13684,1,8,2:3:0:0:
332,352,13842,1,8,2:3:0:0:
336,324,13921,1,0,2:0:0:0:
340,296,14000,1,2,2:0:0:0:
344,268,14079,1,4,2:3:0:0:
348,240,14158,2,0,L|356:180,1,35.6250000000001,0|0,3:0|2:0,2:0:0:0:
396,144,14316,6,0,P|352:188|268:168,1,142.5,4|0,2:0|2:0,2:0:0:0:
332,56,14790,1,0,3:0:0:0:
328,84,14868,1,0,3:0:0:0:
324,112,14947,1,8,2:3:0:0:
240,4,15105,1,0,3:0:0:0:
440,48,15263,1,4,2:3:0:0:
277,176,15421,1,0,3:0:0:0:
277,176,15500,1,0,3:0:0:0:
277,176,15579,6,0,B|237:192|237:192|209:128|137:128,1,142.5,4|0,2:0|2:0,2:0:0:0:
28,316,16053,2,0,L|100:324,1,71.2500000000002,6|0,2:0|2:0,2:0:0:0:
156,216,16368,1,0,1:0:0:0:
176,376,16526,1,0,2:0:0:0:
128,236,16684,1,0,1:0:0:0:
268,344,16842,6,0,B|340:316|344:368|436:336,1,142.5,4|0,2:0|3:0,2:0:0:0:
504,300,17316,1,8,3:0:0:0:
380,264,17474,1,8,3:0:0:0:
476,220,17632,1,0,3:0:0:0:
408,341,17790,1,4,3:0:0:0:
304,256,17947,1,4,3:0:0:0:
304,256,18026,1,0,3:0:0:0:
304,256,18105,6,0,P|339:196|416:196,1,142.5,4|2,2:0|2:0,2:0:0:0:
296,176,18579,2,0,L|200:184,1,71.2500000000002,0|0,2:0|3:0,2:0:0:0:
4,176,18895,2,0,P|24:144|60:128,1,71.2500000000002,2|0,2:0|1:0,2:0:0:0:
208,276,19211,1,0,1:0:0:0:
184,272,19290,1,0,1:0:0:0:
160,268,19368,5,4,2:0:0:0:
76,204,19526,1,0,3:0:0:0:
136,120,19684,1,0,3:0:0:0:
52,48,19842,1,0,3:0:0:0:
192,44,20000,5,0,3:0:0:0:
53,129,20158,1,0,3:0:0:0:
140,264,20316,1,0,1:0:0:0:
8,360,20474,1,0,3:0:0:0:
8,360,20553,1,0,3:0:0:0:
8,360,20632,6,0,L|68:356,1,35.6250000000001,8|0,2:0|2:0,2:0:0:0:
172,360,20790,2,0,L|236:372,1,35.6250000000001,8|0,2:0|2:0,2:0:0:0:
332,320,20947,2,0,L|392:316,1,35.6250000000001,8|0,2:0|2:0,2:0:0:0:
476,356,21105,2,0,L|516:364,1,35.6250000000001,8|0,2:0|2:0,2:0:0:0:
339,365,21263,6,0,P|331:341|347:289,1,47.5,0|0,3:0|2:0,2:0:0:0:
420,192,21421,2,0,P|428:168|412:116,1,47.5,0|0,3:0|2:0,2:0:0:0:
300,48,21579,2,0,P|275:53|238:92,1,47.5,4|0,1:2|2:0,2:0:0:0:
236,228,21737,2,0,P|252:246|305:259,1,47.5,0|0,1:0|1:0,2:0:0:0:
320,156,21895,6,0,B|180:208|180:96|47:157|47:157|72:228|72:228|112:200|140:212|160:224|160:224|176:280|144:356|144:356|104:336|124:280,1,665,2|0,2:0|2:0,2:0:0:0:
240,336,24263,5,0,2:0:0:0:
240,336,24342,1,0,2:0:0:0:
240,336,24421,2,0,P|216:348|168:348,1,47.5,0|0,1:0|2:0,2:0:0:0:
384,304,24579,5,0,3:0:0:0:
384,304,24658,1,0,3:0:0:0:
384,304,24737,2,0,P|409:316|456:316,1,47.5,0|0,1:0|2:0,2:0:0:0:
284,232,24895,5,0,3:0:0:0:
284,232,24974,1,0,3:0:0:0:
284,232,25053,2,0,P|269:200|272:160,1,47.5,0|0,1:0|2:0,2:0:0:0:
484,200,25211,5,0,3:0:0:0:
484,200,25290,1,0,3:0:0:0:
484,200,25368,2,0,P|496:232|496:272,1,47.5,0|0,1:0|2:0,2:0:0:0:
380,156,25526,5,0,1:0:0:0:
380,156,25605,1,0,1:0:0:0:
380,156,25684,2,0,P|336:84|448:124,1,285,4|0,2:0|2:0,2:0:0:0:
304,84,26947,6,0,L|200:92,1,71.2500000000002,0|0,3:0|2:0,2:0:0:0:
144,168,27263,1,0,3:0:0:0:
200,268,27421,1,0,2:0:0:0:
64,184,27579,2,0,P|64:144|84:112,1,71.2500000000002,0|0,3:0|2:0,2:0:0:0:
232,89,27895,1,0,3:0:0:0:
328,244,28053,1,0,2:0:0:0:
189,374,28211,2,0,L|201:250,1,106.875,0|0,3:0|2:0,2:0:0:0:
188,240,28526,2,0,L|196:164,1,71.2500000000002,0|0,3:0|2:0,2:0:0:0:
304,84,28842,5,0,3:0:0:0:
456,172,29000,1,0,2:0:0:0:
328,244,29158,2,0,P|320:288|336:332,1,71.2500000000002,0|0,3:0|2:0,2:0:0:0:
472,288,29474,6,0,L|392:280,1,71.2500000000002,0|0,3:0|2:0,2:0:0:0:
248,352,29790,2,0,P|212:364|160:352,1,71.2500000000002,0|0,3:0|2:0,2:0:0:0:
0,272,30105,2,0,P|21:262|92:268,1,71.2500000000002,0|0,3:0|2:0,2:0:0:0:
204,284,30421,1,0,3:0:0:0:
240,132,30579,1,0,2:0:0:0:
320,248,30737,2,0,P|376:256|424:224,1,106.875,0|0,3:0|2:0,2:0:0:0:
448,204,31053,2,0,L|436:296,1,71.2500000000002,0|0,3:0|2:0,2:0:0:0:
304,344,31368,5,0,3:0:0:0:
356,176,31526,1,0,2:0:0:0:
208,272,31684,2,0,B|144:284|144:284|80:264,1,106.875,0|0,3:0|2:0,2:0:0:0:
72,256,32000,6,0,L|-8:264,1,71.2500000000002,0|0,3:0|2:0,2:0:0:0:
132,132,32316,2,0,P|152:168|152:212,1,71.2500000000002,0|0,3:0|2:0,2:0:0:0:
275,285,32632,2,0,P|233:284|195:262,1,71.2500000000002,0|0,3:0|2:0,2:0:0:0:
112,52,32947,2,0,P|153:52|191:74,1,71.2500000000002,0|0,3:0|2:0,2:0:0:0:
152,384,33263,6,0,P|136:356|136:312,1,71.2500000000002,0|0,3:0|2:0,2:0:0:0:
324,224,33579,2,0,P|346:251|352:285,1,71.2500000000002,0|0,3:0|2:0,2:0:0:0:
60,284,33895,2,0,P|84:252|136:236,1,71.2500000000002,0|0,3:0|2:0,2:0:0:0:
428,316,34211,2,0,P|404:348|352:364,1,71.2500000000002,0|0,3:0|2:0,2:0:0:0:
207,271,34526,5,0,1:0:0:0:
207,271,34684,1,0,1:0:0:0:
312,132,34842,1,0,1:0:0:0:
312,132,35000,1,0,1:0:0:0:
296,320,35158,5,0,1:0:0:0:
296,320,35316,1,0,1:0:0:0:
200,152,35474,1,0,1:0:0:0:
200,152,35632,1,0,1:0:0:0:
356,228,35790,5,8,1:2:0:0:
136,212,35947,1,0,1:0:0:0:
356,228,36105,1,8,1:2:0:0:
136,212,36263,1,8,1:2:0:0:
272,40,36421,5,8,1:2:0:0:
216,268,36579,1,0,1:0:0:0:
272,40,36737,1,8,1:2:0:0:
216,268,36895,1,8,1:2:0:0:
372,224,37053,6,0,P|416:216|456:224,1,71.2500000000002,0|0,2:0|2:0,2:0:0:0:
512,280,37368,1,2,2:0:0:0:
472,356,37526,1,0,2:0:0:0:
308,276,37684,2,0,P|292:232|296:188,1,71.2500000000002,0|0,2:0|2:0,2:0:0:0:
344,136,38000,1,2,2:0:0:0:
308,56,38158,1,0,2:0:0:0:
140,112,38316,6,0,B|92:96|40:132|40:132|-7:118,2,142.5,0|2|0,2:0|2:0|2:0,2:0:0:0:
176,136,39263,1,2,2:0:0:0:
112,212,39421,1,0,2:0:0:0:
168,296,39579,6,0,P|172:352|160:380,1,71.2500000000002,0|0,2:0|2:0,2:0:0:0:
92,328,39895,1,2,2:0:0:0:
220,224,40053,6,0,B|264:244|264:244|308:212|384:228,1,142.5,0|0,2:0|2:0,2:0:0:0:
464,272,40526,1,2,2:0:0:0:
488,300,40842,6,0,L|496:148,1,142.5,0|2,2:0|2:0,2:0:0:0:
352,64,41316,2,0,P|350:127|416:180,1,142.5,0|0,2:0|2:0,2:0:0:0:
460,64,41790,1,2,2:0:0:0:
432,96,42105,6,0,L|315:100,1,106.875,6|0,1:2|2:0,2:0:0:0:
292,68,42421,5,8,1:2:0:0:
200,184,42579,1,8,1:2:0:0:
216,32,42737,5,8,1:2:0:0:
276,220,42895,1,8,1:2:0:0:
140,76,43053,6,0,L|84:80,1,35.6250000000001,8|0,1:2|2:0,2:0:0:0:
16,204,43211,2,0,L|68:212,1,35.6250000000001,8|0,1:2|2:0,2:0:0:0:
121,338,43368,5,0,1:0:0:0:
99,317,43447,1,0,1:0:0:0:
85,291,43526,1,8,3:0:0:0:
79,262,43605,1,8,3:0:0:0:
82,232,43684,1,0,1:0:0:0:
94,205,43763,1,0,1:0:0:0:
114,183,43842,1,0,1:0:0:0:
134,161,43921,1,0,1:0:0:0:
146,134,44000,1,0,1:0:0:0:
148,105,44079,1,0,1:0:0:0:
140,76,44158,1,0,1:0:0:0:
123,52,44237,1,0,1:0:0:0:
92,32,44316,6,0,L|12:41,1,71.25,8|0,3:0|2:0,2:0:0:0:
72,112,44632,5,4,3:1:0:0:
204,32,44790,1,0,2:0:0:0:
114,183,44947,1,8,1:2:0:0:
232,312,45105,1,2,2:0:0:0:
36,368,45263,2,0,B|88:320|152:328|152:328|160:372|204:384,1,190,0|8,3:0|1:2,2:0:0:0:
52,256,45737,1,2,2:0:0:0:
180,104,45895,6,0,L|172:252,1,142.5,0|0,3:0|2:0,2:0:0:0:
192,282,46211,2,0,L|186:386,1,95,8|2,1:2|2:0,2:0:0:0:
276,212,46526,1,0,3:0:0:0:
396,324,46684,1,0,3:0:0:0:
186,376,46842,2,0,L|196:204,1,142.5,8|0,1:2|2:0,2:0:0:0:
220,156,47158,5,0,3:0:0:0:
420,236,47316,1,0,2:0:0:0:
392,152,47474,1,8,1:2:0:0:
252,296,47632,1,2,2:0:0:0:
352,312,47790,1,0,3:0:0:0:
304,108,47947,1,0,3:0:0:0:
152,284,48105,2,0,L|24:292,1,95,8|2,1:2|2:0,2:0:0:0:
24,100,48421,6,0,P|96:144|84:232,1,142.5,0|0,3:0|2:0,2:0:0:0:
24,180,48737,2,0,B|64:148|64:148|140:168|212:148,1,190,12|0,1:2|3:0,2:0:0:0:
276,84,49211,1,0,3:0:0:0:
436,232,49368,2,0,P|352:216|304:256,1,142.5,8|0,1:2|2:0,2:0:0:0:
268,224,49684,6,0,L|276:344,1,95,4|0,2:0|2:0,2:0:0:0:
304,112,50000,2,0,L|296:-8,1,95,8|2,1:2|2:0,2:0:0:0:
124,128,50316,2,0,P|172:92|224:96,1,95,0|0,3:0|3:0,2:0:0:0:
400,144,50632,2,0,P|452:152|508:128,1,95,8|2,1:2|2:0,2:0:0:0:
444,48,50947,6,0,B|440:104|440:104|452:168|452:168|440:272,2,190,0|12|0,3:0|1:2|3:0,2:0:0:0:
364,0,51737,1,0,3:0:0:0:
360,184,51895,1,8,1:2:0:0:
344,216,52211,6,0,P|284:240|244:228,1,95,2|0,3:2|2:0,2:0:0:0:
180,24,52526,2,0,P|153:62|152:109,1,95,8|2,1:2|2:0,2:0:0:0:
368,132,52842,2,0,P|418:171|428:212,1,95,0|0,3:0|3:0,2:0:0:0:
172,193,53158,2,0,P|108:183|80:153,1,95,8|2,1:2|2:0,2:0:0:0:
236,88,53474,6,0,B|272:68|272:68|312:76|312:76|368:28|444:84,2,190,0|8|0,3:0|1:2|3:0,2:0:0:0:
188,172,54263,1,0,3:0:0:0:
368,132,54421,1,4,1:2:0:0:
396,160,54737,5,0,1:0:0:0:
248,308,54895,1,0,1:0:0:0:
192,112,55053,1,8,3:0:0:0:
224,96,55368,1,2,3:2:0:0:
256,80,55684,1,0,3:0:0:0:
288,68,56000,5,0,1:0:0:0:
342,270,56158,1,0,1:0:0:0:
140,216,56316,1,4,3:0:0:0:
132,252,56632,1,2,3:2:0:0:
128,288,56947,1,0,3:0:0:0:
124,324,57263,5,0,1:0:0:0:
64,128,57421,1,0,1:0:0:0:
264,172,57579,1,8,3:0:0:0:
272,208,57895,1,2,3:2:0:0:
280,244,58211,1,0,3:0:0:0:
288,280,58526,6,0,L|452:292,1,142.5,6|0,2:0|3:0,2:0:0:0:
360,200,59000,2,0,L|376:108,2,71.2500000000002,2|0|0,2:0|2:0|2:0,2:0:0:0:
344,328,59474,1,2,3:2:0:0:
340,364,59790,5,4,2:1:0:0:
292,196,62158,6,0,L|316:184,1,17.8125,2|0,2:0|2:0,2:0:0:0:
292,216,62237,2,0,L|310:218,1,17.8125,2|0,2:0|2:0,2:0:0:0:
260,200,62316,5,2,2:0:0:0:
240,171,62395,1,0,2:0:0:0:
238,136,62474,1,0,2:0:0:0:
256,106,62553,1,0,2:0:0:0:
220,112,62632,5,2,2:0:0:0:
185,104,62711,1,0,2:0:0:0:
151,96,62790,1,0,2:0:0:0:
116,88,62868,1,0,2:0:0:0:
84,72,62947,5,2,2:0:0:0:
85,94,63026,1,0,2:0:0:0:
86,116,63105,1,0,2:0:0:0:
88,138,63184,1,0,2:0:0:0:
89,160,63263,1,2,2:0:0:0:
90,183,63342,1,0,2:0:0:0:
91,205,63421,1,0,2:0:0:0:
92,227,63500,1,0,2:0:0:0:
92,248,63579,6,0,B|92:320|128:356|100:368|100:368|60:360|92:320,1,190,0|0,2:0|2:0,2:0:0:0:
176,276,64526,1,0,2:0:0:0:
240,348,64842,6,0,B|340:356,1,95,4|0,3:1|2:0,2:0:0:0:
504,184,65158,2,0,P|452:192|404:240,1,95,4|0,1:2|2:0,2:0:0:0:
248,120,65474,2,0,P|236:168|256:228,1,95,0|2,3:0|2:0,2:0:0:0:
334,355,65790,1,8,1:0:0:0:
320,168,65947,1,0,2:0:0:0:
208,296,66105,6,0,B|148:284|81:300|81:300|132:264,1,190,2|8,3:2|1:0,2:0:0:0:
228,112,66579,1,0,2:0:0:0:
288,268,66737,2,0,P|288:324|264:364,1,95,0|2,3:2|2:0,2:0:0:0:
148,96,67053,2,0,P|180:44|228:32,1,95,8|0,1:0|2:0,2:0:0:0:
208,296,67368,6,0,L|14:278,1,190,2|8,3:2|1:0,2:0:0:0:
228,112,67842,1,0,2:0:0:0:
100,284,68000,2,0,L|304:268,1,190,2|8,3:2|1:0,2:0:0:0:
148,96,68474,1,0,2:0:0:0:
360,168,68632,6,0,B|356:212|356:212|376:260|376:260|364:328,1,142.5,2|2,3:2|2:0,2:0:0:0:
436,372,68947,2,0,L|456:268,1,95,4|0,1:2|1:0,2:0:0:0:
412,96,69263,5,0,3:0:0:0:
289,269,69421,1,0,3:0:0:0:
84,212,69579,2,0,P|68:268|84:312,1,95,8|2,1:0|2:0,2:0:0:0:
272,188,69895,6,0,L|284:28,1,142.5,4|0,3:1|2:0,2:0:0:0:
248,0,70211,2,0,L|260:120,1,95,8|0,1:0|2:0,2:0:0:0:
392,300,70526,2,0,B|300:332|300:268|204:300,1,190,2|8,3:2|1:0,2:0:0:0:
253,378,71000,1,0,2:0:0:0:
349,230,71158,6,0,P|357:182|333:130,1,95,2|0,3:2|2:0,2:0:0:0:
109,121,71474,2,0,P|146:151|203:157,1,95,8|0,1:0|2:0,2:0:0:0:
332,52,71790,2,0,P|286:69|253:115,1,95,0|2,3:0|2:0,2:0:0:0:
349,230,72105,1,8,1:0:0:0:
412,92,72263,1,0,2:0:0:0:
272,188,72421,6,0,B|236:272|312:272|264:376,1,190,2|8,3:2|1:0,2:0:0:0:
200,312,72895,1,0,2:0:0:0:
432,252,73053,1,2,3:2:0:0:
136,152,73211,1,0,2:0:0:0:
420,172,73368,1,8,1:0:0:0:
192,0,73526,1,8,1:2:0:0:
412,92,73684,5,0,1:0:0:0:
160,232,73842,1,8,1:2:0:0:
113,233,73921,1,0,1:2:0:0:
72,209,74000,1,0,1:0:0:0:
51,167,74079,1,0,2:0:0:0:
56,120,74158,1,8,1:2:0:0:
85,83,74237,1,0,1:0:0:0:
129,68,74316,6,0,L|216:76,1,47.5,2|0,1:2|2:0,2:0:0:0:
296,112,74474,2,0,B|352:108,1,47.5,8|0,1:2|1:0,2:0:0:0:
207,226,74632,2,0,B|160:231,1,47.5,2|2,1:2|1:2,2:0:0:0:
51,167,74790,2,0,L|-29:163,1,47.5,0|2,1:0|1:2,2:0:0:0:
0,336,74947,6,0,B|104:332|104:332|152:344,1,142.5,6|0,3:1|2:0,2:0:0:0:
184,360,75263,2,0,L|284:356,1,95,6|0,1:2|2:0,2:0:0:0:
468,248,75579,2,0,B|374:252,1,95,0|0,3:0|2:0,2:0:0:0:
192,204,75895,1,10,1:0:0:0:
276,32,76053,1,0,2:0:0:0:
440,144,76211,6,0,B|428:324,1,142.5,2|0,3:1|2:0,2:0:0:0:
348,324,76526,2,0,P|310:303|296:252,1,95,6|0,1:2|2:0,2:0:0:0:
416,64,76842,2,0,P|459:63|505:92,1,95,2|0,3:1|2:0,2:0:0:0:
248,176,77158,2,0,L|140:184,1,95,10|0,1:0|2:0,2:0:0:0:
16,344,77474,6,0,L|220:364,1,190,2|10,3:1|1:0,2:0:0:0:
72,152,77947,1,0,2:0:0:0:
272,260,78105,2,0,P|332:220|300:108,1,190,2|10,3:1|1:0,2:0:0:0:
128,40,78579,1,0,2:0:0:0:
284,88,78737,6,0,L|436:80,1,142.5,2|2,3:1|2:0,2:0:0:0:
484,152,79053,2,0,L|370:160,1,95,4|2,1:2|1:2,2:0:0:0:
200,204,79368,2,0,P|184:280|192:304,1,95,2|0,3:1|2:0,2:0:0:0:
432,324,79684,2,0,P|448:248|440:224,1,95,10|2,1:0|2:0,2:0:0:0:
268,260,80000,5,4,3:1:0:0:
268,260,80158,2,0,L|400:268,1,95,2|10,2:0|1:0,2:0:0:0:
194,105,80474,1,2,2:0:0:0:
266,65,80632,2,0,B|294:117|270:169|270:169|218:169|190:217,1,190,2|8,3:1|1:0,2:0:0:0:
240,344,81105,1,8,1:2:0:0:
104,312,81263,5,4,3:1:0:0:
72,324,81579,1,0,2:0:0:0:
40,336,81895,1,0,2:0:0:0:
8,348,82211,1,2,2:0:0:0:
96,104,85053,6,0,L|88:160,3,47.5,0|0|0|0,1:0|2:0|2:0|2:0,2:0:0:0:
124,72,85368,1,0,1:0:0:0:
268,180,85526,1,0,1:0:0:0:
184,336,85684,1,0,1:0:0:0:
372,320,85842,1,0,1:0:0:0:
248,200,86000,2,0,L|240:136,1,47.5,0|0,1:0|2:0,2:0:0:0:
148,44,86158,2,0,L|140:116,1,47.5,0|0,1:0|2:0,2:0:0:0:
4,172,86316,5,0,1:0:0:0:
19,144,86395,1,0,1:0:0:0:
44,125,86474,1,0,1:0:0:0:
74,117,86553,1,0,1:0:0:0:
105,122,86632,1,0,1:0:0:0:
132,138,86711,1,0,1:0:0:0:
150,164,86790,1,8,3:0:0:0:
157,195,86868,1,8,3:0:0:0:
151,225,86947,1,8,3:0:0:0:
133,251,87026,1,4,3:0:0:0:
107,268,87105,1,0,3:0:0:0:
76,274,87184,1,0,3:0:0:0:
45,266,87263,2,0,L|-8:272,1,47.5,2|2,2:0|2:0,2:0:0:0:
80,196,87421,5,2,2:0:0:0:
80,196,87500,1,2,2:0:0:0:
80,196,87579,2,0,P|124:248|44:344,1,190,4|8,3:1|1:0,2:0:0:0:
212,328,88053,2,0,L|324:336,1,95,2|0,2:0|3:0,2:0:0:0:
356,200,88368,1,2,2:0:0:0:
208,240,88526,1,8,1:0:0:0:
412,268,88684,2,0,P|444:220|428:160,1,95,2|0,2:0|3:0,2:0:0:0:
268,176,89000,5,2,2:0:0:0:
332,24,89158,1,8,1:0:0:0:
156,56,89316,1,2,2:0:0:0:
348,116,89474,5,0,3:0:0:0:
92,140,89632,1,2,2:0:0:0:
356,200,89790,1,8,1:0:0:0:
76,144,89947,1,2,2:0:0:0:
260,365,90105,6,0,L|268:173,1,190,2|8,3:2|1:0,2:0:0:0:
32,240,90579,2,0,L|149:233,1,95,2|0,2:0|3:0,2:0:0:0:
356,200,90895,1,2,2:0:0:0:
355,215,90974,1,2,2:0:0:0:
354,231,91053,1,8,1:0:0:0:
354,247,91132,1,2,2:0:0:0:
353,263,91211,1,2,2:0:0:0:
353,279,91290,1,0,2:0:0:0:
352,294,91368,6,0,P|404:310|456:294,1,95,2|0,3:2|2:0,2:0:0:0:
332,120,91684,1,8,1:0:0:0:
192,192,91842,2,0,B|-12:204,1,190,2|2,2:0|2:0,2:0:0:0:
180,357,92316,1,8,1:0:0:0:
181,339,92395,1,2,2:0:0:0:
183,321,92474,1,2,2:0:0:0:
184,303,92553,1,2,2:0:0:0:
186,286,92632,6,0,L|192:185,1,95,2|0,3:2|2:0,2:0:0:0:
2,203,92947,1,8,1:0:0:0:
144,36,93105,6,0,L|244:28,1,95,2|0,2:0|3:0,2:0:0:0:
332,200,93421,1,2,2:0:0:0:
192,112,93579,1,8,1:0:0:0:
340,40,93737,1,2,2:0:0:0:
320,216,93895,5,2,3:2:0:0:
188,92,94053,1,0,2:0:0:0:
360,48,94211,2,0,L|476:56,1,95,8|2,1:0|2:0,2:0:0:0:
284,116,94526,5,0,3:0:0:0:
424,200,94684,1,2,2:0:0:0:
424,200,94763,1,2,2:0:0:0:
424,200,94842,2,0,L|416:272,1,47.5,8|0,1:0|2:0,2:0:0:0:
384,376,95000,2,0,L|376:304,1,47.5,2|0,2:0|2:0,2:0:0:0:
320,248,95158,5,2,3:2:0:0:
292,270,95237,1,0,2:0:0:0:
259,282,95316,1,0,2:0:0:0:
223,282,95395,1,0,2:0:0:0:
190,270,95474,5,8,1:0:0:0:
168,242,95553,1,0,2:0:0:0:
136,228,95632,1,2,2:0:0:0:
101,231,95711,1,2,2:0:0:0:
72,251,95790,1,2,3:2:0:0:
55,282,95868,1,0,2:0:0:0:
56,317,95947,1,0,2:0:0:0:
73,348,96026,1,2,2:0:0:0:
103,367,96105,5,8,1:0:0:0:
121,332,96184,1,2,2:0:0:0:
128,293,96263,1,0,2:0:0:0:
122,254,96342,1,2,2:0:0:0:
104,218,96421,1,0,3:0:0:0:
77,190,96500,1,2,2:0:0:0:
43,171,96579,5,0,2:0:0:0:
20,139,96658,1,2,2:0:0:0:
14,100,96737,1,8,1:0:0:0:
29,63,96816,1,2,2:0:0:0:
59,38,96895,1,2,2:0:0:0:
97,30,96974,1,2,2:0:0:0:
134,42,97053,6,0,L|212:36,1,47.5,0|2,3:0|2:0,2:0:0:0:
220,116,97211,2,0,L|298:110,1,47.5,2|2,2:0|2:0,2:0:0:0:
272,12,97368,2,0,L|350:6,1,47.5,8|2,1:0|2:0,2:0:0:0:
396,44,97526,2,0,L|474:38,1,47.5,0|2,1:0|1:2,2:0:0:0:
394,123,97684,6,2,B|384:80|396:44|396:44|384:80|356:88,1,142.5,4|0,3:1|2:0,2:1:0:0:
276,30,98000,2,0,B|120:43,1,142.5,12|0,1:2|2:0,2:0:0:0:
60,4,98316,2,2,P|52:60|88:108,1,95,0|0,3:0|2:0,2:1:0:0:
204,176,98632,1,8,1:2:0:0:
72,292,98790,1,0,2:0:0:0:
292,344,98947,6,2,B|436:320|436:320|512:336,1,190,2|8,3:2|1:2,2:1:0:0:
336,248,99421,1,2,2:0:0:0:
336,248,99500,1,8,2:0:0:0:
336,248,99579,2,2,B|308:180|360:180|332:108,1,142.5,0|0,3:2|2:0,2:1:0:0:
252,76,99895,2,2,P|316:87|364:4,1,142.5,8|0,1:2|2:0,2:1:0:0:
292,12,100211,5,2,3:2:0:0:
260,160,100368,1,0,2:0:0:0:
408,212,100526,2,2,L|512:220,1,95,8|0,1:2|2:0,2:1:0:0:
360,296,100842,1,2,3:1:0:0:
260,160,101000,1,0,2:0:0:0:
296,348,101158,2,2,P|328:372|413:355,1,95,8|0,1:2|2:0,2:1:0:0:
208,252,101474,6,2,B|156:272|156:272|68:252|-4:284,1,190,2|8,3:2|1:2,2:1:0:0:
88,360,101947,1,0,2:0:0:0:
152,184,102105,2,2,P|160:104|96:56,1,142.5,0|0,3:1|2:0,2:1:0:0:
96,56,102421,1,8,1:2:0:0:
23,273,102579,1,2,2:0:0:0:
248,176,102737,6,2,L|368:184,1,95,0|0,3:0|2:0,2:1:0:0:
88,136,103053,2,0,L|-16:152,1,95,12|0,1:2|2:0,2:0:0:0:
152,232,103368,1,0,3:1:0:0:
192,80,103526,1,0,3:2:0:0:
216,288,103684,2,2,P|184:312|120:312,1,95,8|0,1:2|1:2,2:1:0:0:
108,308,103921,1,2,1:2:0:0:
84,304,104000,6,2,B|76:204|76:204|92:144,1,142.5,2|0,3:2|2:0,2:1:0:0:
88,136,104316,2,2,L|84:24,1,95,8|0,1:2|2:0,2:1:0:0:
272,36,104632,1,0,3:1:0:0:
238,167,104790,1,4,3:2:0:0:
492,124,104947,2,0,B|446:139|446:139|342:123,1,142.5,8|0,1:2|1:0,2:0:0:0:
160,76,105263,6,0,L|91:65,3,47.5,4|2|8|8,3:1|3:1|3:0|3:0,2:0:0:0:
84,41,105579,1,4,3:0:0:0:
82,64,105658,1,4,3:0:0:0:
81,88,105737,1,4,1:2:0:0:
80,112,105816,1,0,2:0:0:0:
78,135,105895,1,4,2:0:0:0:
77,159,105974,1,0,3:0:0:0:
76,183,106053,1,0,3:0:0:0:
75,207,106132,1,0,3:0:0:0:
73,230,106211,1,8,3:0:0:0:
72,254,106290,1,8,3:0:0:0:
71,278,106368,1,4,3:0:0:0:
69,301,106447,1,4,3:0:0:0:
68,325,106526,6,2,L|168:336,1,95,4|0,1:2|2:0,2:1:0:0:
304,232,106842,1,2,1:2:0:0:
160,248,107000,1,2,1:2:0:0:
264,368,107158,1,2,1:2:0:0:
320,216,107316,1,2,1:2:0:0:
162,335,107474,1,2,1:2:0:0:
392,360,107632,1,2,1:2:0:0:
224,160,107790,5,2,2:0:0:0:
76,96,117895,6,0,B|144:124|144:68|216:96,1,142.5,4|0,3:2|3:0,2:0:0:0:
472,108,118526,2,0,B|399:98|413:152|336:144,1,142.5,0|0,3:2|3:0,2:0:0:0:
348,56,119000,1,0,2:0:0:0:
464,192,119158,6,0,L|448:348,1,142.5,0|0,3:2|3:0,2:0:0:0:
204,244,119790,2,0,B|244:224|244:224|356:240,1,142.5,0|0,3:2|3:0,2:0:0:0:
260,312,120263,1,0,2:0:0:0:
260,312,120342,1,0,2:0:0:0:
260,312,120421,6,0,B|220:332|220:332|108:316,1,142.5,0|0,3:0|3:0,2:0:0:0:
152,92,121053,2,0,P|180:144|172:176,1,71.2500000000002,0|0,3:0|2:0,2:0:0:0:
36,264,121368,2,0,P|8:212|16:180,1,71.2500000000002,0|0,3:0|2:0,2:0:0:0:
180,96,121684,6,0,P|208:148|200:180,2,71.2500000000002,0|0|0,3:0|2:0|3:0,2:0:0:0:
4,244,122158,1,0,2:0:0:0:
4,244,122237,1,0,2:0:0:0:
4,244,122316,2,0,P|8:278|31:305,1,71.2500000000002,0|0,3:0|2:0,2:0:0:0:
124,156,122632,2,0,L|36:160,1,71.2500000000002,0|0,2:0|2:0,2:0:0:0:
108,352,122947,5,0,1:0:0:0:
208,208,123105,1,0,1:0:0:0:
80,248,123263,1,0,1:0:0:0:
216,352,123421,1,0,1:0:0:0:
368,288,123579,5,0,1:0:0:0:
208,208,123737,1,0,1:0:0:0:
308,360,123895,1,0,1:0:0:0:
308,196,124053,1,0,1:0:0:0:
464,120,124211,5,8,1:2:0:0:
456,284,124368,1,8,1:2:0:0:
308,196,124526,1,8,1:2:0:0:
512,204,124684,1,8,1:2:0:0:
392,364,124842,5,8,1:2:0:0:
408,200,125000,1,8,1:2:0:0:
508,320,125158,1,8,1:2:0:0:
280,328,125316,1,8,1:2:0:0:
348,140,125474,5,8,1:2:0:0:
348,140,125553,1,0,2:0:0:0:
348,140,125632,2,0,P|408:116|412:116,1,35.6250000000001,0|0,1:0|1:0,2:0:0:0:
192,96,125790,5,8,1:2:0:0:
192,96,125868,1,0,2:0:0:0:
192,96,125947,2,0,P|132:120|128:120,1,35.6250000000001,0|0,1:0|1:0,2:0:0:0:
280,224,126105,5,8,1:2:0:0:
280,224,126184,1,0,2:0:0:0:
280,224,126263,2,0,P|256:164|256:160,1,35.6250000000001,0|0,1:0|1:0,2:0:0:0:
284,12,126421,5,8,1:2:0:0:
284,12,126500,1,0,2:0:0:0:
284,12,126579,2,0,P|308:72|308:76,1,35.6250000000001,0|0,1:0|1:0,2:0:0:0:
272,116,126737,5,10,1:2:0:0:
161,114,126895,1,8,1:2:0:0:
104,268,127053,1,10,1:2:0:0:
280,224,127211,1,8,1:2:0:0:
68,172,127368,1,8,1:2:0:0:
144,364,127526,1,8,1:2:0:0:
161,114,127684,1,8,1:2:0:0:
4,304,127842,1,8,1:2:0:0:
248,324,128000,5,4,2:0:0:0:
200,72,140000,6,0,L|196:104,2,17.8125,2|0|0,1:2|2:0|2:0,2:0:0:0:
144,120,140158,2,0,B|248:92|248:156|344:116,1,178.125,0|0,1:0|1:0,2:0:0:0:
360,104,140632,6,0,B|460:112,1,95,4|0,3:1|2:0,2:0:0:0:
432,296,140947,2,0,P|393:323|346:328,1,95,4|0,1:2|2:0,2:0:0:0:
200,196,141263,2,0,P|188:244|208:304,1,95,0|0,3:0|2:0,2:0:0:0:
364,244,141579,1,8,1:0:0:0:
288,44,141737,1,2,1:2:0:0:
140,128,141895,6,0,B|0:140|0:140|60:156,1,190,0|8,3:2|1:0,2:0:0:0:
272,244,142368,1,0,2:0:0:0:
88,312,142526,2,0,P|88:256|112:216,1,95,2|0,3:2|2:0,2:0:0:0:
372,64,142842,2,0,P|340:116|292:128,1,95,8|0,1:0|1:0,2:0:0:0:
8,40,143158,6,0,L|202:58,1,190,2|8,3:2|1:0,2:0:0:0:
192,216,143632,1,0,3:0:0:0:
287,43,143790,2,0,L|98:58,1,190,2|8,2:0|1:0,2:0:0:0:
8,236,144263,1,2,1:2:0:0:
168,352,144421,6,0,B|320:344,1,142.5,2|0,3:2|2:0,2:0:0:0:
364,288,144737,2,0,L|356:384,1,95,8|0,1:0|2:0,2:0:0:0:
296,232,145053,5,0,3:0:0:0:
452,340,145211,1,2,1:2:0:0:
512,180,145368,2,0,P|456:164|412:180,1,95,8|2,1:0|1:2,2:0:0:0:
240,304,145684,6,0,L|252:144,1,142.5,4|0,3:1|2:0,2:0:0:0:
268,120,146000,2,0,L|266:25,1,95,4|0,1:2|2:0,2:0:0:0:
48,52,146316,2,0,P|20:131|102:151,1,190,2|8,3:2|1:0,2:0:0:0:
164,56,146790,1,2,1:2:0:0:
262,245,146947,6,0,P|216:237|180:208,1,95,2|0,3:2|2:0,2:0:0:0:
336,92,147263,2,0,P|352:136|344:182,1,95,8|0,1:0|2:0,2:0:0:0:
252,52,147579,2,0,P|282:16|326:0,1,95,2|0,3:2|2:0,2:0:0:0:
440,152,147895,1,8,1:0:0:0:
256,144,148053,1,8,1:0:0:0:
356,280,148211,6,0,B|392:196|316:196|364:92,1,190,2|8,3:2|1:0,2:0:0:0:
420,20,148684,1,0,3:0:0:0:
280,232,148842,1,2,2:0:0:0:
244,8,149000,1,0,3:0:0:0:
200,272,149158,1,8,1:0:0:0:
92,64,149316,1,2,1:2:0:0:
362,96,149474,5,0,3:0:0:0:
284,276,149632,1,8,1:2:0:0:
268,320,149711,1,8,1:2:0:0:
232,350,149790,1,8,1:0:0:0:
185,356,149868,1,2,2:0:0:0:
143,335,149947,1,10,1:2:0:0:
118,295,150026,1,8,1:2:0:0:
119,249,150105,6,0,L|112:172,1,47.5,2|0,3:2|1:0,2:0:0:0:
92,64,150263,2,0,B|103:5,1,47.5,8|0,1:2|1:0,2:0:0:0:
228,64,150421,2,0,B|216:109,1,47.5,2|2,1:2|1:2,2:0:0:0:
114,201,150579,2,0,L|94:277,1,47.5,0|2,2:0|1:2,2:0:0:0:
20,368,150737,6,0,P|92:348|164:392,1,142.5,6|0,3:1|2:0,2:0:0:0:
185,356,151053,2,0,L|285:352,1,95,4|0,1:2|2:0,2:0:0:0:
476,248,151368,2,0,P|440:264|382:252,1,95,2|0,3:1|2:0,2:0:0:0:
336,56,151684,1,10,1:0:0:0:
428,184,151842,1,2,1:2:0:0:
230,318,152000,6,0,B|240:176,1,142.5,2|0,3:2|2:0,2:0:0:0:
256,96,152316,2,0,P|235:134|184:148,1,95,10|0,1:0|2:0,2:0:0:0:
404,104,152632,2,0,P|447:103|493:132,1,95,2|0,3:1|2:0,2:0:0:0:
424,312,152947,2,0,L|316:320,1,95,10|0,1:0|1:0,2:0:0:0:
0,224,153263,6,0,L|204:244,1,190,2|10,3:2|1:0,2:0:0:0:
424,312,153737,1,0,3:0:0:0:
328,132,153895,2,0,P|351:45|448:36,1,190,2|10,2:1|1:0,2:0:0:0:
504,252,154368,1,2,1:2:0:0:
329,319,154526,6,0,B|234:338|234:338|186:326,1,142.5,2|0,3:2|2:0,2:0:0:0:
152,320,154842,2,0,L|36:336,1,95,10|0,1:0|2:0,2:0:0:0:
296,224,155158,2,0,L|412:204,1,95,2|2,3:1|1:2,2:0:0:0:
148,56,155474,2,0,P|134:100|147:150,1,95,10|2,1:0|1:2,2:0:0:0:
328,320,155790,6,0,B|459:292|459:292|520:312,1,190,6|4,3:1|1:2,2:0:0:0:
389,207,156263,1,0,2:0:0:0:
216,104,156421,2,0,B|200:308,1,190,2|8,3:2|1:0,2:0:0:0:
68,348,156895,1,2,1:2:0:0:
8,188,157053,6,0,P|64:164|148:204,1,142.5,2|0,3:1|2:0,2:0:0:0:
160,212,157368,2,0,L|264:216,1,95,10|0,1:0|2:0,2:0:0:0:
432,92,157684,6,0,P|384:129|292:112,1,142.5,2|0,3:1|2:0,2:0:0:0:
288,96,158000,2,0,L|298:-16,1,95,10|8,1:0|1:0,2:0:0:0:
108,28,158316,6,0,L|116:212,1,142.5,4|0,2:0|2:0,2:0:0:0:
137,191,158632,1,0,1:0:0:0:
160,212,158711,1,0,1:0:0:0:
183,233,158790,1,0,1:0:0:0:
208,252,158868,1,0,1:0:0:0:
232,272,158947,2,0,L|216:96,1,142.5,4|0,2:0|2:0,2:0:0:0:
192,108,159263,5,0,1:0:0:0:
166,84,159342,1,0,1:0:0:0:
141,61,159421,1,0,1:0:0:0:
113,40,159500,1,0,1:0:0:0:
87,18,159579,2,0,L|104:204,1,142.5,4|0,2:0|2:0,2:0:0:0:
104,188,159895,5,0,1:0:0:0:
128,208,159974,1,0,1:0:0:0:
152,228,160053,1,0,1:0:0:0:
176,249,160132,1,0,1:0:0:0:
200,269,160211,1,0,1:0:0:0:
225,289,160290,1,0,1:0:0:0:
249,310,160368,1,0,1:0:0:0:
281,309,160447,1,0,1:0:0:0:
312,308,160526,1,0,1:0:0:0:
344,307,160605,1,0,1:0:0:0:
376,306,160684,1,0,1:0:0:0:
407,305,160763,1,0,1:0:0:0:
439,304,160842,6,0,L|448:168,1,95,6|0,2:0|1:0,2:0:0:0:
336,44,161158,5,0,1:0:0:0:
336,44,161237,1,0,1:0:0:0:
336,44,161316,2,0,L|344:164,1,95,6|0,2:0|1:0,2:0:0:0:
249,310,161632,1,0,1:0:0:0:
249,310,161711,1,0,1:0:0:0:
249,310,161790,2,0,L|257:190,1,95,6|0,2:0|1:0,2:0:0:0:
416,88,162105,6,0,P|476:92|512:116,1,95,6|0,2:0|1:0,2:0:0:0:
452,268,162421,1,0,1:0:0:0:
452,268,162500,1,0,1:0:0:0:
452,268,162579,2,0,L|444:164,1,95,6|0,2:0|1:0,2:0:0:0:
236,96,162895,5,0,1:0:0:0:
236,96,162974,1,0,1:0:0:0:
236,96,163053,1,8,1:3:0:0:
236,96,163132,1,0,1:0:0:0:
236,96,163211,1,0,2:0:0:0:
236,96,163290,1,0,2:0:0:0:
236,96,163368,2,0,L|80:116,1,142.5,4|0,3:1|1:0,2:0:0:0:
77,137,163684,5,0,1:0:0:0:
67,163,163763,1,0,1:0:0:0:
63,191,163842,1,0,1:0:0:0:
66,219,163921,1,0,1:0:0:0:
76,248,164000,5,0,1:0:0:0:
46,266,164079,1,0,1:0:0:0:
31,298,164158,1,0,1:0:0:0:
37,333,164237,1,0,1:0:0:0:
61,358,164316,5,0,1:0:0:0:
96,353,164395,1,8,2:3:0:0:
131,349,164474,1,8,2:3:0:0:
167,345,164553,1,0,2:0:0:0:
202,341,164632,5,4,1:0:0:0:
238,344,164711,1,0,2:0:0:0:
273,347,164790,1,0,2:0:0:0:
309,350,164868,1,0,2:0:0:0:
344,353,164947,5,0,1:0:0:0:
380,351,165026,1,0,1:0:0:0:
415,348,165105,1,0,1:0:0:0:
451,346,165184,1,0,1:0:0:0:
486,344,165263,6,0,L|492:272,1,47.5,8|0,3:0|3:0,2:0:0:0:
424,168,165421,2,0,L|416:228,1,47.5,8|0,3:0|3:0,2:0:0:0:
344,352,165579,2,0,L|356:272,1,47.5,8|0,3:0|3:0,2:0:0:0:
292,168,165737,2,0,L|284:228,1,47.5,8|0,3:0|3:0,2:0:0:0:
202,341,165895,5,4,3:1:0:0:
204,56,168421,5,4,3:1:0:0:
340,144,168737,5,8,1:2:0:0:
120,268,168895,1,8,3:2:0:0:
344,228,169053,1,0,3:0:0:0:
100,140,169211,1,8,1:2:0:0:
308,304,169368,1,8,1:2:0:0:
204,56,169526,1,8,3:2:0:0:
232,356,169684,2,0,L|84:364,1,142.5,4|0,1:2|3:0,2:0:0:0:
48,380,170000,5,8,3:0:0:0:
62,361,170079,1,8,2:3:0:0:
72,339,170158,1,4,2:3:0:0:
74,316,170237,1,0,3:0:0:0:
71,292,170316,1,0,3:0:0:0:
60,271,170395,1,0,1:0:0:0:
45,253,170474,1,0,1:0:0:0:
29,236,170553,1,0,1:0:0:0:
19,214,170632,1,2,1:2:0:0:
15,191,170711,1,2,1:2:0:0:
17,168,170790,1,2,1:2:0:0:
27,146,170868,1,0,1:0:0:0:
44,128,170947,6,0,L|40:64,3,47.5,4|0|0|0,3:1|2:0|2:0|2:0,2:0:0:0:
72,48,171263,2,0,L|191:42,1,95,4|0,1:2|2:0,2:0:0:0:
332,180,171579,2,0,P|248:140|192:180,1,142.5,0|0,3:0|2:0,2:0:0:0:
188,184,171895,2,0,L|80:192,1,95,8|2,1:0|2:0,2:0:0:0:
0,360,172211,6,0,B|92:392|92:328|208:368,1,190,0|8,3:0|1:0,2:0:0:0:
264,216,172684,1,0,2:0:0:0:
492,300,172842,2,0,L|349:291,1,142.5,0|0,3:0|2:0,2:0:0:0:
324,272,173158,2,0,P|264:300|204:272,1,95,8|0,1:0|2:0,2:0:0:0:
16,172,173474,6,0,L|220:152,1,190,2|8,3:2|1:0,2:0:0:0:
416,248,173947,1,0,2:0:0:0:
380,32,174105,2,0,L|168:12,1,190,2|8,3:2|1:0,2:0:0:0:
16,172,174579,1,0,2:0:0:0:
156,352,174737,6,0,P|192:300|148:200,1,142.5,2|0,3:2|2:0,2:0:0:0:
100,200,175053,2,0,L|194:206,1,95,8|2,1:0|2:0,2:0:0:0:
384,320,175368,2,0,P|460:336|484:328,1,95,0|0,3:0|3:0,2:0:0:0:
348,148,175684,2,0,P|272:132|248:140,1,95,8|2,1:0|2:0,2:0:0:0:
440,248,176000,6,0,L|432:28,1,190,4|8,3:1|1:0,2:0:0:0:
296,216,176474,1,0,2:0:0:0:
168,104,176632,2,0,B|184:-4,1,95,2|0,3:2|2:0,2:0:0:0:
334,54,176947,2,0,B|350:162,1,95,8|8,1:0|1:2,2:0:0:0:
236,288,177263,5,4,3:1:0:0:
204,300,177579,1,0,2:0:0:0:
172,312,177895,1,0,2:0:0:0:
140,324,178211,1,2,2:0:0:0:
