osu file format v14

[General]
AudioFilename: HoneyWorks,GUMI.ogg
AudioLeadIn: 0
PreviewTime: 139217
Countdown: 0
SampleSet: Soft
StackLeniency: 0.3
Mode: 0
LetterboxInBreaks: 0
WidescreenStoryboard: 0

[Editor]
Bookmarks: 108263,118368,124842
DistanceSpacing: 0.2
BeatDivisor: 3
GridSize: 8
TimelineZoom: 1.6

[Metadata]
Title:Hatsukoi no Ehon
TitleUnicode:初恋の絵本
Artist:HoneyWorks feat. GUMI
ArtistUnicode:HoneyWorks feat. GUMI
Creator:yf_bmp
Version:Pururut's Insane
Source:
Tags:VOCALOID We have always been 10 cm apart. Kokuhaku Jikkou Iinkai japanese pop itsudatte bokura no koi wa datta. centi 好きすぎてやばい。 ~告白実行委員会キャラクターソング集~ 東京ウインターセッション 告白実行委員会〜恋愛シリーズ〜 Sukisugiteyabai Kokuhakujikkouiinkai Character Song Shu Tokyo Winter Session picture book first love 初恋ノート Hatsukoi Note confession executive committee series vocaloid sahuang z1085684963 Pururut Karen Vert Garden Binguo
BeatmapID:983853
BeatmapSetID:381779

[Difficulty]
HPDrainRate:6
CircleSize:3.7
OverallDifficulty:7
ApproachRate:8.7
SliderMultiplier:1.6
SliderTickRate:1

[Events]
//Background and Video events
0,0,"BG.jpg",0,0
//Break Periods
2,107990,117250
2,128200,131934
//Storyboard Layer 0 (Background)
//Storyboard Layer 1 (Fail)
//Storyboard Layer 2 (Pass)
//Storyboard Layer 3 (Foreground)
//Storyboard Layer 4 (Overlay)
//Storyboard Sound Samples

[TimingPoints]
-448,685.714285714286,4,2,1,60,1,0
9152,-100,4,2,1,70,0,0
9837,631.578947368421,4,2,1,80,1,0
9837,-76.9230769230769,4,2,1,80,0,0
10258,-76.9230769230769,4,2,1,70,0,0
11100,-100,4,2,1,80,0,0
11633,315.789473684211,4,2,1,80,1,0
11790,315.789473684211,4,2,1,80,1,0
26000,-200,4,2,1,80,0,0
26947,-100,4,2,1,50,0,0
34526,-100,4,2,1,20,0,0
35158,-100,4,2,1,30,0,0
35790,-100,4,2,1,40,0,0
36421,-100,4,2,1,50,0,0
37053,-100,4,2,1,70,0,0
42105,-100,4,2,1,80,0,0
42420,-100,4,2,1,60,0,0
43368,-100,4,2,1,80,0,0
43684,-100,4,2,1,40,0,0
43841,-100,4,2,1,50,0,0
44000,-100,4,2,1,60,0,0
44158,-100,4,2,1,70,0,0
44316,-100,4,2,1,80,0,0
61368,-133.333333333333,4,2,1,80,0,0
62632,-133.333333333333,4,2,1,70,0,0
62947,-133.333333333333,4,2,1,60,0,0
63263,-133.333333333333,4,2,1,50,0,0
64842,-100,4,2,1,80,0,1
81263,-100,4,2,1,80,0,0
82526,-200,4,2,1,80,0,0
85053,-100,4,2,1,80,0,0
100842,-100,4,2,2,80,0,0
101158,-100,4,2,1,80,0,0
105341,-100,4,2,2,80,0,0
105737,-100,4,2,1,80,0,0
107790,-100,4,2,1,60,0,0
122947,-100,4,2,1,40,0,0
123579,-100,4,2,1,45,0,0
124211,-100,4,2,1,50,0,0
124842,-100,4,2,1,55,0,0
125474,-100,4,2,1,60,0,0
135579,-200,4,2,1,60,0,0
140632,-83.3333333333333,4,2,1,80,0,1
149474,-100,4,2,1,80,0,0
150737,-100,4,2,1,80,0,1
151368,-83.3333333333333,4,2,1,80,0,1
160842,-83.3333333333333,4,2,1,80,0,0
162105,-83.3333333333333,4,2,1,80,0,1
170315,-83.3333333333333,4,2,1,40,0,1
170474,-83.3333333333333,4,2,1,50,0,1
170631,-83.3333333333333,4,2,1,60,0,1
170790,-83.3333333333333,4,2,1,70,0,1
170947,-100,4,2,1,80,0,0
172211,-83.3333333333333,4,2,1,80,0,1
178211,-200,4,2,1,80,0,1
180737,-200,4,2,1,20,0,0

[Colours]
Combo1 : 255,0,128
Combo2 : 128,255,0
Combo3 : 255,128,255
Combo4 : 252,14,55

[HitObjects]
78,132,237,6,0,P|138:149|174:135,1,80,0|0,2:0|2:0,2:0:0:0:
352,177,923,2,0,L|261:183,1,80,2|0,2:0|2:0,2:0:0:0:
452,81,1609,2,0,B|474:155|474:155|462:272,1,160,0|2,2:0|2:0,2:0:0:0:
160,384,2980,2,0,L|166:281,1,80,0|0,2:0|2:0,2:0:0:0:
317,250,3666,2,0,L|311:353,1,80,2|0,2:0|2:0,2:0:0:0:
50,244,4352,1,0,2:0:0:0:
39,138,4694,1,0,2:0:0:0:
126,56,5037,1,2,2:0:0:0:
306,106,5380,5,0,2:0:0:0:
306,106,5723,2,0,P|249:114|212:104,1,80,2|0,2:0|2:0,2:0:0:0:
50,244,6409,2,0,L|144:248,1,80,2|0,2:0|2:0,2:0:0:0:
426,343,7094,2,0,L|334:340,1,80,0|0,2:0|2:0,2:0:0:0:
38,73,7780,1,2,2:0:0:0:
99,1,8123,1,0,2:0:0:0:
136,88,8466,2,0,L|138:173,1,80,2|0,2:0|2:0,2:0:0:0:
246,308,9152,2,0,L|240:211,1,80,2|0,2:0|2:0,2:0:0:0:
310,176,9609,6,0,L|315:133,1,26.6666666666667,2|0,2:0|2:0,2:0:0:0:
397,123,9837,6,0,L|393:87,3,34.6666666666667,2|0|0|0,2:0|2:0|2:0|2:0,2:0:0:0:
473,38,10258,2,0,L|471:103,3,34.6666666666667,2|0|0|0,2:0|2:0|2:0|2:0,2:0:0:0:
411,259,11100,6,0,L|421:347,1,80,0|0,2:0|2:0,2:0:0:0:
342,384,11633,1,0,3:0:0:0:
342,384,11711,1,0,3:0:0:0:
342,384,11790,6,0,B|307:360|307:360|201:393|162:369|136:345|172:322|231:343,1,240,0|0,2:0|2:0,2:0:0:0:
117,105,12421,1,0,3:0:0:0:
199,204,12579,1,4,2:3:0:0:
79,296,12737,2,0,L|86:212,1,80,4|0,2:3|3:0,2:0:0:0:
298,80,13053,6,0,P|292:134|275:168,1,80,4|0,2:0|2:0,2:0:0:0:
281,157,13290,1,0,2:0:0:0:
281,157,13368,1,0,2:0:0:0:
210,38,13526,5,2,2:0:0:0:
384,31,13684,1,8,2:3:0:0:
390,200,13842,1,8,2:3:0:0:
390,200,13921,1,0,2:0:0:0:
390,200,14000,1,2,2:0:0:0:
259,301,14158,1,0,3:0:0:0:
163,153,14316,6,0,L|174:242,1,80,4|0,2:0|2:0,2:0:0:0:
67,356,14632,2,0,L|57:263,1,80,0|0,2:0|3:0,2:0:0:0:
65,263,14868,1,0,3:0:0:0:
71,251,14947,2,0,L|63:163,1,80,8|0,2:3|3:0,2:0:0:0:
141,58,15263,1,4,2:3:0:0:
294,113,15421,6,0,L|251:109,1,40,0|0,3:0|3:0,2:0:0:0:
245,201,15579,2,0,L|343:190,1,80,4|0,2:0|2:0,2:0:0:0:
496,264,15895,2,0,L|398:263,1,80,0|6,2:0|2:0,2:0:0:0:
324,302,16211,1,0,2:0:0:0:
172,376,16368,6,0,L|219:385,1,40,0|0,1:0|2:0,2:0:0:0:
223,290,16526,2,0,L|118:303,1,80,0|0,2:0|1:0,2:0:0:0:
0,228,16842,2,0,P|55:229|106:221,1,80,4|0,2:0|3:0,2:0:0:0:
149,116,17158,1,0,3:0:0:0:
275,118,17316,1,8,3:0:0:0:
377,34,17474,1,8,3:0:0:0:
479,125,17632,1,0,3:0:0:0:
479,125,17711,1,0,2:0:0:0:
479,125,17790,2,0,L|473:219,1,80,4|4,3:0|3:0,2:0:0:0:
318,384,18105,6,0,B|301:363|301:363|282:267|306:205,1,160,4|2,2:0|2:0,2:0:0:0:
463,339,18579,1,0,2:0:0:0:
463,339,18658,1,0,2:0:0:0:
463,339,18737,1,0,3:0:0:0:
368,178,18895,1,2,2:0:0:0:
212,287,19053,2,0,L|134:287,2,40,0|0|0,1:0|2:0|1:0,2:0:0:0:
95,94,19368,6,0,B|108:173|108:173|87:271,1,160,4|0,2:0|3:0,2:0:0:0:
91,251,19842,1,0,3:0:0:0:
4,175,20000,1,0,3:0:0:0:
170,42,20158,1,0,3:0:0:0:
210,265,20316,2,0,L|224:181,1,80,0|0,1:0|3:0,2:0:0:0:
468,137,20632,6,0,P|410:152|305:126,1,160,8|8,2:0|2:0,2:0:0:0:
57,46,21105,1,8,2:0:0:0:
105,121,21263,2,0,B|114:160|114:160|92:290,1,160,0|4,3:0|1:2,2:0:0:0:
150,357,21737,1,0,1:0:0:0:
150,357,21816,1,0,1:0:0:0:
150,357,21895,1,2,2:0:0:0:
256,192,21974,12,0,24105,2:0:0:0:
458,24,24263,6,0,L|452:65,2,40,0|0|0,2:0|2:0|1:0,2:0:0:0:
341,122,24579,6,0,L|346:186,2,40,0|0|0,3:0|3:0|1:0,2:0:0:0:
231,209,24895,5,0,3:0:0:0:
234,228,24974,1,0,3:0:0:0:
238,247,25053,1,0,1:0:0:0:
135,318,25211,5,0,3:0:0:0:
140,337,25290,1,0,3:0:0:0:
146,355,25368,1,0,1:0:0:0:
21,109,25526,2,0,L|34:175,1,40,0|0,1:0|1:0,2:0:0:0:
68,226,25684,6,0,B|99:199|99:199|123:131,1,80,4|0,2:0|2:0,2:0:0:0:
175,113,25921,1,0,2:0:0:0:
175,113,26000,6,0,B|194:128|194:128|249:136|249:136|306:128|306:128|332:111,1,160,0|0,2:0|2:0,2:0:0:0:
483,357,26947,6,0,L|493:278,1,80,0|0,3:0|2:0,2:0:0:0:
260,306,27263,2,0,L|239:224,1,80,0|0,3:0|2:0,2:0:0:0:
431,146,27579,2,0,L|421:226,1,80,0|0,3:0|2:0,2:0:0:0:
312,151,27895,1,0,3:0:0:0:
328,54,28053,1,0,2:0:0:0:
207,1,28211,6,0,P|229:58|182:129,1,120,0|0,3:0|2:0,2:0:0:0:
183,183,28526,2,0,L|193:274,1,80,0|0,3:0|2:0,2:0:0:0:
29,353,28842,2,0,L|19:254,1,80,0|0,3:0|2:0,2:0:0:0:
85,168,29158,1,0,3:0:0:0:
85,168,29316,1,0,2:0:0:0:
264,347,29474,6,0,P|214:355|124:337,1,120,0|0,3:0|2:0,2:0:0:0:
352,366,29790,2,0,L|452:371,1,80,0|0,3:0|2:0,2:0:0:0:
506,324,30105,1,0,3:0:0:0:
389,247,30263,1,0,2:0:0:0:
262,284,30421,1,0,3:0:0:0:
389,247,30579,1,0,2:0:0:0:
389,247,30658,1,0,2:0:0:0:
389,247,30737,6,0,L|379:131,1,80,0|0,3:0|2:0,2:0:0:0:
270,0,31053,2,0,B|283:31|283:31|292:94|266:169,1,160,0|0,3:0|3:0,2:0:0:0:
19,257,31684,6,0,L|32:345,1,80,0|0,3:0|2:0,2:0:0:0:
147,110,32000,2,0,L|138:204,1,80,0|0,3:0|2:0,2:0:0:0:
313,270,32316,2,0,P|238:274|203:261,1,80,0|0,3:0|2:0,2:0:0:0:
17,118,32632,1,0,3:0:0:0:
65,43,32790,1,0,2:0:0:0:
241,19,32947,2,0,L|143:4,1,80,0|0,3:0|2:0,2:0:0:0:
268,102,33263,6,0,P|328:112|392:95,1,120,0|0,3:0|2:0,2:0:0:0:
432,39,33579,2,0,L|522:39,1,80,0|0,3:0|2:0,2:0:0:0:
226,174,33895,2,0,L|116:167,1,80,0|0,3:0|2:0,2:0:0:0:
0,354,34211,2,0,L|98:345,1,80,0|0,3:0|2:0,2:0:0:0:
293,249,34526,5,0,1:0:0:0:
99,250,34684,1,0,1:0:0:0:
248,331,34842,1,0,1:0:0:0:
227,110,35000,1,0,1:0:0:0:
95,170,35158,2,0,L|99:264,1,80,0|0,2:0|2:0,2:0:0:0:
325,334,35474,2,0,P|289:341|238:325,1,80,0|0,1:0|1:0,2:0:0:0:
293,249,35790,5,8,1:2:0:0:
395,169,35947,1,0,1:0:0:0:
412,349,36105,1,8,1:2:0:0:
395,169,36263,1,8,1:2:0:0:
486,287,36421,6,0,L|492:185,2,80,4|0|8,1:2|2:0|1:2,2:0:0:0:
241,234,36895,1,8,1:2:0:0:
204,342,37053,6,0,P|156:357|124:352,1,80,0|0,2:0|2:0,2:0:0:0:
22,363,37368,1,2,2:0:0:0:
64,271,37526,2,0,L|60:175,1,80,0|0,2:0|2:0,2:0:0:0:
154,91,37842,1,0,2:0:0:0:
154,91,38000,2,0,L|159:188,1,80,2|0,2:0|2:0,2:0:0:0:
241,234,38316,6,0,P|313:245|423:203,1,160,0|2,2:0|2:0,2:0:0:0:
395,221,38790,1,0,2:0:0:0:
484,95,38947,2,0,P|412:84|302:126,1,160,0|2,2:0|2:0,2:0:0:0:
329,107,39421,1,0,2:0:0:0:
487,223,39579,2,0,L|479:327,1,80,0|0,2:0|2:0,2:0:0:0:
391,358,39895,2,0,P|332:369|300:358,1,80,2|0,2:0|2:0,2:0:0:0:
227,311,40211,1,0,2:0:0:0:
227,311,40368,1,0,2:0:0:0:
337,196,40526,2,0,L|343:299,1,80,2|0,2:0|2:0,2:0:0:0:
246,150,40842,6,0,L|249:57,1,80,0|0,2:0|2:0,2:0:0:0:
239,60,41079,1,0,2:0:0:0:
231,49,41158,2,0,P|164:66|70:38,1,160,2|0,2:0|2:0,2:0:0:0:
0,153,41632,2,0,L|9:246,1,80,0|2,2:0|2:0,2:0:0:0:
117,384,41947,1,0,2:0:0:0:
117,384,42026,1,0,2:0:0:0:
117,384,42105,2,0,B|108:309|108:309|123:225,1,160,6|8,1:2|1:2,2:0:0:0:
202,156,42579,5,8,1:2:0:0:
220,253,42737,1,8,1:2:0:0:
316,226,42895,1,8,1:2:0:0:
299,320,43053,1,8,1:2:0:0:
393,289,43211,1,8,1:2:0:0:
389,384,43368,5,0,1:0:0:0:
409,384,43447,1,0,1:0:0:0:
428,382,43526,1,8,3:0:0:0:
447,380,43605,1,8,3:0:0:0:
466,379,43684,6,0,L|527:373,3,40,0|0|0|0,1:0|1:0|1:0|1:0,2:0:0:0:
472,287,44000,2,0,L|526:293,1,40,0|0,1:0|1:0,2:0:0:0:
472,192,44158,2,0,L|526:205,1,40,0|0,1:0|1:0,2:0:0:0:
433,115,44316,5,8,3:0:0:0:
414,123,44395,1,0,3:0:0:0:
394,128,44474,1,0,3:0:0:0:
374,132,44553,1,0,3:0:0:0:
354,135,44632,2,0,L|245:129,1,80,4|0,3:1|2:0,2:0:0:0:
122,189,44947,2,0,L|214:195,1,80,8|2,1:2|2:0,2:0:0:0:
277,268,45263,1,0,3:0:0:0:
359,207,45421,1,0,2:0:0:0:
277,268,45579,2,0,L|275:365,1,80,8|2,1:2|2:0,2:0:0:0:
476,212,45895,6,0,P|390:218|332:191,1,120,0|0,3:0|2:0,2:0:0:0:
298,153,46211,2,0,L|299:49,1,80,8|2,1:2|2:0,2:0:0:0:
155,273,46526,2,0,P|95:276|60:268,1,80,0|0,3:0|3:0,2:0:0:0:
177,165,46842,1,8,1:2:0:0:
194,383,47000,1,2,2:0:0:0:
276,333,47158,6,0,L|370:337,1,80,0|0,3:0|2:0,2:0:0:0:
489,249,47474,2,0,L|403:248,1,80,8|2,1:2|2:0,2:0:0:0:
269,142,47790,1,0,3:0:0:0:
350,98,47947,1,0,3:0:0:0:
237,238,48105,2,0,P|185:249|130:229,1,80,8|2,1:2|2:0,2:0:0:0:
90,58,48421,6,0,P|104:123|68:203,1,120,0|0,3:0|2:0,2:0:0:0:
39,235,48737,2,0,L|41:323,1,80,12|2,1:2|2:0,2:0:0:0:
140,370,49053,1,0,3:0:0:0:
140,271,49211,1,0,3:0:0:0:
230,317,49368,2,0,L|328:315,1,80,8|2,1:2|2:0,2:0:0:0:
484,205,49684,6,0,P|440:227|388:222,1,80,4|0,2:0|2:0,2:0:0:0:
248,197,50000,2,0,L|246:108,1,80,8|2,1:2|2:0,2:0:0:0:
86,32,50316,2,0,L|90:128,1,80,0|0,3:0|3:0,2:0:0:0:
97,312,50632,2,0,L|92:218,1,80,8|2,1:2|2:0,2:0:0:0:
316,241,50947,2,0,P|274:272|232:268,1,80,0|0,3:0|2:0,2:0:0:0:
402,132,51263,1,12,1:2:0:0:
412,305,51421,1,2,2:0:0:0:
175,237,51579,2,0,P|170:283|193:331,1,80,0|0,3:0|3:0,2:0:0:0:
78,107,51895,2,0,L|74:209,1,80,8|0,1:2|2:0,2:0:0:0:
304,14,52211,6,0,L|309:154,1,120,2|0,3:2|2:0,2:0:0:0:
366,209,52526,2,0,P|312:225|257:205,1,80,8|2,1:2|2:0,2:0:0:0:
433,155,52842,2,0,L|549:164,1,80,0|0,3:0|3:0,2:0:0:0:
383,74,53158,1,8,1:2:0:0:
436,244,53316,1,2,2:0:0:0:
436,244,53474,6,0,L|438:339,1,80,0|2,3:0|2:0,2:0:0:0:
324,376,53790,2,0,L|323:280,1,80,8|2,1:2|2:0,2:0:0:0:
214,344,54105,2,0,P|166:352|111:333,1,80,0|0,3:0|3:0,2:0:0:0:
244,209,54421,1,4,1:2:0:0:
64,286,54579,1,0,2:0:0:0:
64,286,54737,5,0,1:0:0:0:
132,196,54895,1,0,1:0:0:0:
132,196,55053,2,0,L|127:101,1,80,8|0,3:0|2:0,2:0:0:0:
243,36,55368,2,0,L|247:142,1,80,2|0,3:2|2:0,2:0:0:0:
337,182,55684,1,0,3:0:0:0:
421,116,55842,1,0,2:0:0:0:
492,210,56000,5,0,1:0:0:0:
492,210,56158,1,0,1:0:0:0:
421,116,56316,1,4,3:0:0:0:
337,182,56474,1,0,2:0:0:0:
401,273,56632,2,0,L|400:381,1,80,2|0,3:2|2:0,2:0:0:0:
295,368,56947,2,0,P|236:381|204:370,1,80,0|0,3:0|2:0,2:0:0:0:
124,344,57263,5,0,1:0:0:0:
124,344,57421,1,0,1:0:0:0:
241,202,57579,2,0,L|243:303,1,80,8|0,3:0|2:0,2:0:0:0:
142,105,57895,2,0,L|150:202,1,80,2|0,3:2|2:0,2:0:0:0:
395,77,58211,2,0,L|391:173,1,80,0|0,3:0|2:0,2:0:0:0:
334,275,58526,5,6,2:0:0:0:
474,199,58684,1,0,2:0:0:0:
470,384,58842,2,0,L|473:292,1,80,0|0,2:0|2:0,2:0:0:0:
288,375,59158,2,0,P|213:378|180:358,1,80,0|0,2:0|2:0,2:0:0:0:
41,332,59474,2,0,L|140:331,1,80,2|0,3:2|2:0,2:0:0:0:
133,322,59711,1,0,2:0:0:0:
146,312,59790,6,0,P|158:245|138:190,1,120,4|0,2:1|2:0,2:0:0:0:
75,150,60105,2,0,L|81:32,1,80,2|0,2:0|2:0,2:0:0:0:
368,140,60579,5,0,2:0:0:0:
436,184,60737,1,2,2:0:0:0:
510,162,60895,1,0,2:0:0:0:
282,83,61368,6,0,L|286:161,1,60.0000000000002,0|2,2:0|2:0,2:0:0:0:
205,205,61684,2,0,L|213:272,1,60.0000000000002,0|0,2:0|2:0,2:0:0:0:
339,331,62000,2,0,P|303:325|268:334,1,60.0000000000002,2|0,2:0|2:0,2:0:0:0:
191,359,62237,1,0,2:0:0:0:
191,359,62316,6,0,L|146:360,3,30.0000000000001,2|0|2|0,2:0|2:0|2:0|2:0,2:0:0:0:
84,306,62632,2,0,L|44:313,3,30.0000000000001,0|0|2|0,2:0|2:0|2:0|2:0,2:0:0:0:
114,226,62947,1,0,2:0:0:0:
114,226,63026,1,0,2:0:0:0:
114,226,63105,1,0,2:0:0:0:
114,226,63184,1,0,2:0:0:0:
114,226,63263,2,0,L|108:171,3,30.0000000000001,2|0|0|0,2:0|2:0|2:0|2:0,2:0:0:0:
154,129,63579,5,0,2:0:0:0:
475,104,64211,1,0,2:0:0:0:
475,104,64526,1,0,2:0:0:0:
475,104,64842,6,0,L|482:211,1,80,4|0,3:1|2:0,2:0:0:0:
378,204,65158,1,4,1:2:0:0:
397,302,65316,1,0,2:0:0:0:
292,384,65474,2,0,L|294:278,1,80,0|2,3:0|2:0,2:0:0:0:
223,69,65790,2,0,P|235:142|228:175,1,80,8|0,1:0|2:0,2:0:0:0:
2,276,66105,6,0,L|141:267,1,120,2|0,3:2|2:0,2:0:0:0:
203,290,66421,1,8,1:0:0:0:
290,144,66579,1,0,2:0:0:0:
412,251,66737,2,0,P|351:258|319:244,1,80,0|2,3:2|2:0,2:0:0:0:
161,124,67053,1,8,1:0:0:0:
360,60,67211,1,0,2:0:0:0:
360,60,67290,1,0,2:0:0:0:
360,60,67368,6,0,L|364:146,1,80,2|0,3:2|2:0,2:0:0:0:
204,369,67684,2,0,L|202:284,1,80,8|0,1:0|2:0,2:0:0:0:
473,238,68000,2,0,L|477:324,1,80,2|0,3:2|2:0,2:0:0:0:
264,196,68316,1,8,1:0:0:0:
512,155,68474,1,0,2:0:0:0:
354,351,68632,6,0,L|347:246,1,80,2|2,3:2|2:0,2:0:0:0:
383,28,68947,2,0,L|390:133,1,80,4|0,1:2|1:0,2:0:0:0:
252,277,69263,1,0,3:0:0:0:
443,219,69421,1,0,3:0:0:0:
443,219,69500,1,0,2:0:0:0:
443,219,69579,2,0,P|453:270|448:310,1,80,8|2,1:0|2:0,2:0:0:0:
310,369,69895,6,0,P|250:384|187:372,1,120,4|0,3:1|2:0,2:0:0:0:
113,343,70211,2,0,L|8:346,1,80,8|0,1:0|2:0,2:0:0:0:
189,156,70526,2,0,L|194:262,1,80,2|0,3:2|2:0,2:0:0:0:
193,248,70763,1,0,2:0:0:0:
193,260,70842,1,8,1:0:0:0:
0,91,71000,1,0,2:0:0:0:
100,40,71158,6,0,B|109:76|109:76|104:131,1,80,2|0,3:2|2:0,2:0:0:0:
6,277,71474,2,0,B|-3:241|-3:241|2:186,1,80,8|0,1:0|2:0,2:0:0:0:
125,234,71790,2,0,L|255:231,1,120,0|0,3:0|2:0,2:0:0:0:
312,189,72105,1,8,1:0:0:0:
274,67,72263,1,0,2:0:0:0:
401,95,72421,6,0,P|415:58|415:10,1,80,2|0,3:2|2:0,2:0:0:0:
512,152,72737,2,0,L|507:250,1,80,8|0,1:0|2:0,2:0:0:0:
286,311,73053,1,2,3:2:0:0:
409,160,73211,1,0,2:0:0:0:
457,348,73368,1,8,1:0:0:0:
297,146,73526,1,8,1:2:0:0:
297,146,73684,6,0,L|304:250,1,80,0|8,1:0|1:2,2:0:0:0:
310,234,73921,1,0,1:2:0:0:
317,241,74000,1,0,1:0:0:0:
428,311,74158,1,8,1:2:0:0:
432,300,74237,1,0,1:0:0:0:
436,289,74316,1,2,1:2:0:0:
405,154,74474,1,8,1:2:0:0:
406,165,74553,1,0,1:0:0:0:
406,176,74632,1,2,1:2:0:0:
346,346,74790,1,0,1:0:0:0:
336,352,74868,1,2,1:2:0:0:
325,357,74947,6,0,L|213:338,1,80,6|0,3:1|2:0,2:0:0:0:
198,117,75263,2,0,L|237:223,1,80,6|0,1:2|2:0,2:0:0:0:
71,341,75579,2,0,L|143:253,1,80,0|0,3:0|2:0,2:0:0:0:
292,92,75895,1,10,1:0:0:0:
320,273,76053,1,0,2:0:0:0:
404,198,76211,6,0,P|443:206|497:191,1,80,2|0,3:1|2:0,2:0:0:0:
199,265,76526,2,0,L|118:263,1,80,6|0,1:2|2:0,2:0:0:0:
316,35,76842,2,0,L|312:135,1,80,2|0,3:1|2:0,2:0:0:0:
435,281,77158,1,10,1:0:0:0:
280,358,77316,1,0,2:0:0:0:
280,358,77395,1,0,2:0:0:0:
280,358,77474,6,0,L|286:253,1,80,2|0,3:1|2:0,2:0:0:0:
96,79,77790,2,0,L|102:172,1,80,10|0,1:0|2:0,2:0:0:0:
345,205,78105,2,0,P|281:185|250:189,1,80,2|0,3:1|2:0,2:0:0:0:
11,318,78421,2,0,P|75:338|106:334,1,80,10|0,1:0|2:0,2:0:0:0:
416,313,78737,6,0,P|353:294|283:329,1,120,2|2,3:1|2:0,2:0:0:0:
240,366,79053,1,4,1:2:0:0:
493,331,79211,1,2,1:2:0:0:
345,135,79368,2,0,L|346:227,1,80,2|0,3:1|2:0,2:0:0:0:
169,312,79684,2,0,L|171:212,1,80,10|2,1:0|2:0,2:0:0:0:
182,220,79921,1,0,2:0:0:0:
190,209,80000,6,0,P|119:225|43:206,1,120,4|0,3:1|2:0,2:0:0:0:
26,152,80316,2,0,L|19:58,1,80,10|2,1:0|2:0,2:0:0:0:
278,79,80632,2,0,L|283:0,1,80,2|0,3:1|2:0,2:0:0:0:
402,155,80947,1,8,1:0:0:0:
266,224,81105,1,8,1:2:0:0:
153,43,81263,6,0,L|163:146,1,80,4|0,3:1|2:0,2:0:0:0:
70,325,81579,1,0,2:0:0:0:
39,217,81737,1,0,2:0:0:0:
70,325,81895,2,0,P|129:339|211:311,1,120,0|0,2:0|2:0,2:0:0:0:
262,354,82211,2,0,L|341:353,1,80,2|0,2:0|2:0,2:0:0:0:
478,202,82526,6,0,P|506:295|412:212,1,320,0|0,2:0|2:0,2:0:0:0:
50,77,84421,5,0,2:0:0:0:
17,175,84579,1,0,2:0:0:0:
149,294,84737,1,0,2:0:0:0:
116,211,84895,1,0,2:0:0:0:
88,373,85053,2,0,L|3:379,1,80,0|0,1:0|2:0,2:0:0:0:
168,315,85368,5,0,1:0:0:0:
256,317,85526,1,0,1:0:0:0:
332,361,85684,1,0,1:0:0:0:
419,347,85842,1,0,1:0:0:0:
461,269,86000,1,0,1:0:0:0:
409,197,86158,1,0,1:0:0:0:
321,201,86316,5,0,1:0:0:0:
300,212,86395,1,0,1:0:0:0:
277,220,86474,1,0,1:0:0:0:
253,223,86553,1,0,1:0:0:0:
229,222,86632,1,0,1:0:0:0:
206,216,86711,1,0,1:0:0:0:
184,207,86790,1,8,3:0:0:0:
164,193,86868,1,8,3:0:0:0:
147,177,86947,1,8,3:0:0:0:
196,63,87105,5,0,3:0:0:0:
196,63,87184,1,0,3:0:0:0:
196,63,87263,2,0,L|267:58,3,40,2|2|2|2,2:0|2:0|2:0|2:0,2:0:0:0:
298,121,87579,6,0,P|358:132|390:120,1,80,4|0,3:1|2:0,2:0:0:0:
488,52,87895,2,0,L|475:142,1,80,8|2,1:0|2:0,2:0:0:0:
419,215,88211,2,0,P|425:285|445:320,1,80,0|2,3:0|2:0,2:0:0:0:
441,378,88447,1,0,2:0:0:0:
441,378,88526,2,0,L|330:364,1,80,8|2,1:0|2:0,2:0:0:0:
149,142,88842,6,0,B|161:157|161:157|186:234|126:317,1,160,0|8,3:0|1:0,2:0:0:0:
142,292,89316,1,2,2:0:0:0:
267,212,89474,1,0,3:0:0:0:
246,55,89632,1,2,2:0:0:0:
65,78,89790,1,8,1:0:0:0:
87,193,89947,1,2,2:0:0:0:
33,289,90105,6,0,L|38:386,1,80,2|0,3:2|2:0,2:0:0:0:
225,186,90421,2,0,L|219:283,1,80,8|2,1:0|2:0,2:0:0:0:
394,91,90737,2,0,L|403:182,1,80,0|2,3:0|2:0,2:0:0:0:
503,337,91053,2,0,P|441:337|411:317,1,80,8|2,1:0|2:0,2:0:0:0:
154,98,91368,6,0,P|211:80|323:104,1,160,2|8,3:2|1:0,2:0:0:0:
308,95,91842,1,2,2:0:0:0:
239,274,92000,2,0,L|232:186,1,80,0|2,2:0|2:0,2:0:0:0:
425,49,92316,2,0,P|432:107|426:149,1,80,8|2,1:0|2:0,2:0:0:0:
247,373,92632,6,0,P|177:342|151:252,1,160,2|8,3:2|1:0,2:0:0:0:
410,301,93105,1,2,2:0:0:0:
394,116,93263,1,0,3:0:0:0:
278,228,93421,1,2,2:0:0:0:
278,228,93500,1,0,2:0:0:0:
278,228,93579,2,0,L|289:134,1,80,8|2,1:0|2:0,2:0:0:0:
63,24,93895,6,0,P|82:91|56:151,1,120,2|0,3:2|2:0,2:0:0:0:
9,202,94211,2,0,L|16:291,1,80,8|2,1:0|2:0,2:0:0:0:
163,263,94526,2,0,L|161:377,1,80,0|2,3:0|2:0,2:0:0:0:
306,164,94842,2,0,L|301:260,1,80,8|2,1:0|2:0,2:0:0:0:
435,383,95158,6,0,L|427:234,1,120,2|0,3:2|2:0,2:0:0:0:
481,200,95474,1,8,1:0:0:0:
362,65,95632,1,2,2:0:0:0:
362,65,95711,1,2,2:0:0:0:
362,65,95790,2,0,P|312:76|262:64,1,80,2|0,3:2|2:0,2:0:0:0:
88,161,96105,2,0,L|189:161,1,80,8|0,1:0|2:0,2:0:0:0:
248,358,96421,5,0,3:0:0:0:
158,311,96579,1,0,2:0:0:0:
254,204,96737,1,8,1:0:0:0:
190,62,96895,1,2,2:0:0:0:
190,62,96974,1,2,2:0:0:0:
190,62,97053,2,0,L|92:60,1,80,0|2,3:0|2:0,2:0:0:0:
0,256,97368,2,0,L|97:258,1,80,8|0,1:0|1:0,2:0:0:0:
411,298,97684,6,2,P|366:322|292:309,1,120,4|0,3:1|2:0,2:1:0:0:
229,258,98000,1,12,1:2:0:0:
344,141,98158,1,0,2:0:0:0:
344,141,98316,2,2,L|351:240,1,80,0|0,3:0|2:0,2:1:0:0:
462,51,98632,2,0,B|454:95|454:95|459:153,1,80,8|0,1:2|2:0,2:0:0:0:
496,319,98947,6,2,P|492:259|429:213,1,120,2|0,3:2|2:0,2:1:0:0:
411,298,99263,2,0,P|366:322|292:309,1,120,8|8,1:2|2:0,2:0:0:0:
228,276,99579,2,2,L|130:282,1,80,0|0,3:2|2:0,2:1:0:0:
384,143,99895,2,2,L|500:151,1,80,8|0,1:2|2:0,2:1:0:0:
215,0,100211,6,2,B|201:56|201:56|210:165,1,160,2|8,3:2|1:2,2:1:0:0:
94,227,100684,1,0,2:0:0:0:
94,227,100842,2,2,B|106:193|106:193|101:117,1,80,2|0,3:1|2:0,2:1:0:0:
48,48,101158,1,8,1:2:0:0:
4,267,101316,1,0,2:0:0:0:
4,267,101395,1,0,2:0:0:0:
4,267,101474,6,2,P|59:306|179:282,1,160,2|8,3:2|1:2,2:1:0:0:
414,169,101947,1,0,2:0:0:0:
414,169,102105,2,2,P|359:208|239:184,1,160,0|8,3:1|1:2,2:1:0:0:
198,123,102579,1,2,2:0:0:0:
143,222,102737,6,2,L|149:313,1,80,0|0,3:0|2:0,2:1:0:0:
312,364,103053,2,0,P|260:381|212:368,1,80,12|0,1:2|2:0,2:0:0:0:
352,217,103368,1,0,3:1:0:0:
390,309,103526,1,0,3:2:0:0:
390,309,103684,2,0,L|484:311,1,80,8|0,1:2|1:2,2:0:0:0:
479,303,103921,1,2,1:2:0:0:
487,293,104000,6,2,B|475:235|475:235|489:144,1,120,2|0,3:2|2:0,2:1:0:0:
416,112,104316,2,0,L|398:206,1,80,8|0,1:2|2:0,2:0:0:0:
282,257,104632,1,0,3:1:0:0:
262,123,104790,1,4,3:2:0:0:
49,202,104947,2,0,B|74:215|74:215|177:207,1,120,8|0,1:2|1:0,2:0:0:0:
213,279,105263,6,0,L|202:351,3,40,4|2|8|8,3:1|3:1|3:0|3:0,2:0:0:0:
176,350,105579,5,4,3:0:0:0:
206,338,105658,1,4,3:0:0:0:
237,341,105737,1,4,1:2:0:0:
267,351,105816,1,0,2:0:0:0:
294,367,105895,1,4,2:0:0:0:
325,374,105974,1,0,3:0:0:0:
356,371,106053,1,0,3:0:0:0:
387,365,106132,1,0,3:0:0:0:
415,350,106211,1,8,3:0:0:0:
434,324,106290,1,8,3:0:0:0:
447,295,106368,1,4,3:0:0:0:
450,263,106447,1,4,3:0:0:0:
439,232,106526,6,2,B|427:220|420:188|420:188|429:157|426:115,1,120,4|0,1:2|2:0,2:1:0:0:
474,51,106842,1,2,1:2:0:0:
344,203,107000,1,2,1:2:0:0:
505,149,107158,1,2,1:2:0:0:
368,26,107316,1,2,1:2:0:0:
344,203,107474,1,2,1:2:0:0:
210,96,107632,1,2,1:2:0:0:
408,124,107790,5,2,2:0:0:0:
65,90,117895,6,0,B|72:134|72:134|68:178,1,80,4|0,3:2|2:0,2:0:0:0:
169,137,118211,2,0,L|168:227,1,80,0|0,3:0|2:0,2:0:0:0:
266,200,118526,2,0,L|264:294,1,80,0|0,3:2|2:0,2:0:0:0:
366,266,118842,2,0,L|363:345,1,80,0|0,3:0|2:0,2:0:0:0:
447,119,119158,2,0,B|472:156|472:156|469:286,1,160,0|0,3:2|3:0,2:0:0:0:
367,55,119632,5,0,2:0:0:0:
285,116,119790,2,0,P|218:125|125:94,1,160,0|0,3:2|3:0,2:0:0:0:
346,200,120263,5,0,2:0:0:0:
121,285,120421,2,0,L|287:276,1,160,0|0,3:0|3:0,2:0:0:0:
385,151,120895,1,0,2:0:0:0:
504,350,121053,2,0,P|449:363|416:350,1,80,0|0,3:0|2:0,2:0:0:0:
347,229,121368,2,0,P|359:275|353:315,1,80,0|0,3:0|2:0,2:0:0:0:
164,369,121684,6,0,B|131:378|104:379|104:379|56:370|11:304,1,160,0|0,3:0|3:0,2:0:0:0:
73,233,122158,1,0,2:0:0:0:
170,264,122316,1,0,3:0:0:0:
73,233,122474,1,0,2:0:0:0:
73,233,122632,2,0,L|65:143,1,80,0|0,2:0|2:0,2:0:0:0:
166,154,122947,6,0,L|174:52,1,80,0|0,1:0|1:0,2:0:0:0:
256,4,123263,1,0,1:0:0:0:
412,117,123421,1,0,1:0:0:0:
242,197,123579,1,0,1:0:0:0:
242,197,123737,1,0,1:0:0:0:
331,28,123895,1,0,1:0:0:0:
331,28,124053,1,0,1:0:0:0:
437,202,124211,6,0,P|377:200|332:172,1,80,8|8,1:2|1:2,2:0:0:0:
490,108,124526,1,8,1:2:0:0:
490,108,124684,1,8,1:2:0:0:
512,264,124842,2,0,L|511:351,1,80,8|8,1:2|1:2,2:0:0:0:
287,319,125158,2,0,L|289:235,1,80,8|8,1:2|1:2,2:0:0:0:
117,94,125474,6,0,L|125:157,3,40,8|0|0|0,1:2|2:0|1:0|1:0,2:0:0:0:
47,264,125790,2,0,L|50:198,3,40,8|0|0|0,1:2|2:0|1:0|1:0,2:0:0:0:
74,205,126105,5,8,1:2:0:0:
103,193,126184,1,0,2:0:0:0:
134,195,126263,1,0,1:0:0:0:
161,211,126342,1,0,1:0:0:0:
183,233,126421,1,8,1:2:0:0:
210,249,126500,1,0,2:0:0:0:
240,257,126579,1,0,1:0:0:0:
271,255,126658,1,0,1:0:0:0:
300,242,126737,5,10,1:2:0:0:
254,147,126895,1,8,1:2:0:0:
336,82,127053,1,10,1:2:0:0:
424,147,127211,1,8,1:2:0:0:
299,321,127368,2,0,L|300:221,1,80,8|8,1:2|1:2,2:0:0:0:
134,115,127684,2,0,L|133:199,1,80,8|8,1:2|1:2,2:0:0:0:
9,245,128000,5,4,2:0:0:0:
468,68,132579,5,0,2:0:0:0:
470,74,132737,1,0,2:0:0:0:
474,80,132895,1,0,2:0:0:0:
477,86,133053,6,0,L|468:182,1,80,12|8,3:2|3:2,2:0:0:0:
372,240,133368,2,0,P|330:247|277:234,1,80,8|10,3:2|3:2,2:0:0:0:
70,132,133684,2,0,P|112:125|165:138,1,80,8|8,3:2|3:2,2:0:0:0:
151,326,134000,2,0,P|144:284|157:231,1,80,10|8,3:2|3:2,2:0:0:0:
299,30,134316,6,0,P|306:72|293:125,1,80,10|8,1:2|1:2,2:0:0:0:
85,256,134632,1,8,1:2:0:0:
141,121,134790,1,8,1:2:0:0:
256,223,134947,1,10,1:2:0:0:
256,350,135105,1,8,1:2:0:0:
465,293,135263,2,0,P|400:300|379:288,1,80,8|8,1:2|1:2,2:0:0:0:
51,308,135579,6,0,P|8:276|127:262,1,300,2|0,2:0|2:0,2:0:0:0:
141,273,136842,6,0,L|310:266,1,160,0|0,2:0|2:0,2:0:0:0:
308,273,140000,5,2,1:2:0:0:
312,279,140158,1,0,1:0:0:0:
316,286,140316,1,0,1:0:0:0:
321,291,140474,1,0,1:0:0:0:
325,296,140632,6,0,L|323:357,1,48,4|0,3:1|2:0,2:0:0:0:
249,378,140790,2,0,P|192:384|137:368,1,96,0|4,2:0|1:2,2:0:0:0:
62,330,141105,1,0,2:0:0:0:
62,330,141184,1,0,2:0:0:0:
62,330,141263,2,0,L|59:225,1,96,0|0,3:0|2:0,2:0:0:0:
244,70,141579,2,0,L|248:176,1,96,8|2,1:0|1:2,2:0:0:0:
437,353,141895,2,0,L|426:247,1,96,0|0,3:2|2:0,2:0:0:0:
512,170,142211,5,8,1:0:0:0:
346,100,142368,1,0,2:0:0:0:
204,239,142526,2,0,P|264:249|314:236,1,96,2|0,3:2|2:0,2:0:0:0:
391,213,142842,1,8,1:0:0:0:
217,150,143000,1,0,1:0:0:0:
125,289,143158,6,0,L|133:391,1,96,2|0,3:2|2:0,2:0:0:0:
391,213,143474,2,0,L|378:101,1,96,8|0,1:0|3:0,2:0:0:0:
480,51,143790,1,2,2:0:0:0:
442,273,143947,1,0,3:0:0:0:
285,229,144105,1,8,1:0:0:0:
512,225,144263,1,2,1:2:0:0:
512,225,144342,1,2,1:2:0:0:
512,225,144421,6,0,P|523:285|503:332,1,96,2|0,3:2|2:0,2:0:0:0:
359,383,144737,2,0,L|252:371,1,96,8|0,1:0|2:0,2:0:0:0:
70,262,145053,2,0,L|186:252,1,96,0|2,3:0|1:2,2:0:0:0:
402,154,145368,1,8,1:0:0:0:
245,17,145526,1,2,1:2:0:0:
245,17,145605,1,2,1:2:0:0:
245,17,145684,6,0,B|227:50|227:50|240:170,1,144,4|0,3:1|2:0,2:0:0:0:
297,216,146000,1,4,1:2:0:0:
436,94,146158,1,0,2:0:0:0:
509,283,146316,2,0,L|495:181,1,96,2|0,3:2|2:0,2:0:0:0:
335,303,146632,2,0,P|273:308|230:282,1,96,8|2,1:0|1:2,2:0:0:0:
13,262,146947,6,0,L|158:254,1,144,2|0,3:2|2:0,2:0:0:0:
236,201,147263,1,8,1:0:0:0:
86,161,147421,1,0,2:0:0:0:
95,357,147579,1,2,3:2:0:0:
286,361,147737,1,0,2:0:0:0:
286,361,147816,1,0,2:0:0:0:
286,361,147895,2,0,L|190:349,1,96,8|8,1:0|1:0,2:0:0:0:
480,300,148211,6,0,L|358:309,1,96,2|0,3:2|2:0,2:0:0:0:
296,21,148526,2,0,P|319:88|304:183,1,144,8|0,1:0|2:0,2:0:0:0:
242,208,148842,2,0,L|248:321,1,96,2|0,2:0|3:0,2:0:0:0:
416,143,149158,2,0,L|411:243,1,96,8|2,1:0|1:2,2:0:0:0:
146,383,149474,6,0,L|132:318,3,40,0|0|8|8,3:0|2:0|1:2|1:2,2:0:0:0:
148,195,149790,2,0,L|138:252,3,40,8|2|10|8,1:0|2:0|1:2|1:2,2:0:0:0:
218,291,150105,5,2,3:2:0:0:
249,294,150184,1,0,1:0:0:0:
280,295,150263,1,8,1:2:0:0:
311,299,150342,1,0,1:0:0:0:
342,301,150421,1,2,1:2:0:0:
373,304,150500,1,2,1:2:0:0:
404,306,150579,1,0,2:0:0:0:
435,307,150658,1,2,1:2:0:0:
461,308,150737,5,6,3:1:0:0:
22,268,151053,5,4,1:2:0:0:
22,268,151368,6,0,P|31:218|15:150,1,96,2|0,3:1|2:0,2:0:0:0:
119,0,151684,2,0,P|110:47|126:115,1,96,10|2,1:0|1:2,2:0:0:0:
216,145,152000,6,0,L|378:136,1,144,2|0,3:2|2:0,2:0:0:0:
431,101,152316,1,10,1:0:0:0:
268,20,152474,1,0,2:0:0:0:
160,205,152632,1,2,3:1:0:0:
325,258,152790,1,0,2:0:0:0:
325,258,152947,2,0,L|325:368,1,96,10|0,1:0|1:0,2:0:0:0:
464,170,153263,2,0,L|470:276,1,96,2|0,3:2|2:0,2:0:0:0:
469,265,153500,1,0,2:0:0:0:
469,265,153579,21,10,1:0:0:0:
237,249,153737,1,0,3:0:0:0:
190,372,153895,2,0,P|123:377|96:368,1,96,2|0,2:1|3:0,2:0:0:0:
299,166,154211,1,10,1:0:0:0:
325,354,154368,1,2,1:2:0:0:
325,354,154526,6,0,L|452:357,1,96,2|0,3:2|2:0,2:0:0:0:
153,258,154842,2,0,L|55:269,1,96,10|0,1:0|2:0,2:0:0:0:
389,192,155158,2,0,L|516:195,1,96,2|2,3:1|1:2,2:0:0:0:
126,98,155474,2,0,L|28:109,1,96,10|2,1:0|1:2,2:0:0:0:
274,3,155790,6,0,P|296:80|272:149,1,144,6|0,3:1|2:0,2:0:0:0:
208,187,156105,2,0,B|203:220|203:220|211:309,1,96,4|0,1:2|2:0,2:0:0:0:
208,282,156342,1,0,2:0:0:0:
208,282,156421,1,2,3:2:0:0:
347,218,156579,1,0,2:0:0:0:
384,365,156737,2,0,B|351:370|351:370|262:362,1,96,8|2,1:0|1:2,2:0:0:0:
0,368,157053,6,0,P|88:382|171:360,1,144,2|0,3:1|2:0,2:0:0:0:
212,334,157368,1,10,1:0:0:0:
182,195,157526,1,0,2:0:0:0:
33,212,157684,2,0,B|15:176|15:176|24:92,1,96,2|0,3:1|2:0,2:0:0:0:
290,44,158000,2,0,B|308:80|308:80|299:164,1,96,10|8,1:0|1:0,2:0:0:0:
310,147,158237,1,8,1:0:0:0:
316,155,158316,6,0,L|440:149,1,96,4|0,2:0|2:0,2:0:0:0:
512,299,158632,5,0,1:0:0:0:
512,299,158711,1,0,1:0:0:0:
512,299,158790,1,0,1:0:0:0:
512,299,158868,1,0,1:0:0:0:
512,299,158947,6,0,L|406:286,1,96,4|0,2:0|2:0,2:0:0:0:
217,358,159263,5,0,1:0:0:0:
217,358,159342,1,0,1:0:0:0:
217,358,159421,1,0,1:0:0:0:
217,358,159500,1,0,1:0:0:0:
217,358,159579,6,0,L|321:353,1,96,4|0,2:0|2:0,2:0:0:0:
425,136,159895,6,0,L|362:138,3,48,0|0|0|0,1:0|1:0|1:0|1:0,2:0:0:0:
295,23,160211,6,0,L|301:89,3,48,0|0|0|0,1:0|1:0|1:0|1:0,2:0:0:0:
191,157,160526,6,0,L|265:150,3,48,0|0|0|0,1:0|1:0|1:0|1:0,2:0:0:0:
318,226,160842,5,6,2:0:0:0:
238,291,161000,5,0,1:0:0:0:
237,298,161079,1,0,1:0:0:0:
236,305,161158,1,0,1:0:0:0:
234,312,161237,1,0,1:0:0:0:
233,319,161316,1,6,2:0:0:0:
142,241,161474,5,0,1:0:0:0:
143,247,161553,1,0,1:0:0:0:
144,254,161632,1,0,1:0:0:0:
144,262,161711,1,0,1:0:0:0:
145,269,161790,1,6,2:0:0:0:
231,164,161947,5,0,1:0:0:0:
230,171,162026,1,0,1:0:0:0:
228,177,162105,6,0,L|235:66,1,96,6|0,2:0|1:0,2:0:0:0:
439,10,162421,2,0,L|434:122,1,96,0|6,1:0|2:0,2:0:0:0:
439,374,162737,2,0,L|434:262,1,96,0|0,1:0|1:0,2:0:0:0:
295,245,163053,1,8,1:3:0:0:
295,245,163132,1,0,1:0:0:0:
295,245,163211,1,0,2:0:0:0:
295,245,163290,1,0,2:0:0:0:
295,245,163368,6,0,P|228:267|117:217,1,192,4|0,3:1|1:0,2:0:0:0:
388,202,163842,1,0,1:0:0:0:
388,202,163921,1,0,1:0:0:0:
388,202,164000,2,0,L|388:263,3,48,0|0|0|0,1:0|1:0|1:0|1:0,2:0:0:0:
482,349,164316,2,0,L|432:314,3,48,0|8|8|0,1:0|2:3|2:3|2:0,2:0:0:0:
337,336,164632,6,0,P|266:345|218:325,1,96,4|0,1:0|2:0,2:0:0:0:
173,294,164868,1,0,2:0:0:0:
173,294,164947,2,0,L|186:175,1,96,0|0,1:0|1:0,2:0:0:0:
279,233,165184,1,0,1:0:0:0:
279,233,165263,2,0,L|288:114,1,96,8|8,3:0|3:0,2:0:0:0:
390,164,165500,1,0,3:0:0:0:
390,164,165579,2,0,L|397:38,1,96,8|8,3:0|3:0,2:0:0:0:
309,46,165816,1,0,3:0:0:0:
309,46,165895,6,0,P|218:69|119:28,1,192,4|2,3:1|2:0,2:0:0:0:
9,238,167000,1,0,2:0:0:0:
9,238,167079,1,0,2:0:0:0:
9,238,167158,6,0,L|117:233,1,96,0|0,2:0|2:0,2:0:0:0:
230,143,167474,2,0,B|251:175|251:175|238:351,1,192,2|0,2:0|2:0,2:0:0:0:
366,384,167947,1,0,2:0:0:0:
366,384,168026,1,0,2:0:0:0:
366,384,168105,2,0,L|373:287,1,96,2|0,2:0|2:0,2:0:0:0:
495,110,168421,5,4,3:1:0:0:
495,110,168579,1,8,1:2:0:0:
312,0,168737,1,8,1:2:0:0:
312,0,168895,1,8,3:2:0:0:
148,119,169053,1,0,3:0:0:0:
148,119,169211,1,8,1:2:0:0:
167,297,169368,1,8,1:2:0:0:
167,297,169526,1,8,3:2:0:0:
167,297,169684,6,0,L|68:286,1,96,4|4,1:2|2:3,2:0:0:0:
11,336,169921,1,0,3:0:0:0:
11,336,170000,1,8,3:0:0:0:
132,208,170158,2,0,L|127:132,3,48,4|0|0|0,2:3|3:0|3:0|1:0,2:0:0:0:
239,37,170474,2,0,L|242:108,3,48,0|0|2|2,1:0|1:0|1:2|1:2,2:0:0:0:
365,184,170790,2,0,L|363:131,1,48,2|0,1:2|1:0,2:0:0:0:
512,83,170947,6,0,L|512:136,1,53.3333333333333,4|0,3:1|2:0,2:0:0:0:
488,230,171158,2,0,P|461:261|442:269,1,53.3333333333333,0|4,2:0|1:2,2:0:0:0:
358,307,171368,2,0,L|297:303,1,53.3333333333333,0|0,2:0|2:0,2:0:0:0:
137,356,171579,6,0,L|238:352,1,80,0|2,3:0|2:0,2:0:0:0:
512,360,171895,2,0,L|409:351,1,80,8|2,1:0|2:0,2:0:0:0:
314,48,172211,2,0,B|326:100|326:100|312:224,1,144,0|0,3:0|2:0,2:0:0:0:
247,230,172526,1,8,1:0:0:0:
173,131,172684,1,0,2:0:0:0:
19,306,172842,2,0,L|140:306,1,96,0|0,3:0|2:0,2:0:0:0:
247,230,173158,1,8,1:0:0:0:
420,360,173316,1,0,2:0:0:0:
420,360,173395,1,0,2:0:0:0:
420,360,173474,6,0,P|374:372|328:360,1,96,2|0,3:2|2:0,2:0:0:0:
500,197,173790,2,0,L|493:299,1,96,8|0,1:0|2:0,2:0:0:0:
329,47,174105,2,0,L|333:153,1,96,2|0,3:2|2:0,2:0:0:0:
375,276,174421,1,8,1:0:0:0:
154,174,174579,1,0,2:0:0:0:
154,174,174658,1,0,2:0:0:0:
154,174,174737,6,0,L|158:275,1,96,2|0,3:2|2:0,2:0:0:0:
426,95,175053,2,0,L|422:198,1,96,8|2,1:0|2:0,2:0:0:0:
45,102,175368,2,0,L|52:213,1,96,0|0,3:0|3:0,2:0:0:0:
326,180,175684,2,0,L|320:288,1,96,8|2,1:0|2:0,2:0:0:0:
312,288,175921,1,0,2:0:0:0:
303,297,176000,6,0,P|207:281|134:311,1,144,4|0,3:1|2:0,2:0:0:0:
111,357,176316,2,0,L|8:359,1,96,8|0,1:0|2:0,2:0:0:0:
243,177,176632,1,2,3:2:0:0:
262,384,176790,1,0,2:0:0:0:
467,343,176947,1,8,1:0:0:0:
467,343,177105,1,8,1:2:0:0:
467,343,177263,6,0,L|361:337,1,96,4|0,3:1|2:0,2:0:0:0:
76,240,177579,2,0,L|172:234,1,96,0|0,2:0|2:0,2:0:0:0:
486,177,177895,2,0,L|364:174,1,96,0|0,2:0|2:0,2:0:0:0:
192,61,178211,6,0,B|408:56|408:56|290:89|237:136|232:221|252:271|275:311|319:330|383:330,1,640,2|0,2:0|2:0,2:0:0:0:
