osu file format v14

[General]
AudioFilename: HoneyWorks,GUMI.ogg
AudioLeadIn: 0
PreviewTime: 139217
Countdown: 0
SampleSet: Soft
StackLeniency: 0.7
Mode: 0
LetterboxInBreaks: 0
WidescreenStoryboard: 0

[Editor]
Bookmarks: 124842,161237
DistanceSpacing: 0.9
BeatDivisor: 4
GridSize: 4
TimelineZoom: 1.6

[Metadata]
Title:Hatsukoi no Ehon
TitleUnicode:初恋の絵本
Artist:HoneyWorks feat. GUMI
ArtistUnicode:HoneyWorks feat. GUMI
Creator:yf_bmp
Version:Love Chronicles: 2016
Source:
Tags:VOCALOID We have always been 10 cm apart. Kokuhaku Jikkou Iinkai japanese pop itsudatte bokura no koi wa datta. centi 好きすぎてやばい。 ~告白実行委員会キャラクターソング集~ 東京ウインターセッション 告白実行委員会〜恋愛シリーズ〜 Sukisugiteyabai Kokuhakujikkouiinkai Character Song Shu Tokyo Winter Session picture book first love 初恋ノート Hatsukoi Note confession executive committee series vocaloid sahuang z1085684963 Pururut Karen Vert Garden Binguo
BeatmapID:835057
BeatmapSetID:381779

[Difficulty]
HPDrainRate:6.5
CircleSize:4.2
OverallDifficulty:8.5
ApproachRate:9.3
SliderMultiplier:1.7
SliderTickRate:1

[Events]
//Background and Video events
0,0,"BG.jpg",0,0
//Break Periods
2,82450,84499
2,137322,139446
//Storyboard Layer 0 (Background)
//Storyboard Layer 1 (Fail)
//Storyboard Layer 2 (Pass)
//Storyboard Layer 3 (Foreground)
//Storyboard Layer 4 (Overlay)
//Storyboard Sound Samples

[TimingPoints]
-448,685.714285714286,4,2,1,70,1,0
9837,631.578947368421,4,2,1,70,1,0
11633,315.789473684211,4,2,1,80,1,0
11790,315.789473684211,4,2,1,80,1,0
13789,-100,4,2,1,35,0,0
13895,-100,4,2,1,80,0,0
14000,-100,4,2,1,35,0,0
14105,-100,4,2,1,80,0,0
14210,-100,4,2,1,35,0,0
14316,-100,4,2,1,80,0,0
20710,-100,4,2,1,30,0,0
20790,-100,4,2,1,80,0,0
20868,-100,4,2,1,30,0,0
20947,-100,4,2,1,80,0,0
21025,-100,4,2,1,30,0,0
21105,-100,4,2,1,80,0,0
21183,-100,4,2,1,30,0,0
21263,-100,4,2,1,80,0,0
21895,-200,4,2,1,80,0,0
24263,-100,4,2,1,80,0,0
25684,-133.333333333333,4,2,1,80,0,0
26947,-133.333333333333,4,2,1,50,0,0
34526,-133.333333333333,4,2,1,20,0,0
35158,-133.333333333333,4,2,1,30,0,0
35790,-133.333333333333,4,2,1,40,0,0
36421,-133.333333333333,4,2,1,50,0,0
37053,-133.333333333333,4,2,1,70,0,0
42105,-76.9230769230769,4,2,1,80,0,0
42421,-76.9230769230769,4,2,1,60,0,0
43368,-76.9230769230769,4,2,1,80,0,0
43684,-76.9230769230769,4,2,1,40,0,0
43842,-76.9230769230769,4,2,1,50,0,0
44000,-76.9230769230769,4,2,1,60,0,0
44158,-76.9230769230769,4,2,1,70,0,0
44316,-100,4,2,1,80,0,0
54421,-76.9230769230769,4,2,1,80,0,0
54737,-100,4,2,1,80,0,0
54815,-100,4,2,1,20,0,0
54895,-100,4,2,1,80,0,0
54973,-100,4,2,1,20,0,0
55053,-100,4,2,1,80,0,0
55131,-100,4,2,1,20,0,0
55211,-100,4,2,1,80,0,0
56078,-100,4,2,1,20,0,0
56158,-100,4,2,1,80,0,0
56236,-100,4,2,1,20,0,0
56316,-100,4,2,1,80,0,0
56394,-100,4,2,1,20,0,0
56474,-100,4,2,1,80,0,0
58526,-76.9230769230769,4,2,1,80,0,0
59000,-133.333333333333,4,2,1,80,0,0
62632,-133.333333333333,4,2,1,70,0,0
62947,-133.333333333333,4,2,1,60,0,0
63263,-133.333333333333,4,2,1,50,0,0
64842,-100,4,2,1,80,0,1
82211,-50,4,2,1,80,0,0
82250,-50,4,2,1,20,0,0
85053,-166.666666666667,4,2,1,80,0,0
86000,-100,4,2,1,80,0,0
86947,-66.6666666666667,4,2,1,80,0,0
87579,-100,4,2,1,80,0,0
97684,-76.9230769230769,4,2,1,80,0,0
99579,-90.9090909090909,4,2,1,80,0,0
100211,-76.9230769230769,4,2,1,80,0,0
100526,-90.9090909090909,4,2,1,80,0,0
100842,-90.9090909090909,4,2,2,80,0,0
101158,-90.9090909090909,4,2,1,80,0,0
105105,-58.8235294117647,4,2,1,80,0,0
105263,-58.8235294117647,4,2,1,80,0,1
105421,-76.9230769230769,4,2,1,80,0,0
105737,-58.8235294117647,4,2,1,80,0,1
106053,-76.9230769230769,4,2,1,80,0,0
106526,-76.9230769230769,4,2,1,80,0,1
107790,-166.666666666667,4,2,1,60,0,0
116868,-166.666666666667,4,2,1,20,0,0
116947,-76.9230769230769,4,2,1,60,0,0
117183,-76.9230769230769,4,2,1,20,0,0
117263,-133.333333333333,4,2,1,60,0,0
118526,-120.481927710843,4,2,1,60,0,0
119158,-100,4,2,1,60,0,0
119790,-80,4,2,1,60,0,0
120421,-66.6666666666667,4,2,1,60,0,0
120657,-66.6666666666667,4,2,1,20,0,0
120737,-66.6666666666667,4,2,1,60,0,0
121289,-66.6666666666667,4,2,1,20,0,0
121368,-66.6666666666667,4,2,1,60,0,0
121920,-66.6666666666667,4,2,1,20,0,0
122000,-66.6666666666667,4,2,1,60,0,0
122158,-100,4,2,1,60,0,0
122947,-100,4,2,1,40,0,0
123579,-100,4,2,1,45,0,0
124211,-100,4,2,1,50,0,0
124842,-100,4,2,1,55,0,0
125474,-100,4,2,1,60,0,0
128158,-133.333333333333,4,2,1,60,0,0
134316,-133.333333333333,4,2,1,45,0,0
135579,-133.333333333333,4,2,1,60,0,0
140000,-55.5555555555556,4,2,1,60,0,0
140316,-55.5555555555556,4,2,1,40,0,0
140395,-55.5555555555556,4,2,1,50,0,0
140474,-55.5555555555556,4,2,1,60,0,0
140553,-55.5555555555556,4,2,1,70,0,0
140632,-100,4,2,1,80,0,1
146000,-76.9230769230769,4,2,1,80,0,1
146316,-100,4,2,1,80,0,1
156105,-66.6666666666667,4,2,1,80,0,1
156421,-100,4,2,1,80,0,1
158316,-76.9230769230769,4,2,1,80,0,1
160684,-100,4,2,1,80,0,1
161000,-76.9230769230769,4,2,1,80,0,1
165895,-76.9230769230769,4,2,1,80,0,0
170316,-76.9230769230769,4,2,1,40,0,0
170474,-76.9230769230769,4,2,1,50,0,0
170632,-76.9230769230769,4,2,1,60,0,0
170790,-76.9230769230769,4,2,1,70,0,0
170947,-100,4,2,1,80,0,0
171263,-100,4,2,1,80,0,1
173474,-76.9230769230769,4,2,1,80,0,1
174105,-100,4,2,1,80,0,1
178211,-50,4,2,1,80,0,0
178250,-50,4,2,1,20,0,0

[Colours]
Combo1 : 255,0,128
Combo2 : 128,255,0
Combo3 : 255,128,255
Combo4 : 252,14,55

[HitObjects]
264,80,11633,5,0,3:0:0:0:
264,80,11711,1,0,3:0:0:0:
264,80,11790,2,0,B|300:52|300:52|421:77,1,170,4|0,2:1|2:0,2:0:0:0:
372,196,12263,1,2,2:0:0:0:
252,64,12421,1,0,3:0:0:0:
264,172,12579,1,4,2:3:0:0:
68,184,12737,1,4,2:3:0:0:
168,244,12895,1,0,3:0:0:0:
168,244,12974,1,0,3:0:0:0:
168,244,13053,6,0,P|185:162|142:91,1,170,4|0,2:0|2:0,2:0:0:0:
68,184,13526,1,2,2:0:0:0:
128,348,13684,6,0,P|155:330|216:320,1,56.6666666666667,8|0,2:3|2:0,2:0:0:0:
319,305,13895,6,0,P|292:300|264:304,1,56.6666666666667,8|0,2:3|2:0,2:0:0:0:
400,340,14105,6,0,P|429:354|468:402,1,56.6666666666667,4|0,2:3|2:0,2:0:0:0:
512,204,14316,6,0,P|444:251|365:230,1,170,4|0,2:0|2:0,2:0:0:0:
436,92,14790,1,0,3:0:0:0:
432,120,14868,1,0,3:0:0:0:
428,148,14947,1,2,3:2:0:0:
272,184,15105,1,0,3:0:0:0:
356,340,15263,1,4,2:3:0:0:
365,230,15421,1,0,3:0:0:0:
365,230,15500,1,0,3:0:0:0:
365,230,15579,6,0,B|332:184|272:184|272:184|256:216|233:231,1,170,4|0,2:0|2:0,2:0:0:0:
88,332,16053,2,0,L|184:344,1,85,6|0,2:0|2:0,2:0:0:0:
40,168,16368,1,0,1:0:0:0:
72,348,16526,1,0,2:0:0:0:
144,232,16684,1,0,1:0:0:0:
188,356,16842,5,4,2:0:0:0:
356,340,17000,1,2,3:2:0:0:
272,348,17158,1,2,3:2:0:0:
440,332,17316,1,8,3:0:0:0:
504,140,17474,1,8,3:0:0:0:
392,264,17632,1,0,3:0:0:0:
340,108,17790,1,4,3:0:0:0:
464,224,17947,1,4,3:0:0:0:
464,224,18026,1,0,3:0:0:0:
464,224,18105,6,0,P|396:181|324:218,1,170,4|0,2:0|2:0,2:0:0:0:
244,92,18579,2,0,L|252:180,1,85,2|0,2:0|3:0,2:0:0:0:
88,308,18895,2,0,L|95:223,1,85,2|0,2:0|1:0,2:0:0:0:
244,196,19211,1,0,1:0:0:0:
220,200,19290,1,0,1:0:0:0:
196,204,19368,5,4,2:0:0:0:
24,76,19526,1,0,3:0:0:0:
94,223,19684,1,0,3:0:0:0:
108,64,19842,1,0,3:0:0:0:
88,308,20000,1,0,3:0:0:0:
74,141,20158,1,0,3:0:0:0:
44,380,20316,1,0,1:0:0:0:
248,300,20474,1,0,3:0:0:0:
248,300,20553,1,0,3:0:0:0:
236,320,20632,6,0,L|184:328,1,42.5,8|0,2:0|2:0,2:0:0:0:
388,340,20790,2,0,L|440:332,1,42.5,8|0,2:0|2:0,2:0:0:0:
272,176,20947,2,0,L|275:218,1,42.5,8|0,2:0|2:0,2:0:0:0:
456,252,21105,2,0,L|452:209,1,42.5,8|0,2:0|2:0,2:0:0:0:
308,372,21263,5,0,3:0:0:0:
440,248,21421,1,0,3:0:0:0:
260,184,21579,1,4,1:2:0:0:
324,28,21737,1,0,1:0:0:0:
324,28,21816,1,0,1:0:0:0:
324,28,21895,6,0,B|256:52|196:12|196:12|208:108|168:176|168:176|236:220|252:316|252:316|296:268|364:276,1,595,2|0,2:0|2:0,2:0:0:0:
472,340,24263,2,0,P|483:347|499:347,2,28.3333333333333,0|0|2,2:0|2:0|2:0,2:0:0:0:
448,348,24421,6,0,P|437:330|434:310,1,42.5,0|0,1:0|2:0,2:0:0:0:
312,232,24579,1,0,3:0:0:0:
336,240,24658,1,0,3:0:0:0:
360,240,24737,6,0,P|371:222|374:201,1,42.5,0|0,1:0|2:0,2:0:0:0:
504,140,24895,1,0,3:0:0:0:
480,148,24974,1,0,3:0:0:0:
456,148,25053,6,0,P|445:130|442:109,1,42.5,0|0,1:0|2:0,2:0:0:0:
320,44,25211,1,0,3:0:0:0:
344,52,25290,1,0,3:0:0:0:
368,52,25368,6,0,P|379:34|382:13,1,42.5,0|0,1:0|2:0,2:0:0:0:
216,28,25526,1,0,1:0:0:0:
180,96,25605,1,0,1:0:0:0:
207,168,25684,6,0,P|201:22|117:141,1,382.500000000001,4|0,2:0|2:0,2:0:0:0:
180,96,26947,6,0,P|156:68|120:60,1,63.7500000000001,0|0,3:0|2:0,2:0:0:0:
244,236,27263,2,0,P|278:221|296:190,1,63.7500000000001,0|0,3:0|2:0,2:0:0:0:
116,140,27579,2,0,P|79:142|51:167,1,63.7500000000001,0|0,3:0|2:0,2:0:0:0:
340,132,27895,2,0,P|348:96|333:62,1,63.7500000000001,0|0,3:0|2:0,2:0:0:0:
192,176,28211,2,0,P|168:212|196:300,1,127.5,0|0,3:0|3:0,2:0:0:0:
185,290,28842,1,0,3:0:0:0:
264,316,29000,1,0,2:0:0:0:
172,300,29158,1,0,3:0:0:0:
276,304,29316,1,0,2:0:0:0:
67,186,29474,6,0,P|39:162|31:126,1,63.7500000000001,0|0,3:0|2:0,2:0:0:0:
207,250,29790,2,0,P|192:284|161:302,1,63.7500000000001,0|0,3:0|2:0,2:0:0:0:
111,122,30105,2,0,P|113:85|138:57,1,63.7500000000001,0|0,3:0|2:0,2:0:0:0:
103,346,30421,2,0,P|67:354|33:339,1,63.7500000000001,0|0,3:0|2:0,2:0:0:0:
147,198,30737,2,0,P|183:174|271:202,1,127.5,0|0,3:0|3:0,2:0:0:0:
280,312,31211,1,0,2:0:0:0:
252,208,31368,1,0,3:0:0:0:
296,320,31526,1,0,2:0:0:0:
240,220,31684,1,0,3:0:0:0:
312,320,31842,1,0,2:0:0:0:
224,223,32000,6,0,P|192:228|162:217,1,63.7500000000001,0|0,3:0|2:0,2:0:0:0:
180,88,32316,2,0,P|185:119|205:143,1,63.7500000000001,0|0,3:0|2:0,2:0:0:0:
280,284,32632,2,0,P|254:303|223:308,1,63.7500000000001,0|0,3:0|2:0,2:0:0:0:
268,20,32947,2,0,P|257:49|261:81,1,63.7500000000001,0|0,3:0|2:0,2:0:0:0:
160,360,33263,6,0,P|144:332|143:300,1,63.7500000000001,0|0,3:0|2:0,2:0:0:0:
396,84,33579,2,0,P|370:64|339:59,1,63.7500000000001,0|0,3:0|2:0,2:0:0:0:
64,312,33895,2,0,P|64:280|79:252,1,63.7500000000001,0|0,3:0|2:0,2:0:0:0:
376,192,34211,2,0,P|363:162|339:142,1,63.7500000000001,0|0,3:0|2:0,2:0:0:0:
56,172,34526,5,0,1:0:0:0:
79,252,34684,1,0,1:0:0:0:
156,280,34842,1,0,1:0:0:0:
220,228,35000,1,0,1:0:0:0:
196,40,35158,5,0,1:0:0:0:
168,132,35316,1,0,1:0:0:0:
216,216,35474,1,0,1:0:0:0:
312,220,35632,1,0,1:0:0:0:
392,72,35790,5,8,1:2:0:0:
404,180,35947,1,0,1:0:0:0:
308,232,36105,1,8,1:2:0:0:
232,156,36263,1,8,1:2:0:0:
0,164,36421,5,8,1:2:0:0:
112,223,36579,1,0,1:0:0:0:
229,171,36737,1,8,1:2:0:0:
252,44,36895,1,8,1:2:0:0:
36,40,37053,6,0,P|66:31|96:41,1,63.7500000000001,0|0,2:0|2:0,2:0:0:0:
172,79,37368,1,2,2:0:0:0:
172,79,37526,1,0,2:0:0:0:
36,40,37684,2,0,P|63:55|77:83,1,63.7500000000001,0|0,2:0|2:0,2:0:0:0:
64,168,38000,1,2,2:0:0:0:
0,116,38158,1,0,2:0:0:0:
203,142,38316,6,0,P|173:131|142:138,1,63.7500000000001,0|0,2:0|2:0,2:0:0:0:
64,168,38632,1,2,2:0:0:0:
64,168,38790,1,0,2:0:0:0:
203,142,38947,2,0,P|174:155|157:181,1,63.7500000000001,0|0,2:0|2:0,2:0:0:0:
163,267,39263,1,2,2:0:0:0:
232,220,39421,1,0,2:0:0:0:
316,360,39579,6,0,B|352:384|396:372|396:372|396:348|409:331,1,127.5,0|2,2:0|2:0,2:0:0:0:
512,188,40053,2,0,B|471:211|461:252|461:252|482:264|490:284,1,127.5,0|0,2:0|2:0,2:0:0:0:
368,160,40526,1,2,2:0:0:0:
359,148,40842,6,0,P|392:92|382:31,1,127.5,0|2,2:0|2:0,2:0:0:0:
236,44,41316,2,0,P|234:107|278:155,1,127.5,0|0,2:0|2:0,2:0:0:0:
312,79,41790,1,2,2:0:0:0:
313,96,42105,6,0,L|319:206,1,110.5,6|0,1:2|2:0,2:0:0:0:
396,244,42421,5,8,1:2:0:0:
228,276,42579,1,8,1:2:0:0:
372,320,42737,5,8,1:2:0:0:
210,263,42895,1,8,1:2:0:0:
312,376,43053,5,8,1:2:0:0:
200,245,43211,1,8,1:2:0:0:
232,380,43368,5,0,1:0:0:0:
196,360,43447,1,0,1:0:0:0:
152,360,43526,1,8,3:0:0:0:
112,376,43605,1,8,3:0:0:0:
72,364,43684,5,0,1:0:0:0:
64,344,43763,1,0,1:0:0:0:
60,324,43842,1,0,1:0:0:0:
56,300,43921,1,0,1:0:0:0:
56,276,44000,1,0,1:0:0:0:
60,248,44079,1,0,1:0:0:0:
76,208,44158,5,0,1:0:0:0:
92,168,44237,1,0,1:0:0:0:
94,127,44316,2,0,P|88:101|67:70,1,42.5,8|0,3:0|3:0,3:0:0:0:
4,128,44474,2,0,L|0:200,1,42.5,0|0,3:0|3:0,2:0:0:0:
180,136,44632,6,0,B|212:92|264:96|264:96|284:129|322:135,1,170,4|8,3:1|1:2,2:0:0:0:
322,135,45105,1,2,2:0:0:0:
504,152,45263,1,0,3:0:0:0:
328,120,45421,1,0,2:0:0:0:
500,168,45579,2,0,L|412:173,1,85,8|2,1:2|2:0,2:0:0:0:
256,52,45895,5,0,3:0:0:0:
256,332,46211,1,8,1:2:0:0:
168,308,46368,1,2,2:0:0:0:
164,288,46447,1,2,2:0:0:0:
160,268,46526,1,0,3:0:0:0:
256,312,46684,1,0,3:0:0:0:
352,268,46842,1,8,1:2:0:0:
256,292,47000,1,2,2:0:0:0:
72,284,47158,6,0,L|64:384,1,85,0|0,3:0|2:0,2:0:0:0:
8,152,47474,1,8,1:2:0:0:
189,135,47632,1,2,2:0:0:0:
12,136,47790,1,0,3:0:0:0:
192,152,47947,1,0,3:0:0:0:
16,120,48105,2,0,L|107:113,1,85,8|2,1:2|2:0,2:0:0:0:
256,32,48421,5,0,3:0:0:0:
256,352,48737,1,12,1:2:0:0:
396,324,48895,1,2,2:0:0:0:
400,304,48974,1,2,2:0:0:0:
404,284,49053,1,0,3:0:0:0:
256,332,49211,1,0,3:0:0:0:
108,284,49368,1,8,1:2:0:0:
256,352,49526,1,2,2:0:0:0:
492,312,49684,6,0,L|484:220,1,85,4|0,2:0|2:0,2:0:0:0:
436,68,50000,2,0,L|428:160,1,85,8|2,1:2|2:0,2:0:0:0:
348,204,50316,1,0,3:0:0:0:
260,176,50474,1,0,3:0:0:0:
280,268,50632,1,8,1:2:0:0:
492,312,50790,1,2,2:0:0:0:
492,312,50868,1,2,2:0:0:0:
491,312,50947,6,0,P|461:340|420:344,1,85,0|0,3:0|2:0,2:0:0:0:
192,244,51263,2,0,B|192:292|192:292|208:325,1,85,12|2,1:2|2:0,2:0:0:0:
424,252,51579,2,0,P|387:232|371:193,1,85,0|0,3:0|3:0,2:0:0:0:
112,336,51895,2,0,L|216:344,1,85,8|0,1:2|2:0,2:0:0:0:
300,136,52211,6,0,P|285:75|320:25,1,127.5,2|0,3:2|2:0,2:0:0:0:
312,16,52526,2,0,L|408:24,1,85,8|2,1:2|2:0,2:0:0:0:
368,204,52842,1,0,3:0:0:0:
308,124,53000,1,0,3:0:0:0:
408,112,53158,1,8,1:2:0:0:
356,204,53316,1,2,2:0:0:0:
156,204,53474,5,0,3:0:0:0:
140,112,53632,1,2,2:0:0:0:
140,112,53711,1,2,2:0:0:0:
140,112,53790,1,8,1:2:0:0:
124,20,53947,1,2,2:0:0:0:
228,140,54105,1,0,3:0:0:0:
68,168,54263,1,0,3:0:0:0:
124,20,54421,2,0,L|152:184,1,165.75,4|0,1:2|2:0,2:0:0:0:
156,204,54737,6,0,L|128:244,1,42.5,0|0,1:0|2:0,2:0:0:0:
320,120,54895,2,0,L|299:75,1,42.5,0|0,1:0|2:0,2:0:0:0:
312,304,55053,2,0,L|360:308,1,42.5,8|0,3:0|2:0,2:0:0:0:
264,208,55211,5,0,2:0:0:0:
264,208,55368,1,2,3:2:0:0:
264,208,55684,1,0,3:0:0:0:
264,208,55842,1,0,2:0:0:0:
212,300,56000,6,0,B|211:323|211:323|215:341,1,42.5,0|0,1:0|2:0,2:0:0:0:
208,120,56158,2,0,B|188:107|188:107|169:102,1,42.5,0|0,1:0|2:0,2:0:0:0:
368,208,56316,2,0,B|388:197|388:197|402:183,1,42.5,4|0,3:0|2:0,2:0:0:0:
264,208,56474,5,0,2:0:0:0:
264,208,56632,1,2,3:2:0:0:
264,208,56947,1,0,3:0:0:0:
320,120,57263,5,0,1:0:0:0:
156,204,57421,1,0,1:0:0:0:
312,304,57579,1,8,3:0:0:0:
264,208,57895,5,2,3:2:0:0:
264,208,58211,1,0,3:0:0:0:
156,204,58526,6,0,L|148:88,1,110.5,6|0,2:0|2:0,2:0:0:0:
232,48,58842,5,0,3:0:0:0:
376,116,59000,2,0,B|420:100|420:100|440:64|423:23,1,127.5,2|0,2:0|2:0,2:0:0:0:
267,144,59474,2,0,L|263:216,1,63.7500000000001,2|0,3:2|2:0,2:0:0:0:
256,352,59790,5,4,2:1:0:0:
8,256,60105,1,2,2:0:0:0:
77,223,60737,1,2,2:0:0:0:
112,156,61368,1,2,2:0:0:0:
96,84,62000,1,2,2:0:0:0:
77,223,62158,1,2,2:0:0:0:
76,232,62237,1,2,2:0:0:0:
75,239,62316,5,2,2:0:0:0:
116,300,62395,1,0,2:0:0:0:
170,325,62474,1,0,2:0:0:0:
224,322,62553,1,0,2:0:0:0:
269,298,62632,1,2,2:0:0:0:
299,261,62711,1,0,2:0:0:0:
311,218,62790,1,0,2:0:0:0:
308,177,62868,1,0,2:0:0:0:
293,141,62947,5,2,2:0:0:0:
268,116,63026,1,0,2:0:0:0:
241,98,63105,1,0,2:0:0:0:
213,90,63184,1,0,2:0:0:0:
187,87,63263,1,2,2:0:0:0:
165,90,63342,1,0,2:0:0:0:
147,96,63421,1,0,2:0:0:0:
133,103,63500,1,0,2:0:0:0:
122,110,63579,6,0,B|92:168|140:214|140:214|292:268|256:140|397:193,1,382.500000000001,0|0,2:0|2:0,2:0:0:0:
393,191,64842,6,0,B|308:185,1,85,4|0,3:1|2:0,2:0:0:0:
492,244,65158,2,0,B|504:204|504:204|500:161,1,85,4|0,1:2|2:0,2:0:0:0:
314,100,65474,2,0,B|308:184,1,85,0|2,3:0|2:0,2:0:0:0:
500,160,65790,1,8,1:0:0:0:
308,185,65947,1,0,2:0:0:0:
128,112,66105,6,0,B|112:72|112:72|119:30,1,85,2|0,3:2|2:0,2:0:0:0:
314,100,66421,2,0,P|353:82|395:86,1,85,8|0,1:0|2:0,2:0:0:0:
148,212,66737,2,0,B|105:214|105:214|68:194,1,85,0|2,3:2|2:0,2:0:0:0:
372,184,67053,2,0,P|400:215|409:255,1,85,8|0,1:0|2:0,2:0:0:0:
172,324,67368,6,0,L|2:305,1,170,2|8,3:2|1:0,2:0:0:0:
128,112,67842,1,0,2:0:0:0:
171,324,68000,2,0,P|92:316|68:240,1,170,2|8,3:2|1:0,2:0:0:0:
144,104,68474,1,0,2:0:0:0:
188,316,68632,6,0,L|103:319,1,85,2|2,3:2|2:0,2:0:0:0:
88,232,68868,1,2,2:0:0:0:
88,232,68947,1,4,1:2:0:0:
256,252,69105,1,0,1:0:0:0:
288,280,69184,1,0,1:0:0:0:
328,288,69263,5,0,3:0:0:0:
20,292,69421,1,0,3:0:0:0:
200,324,69579,1,8,1:0:0:0:
136,84,69737,1,2,2:0:0:0:
327,203,69895,6,0,P|389:193|431:147,1,127.5,4|0,3:1|2:0,2:0:0:0:
440,163,70211,2,0,P|456:125|455:83,1,85,8|0,1:0|2:0,2:0:0:0:
324,16,70526,2,0,P|322:58|339:96,1,85,2|0,3:2|2:0,2:0:0:0:
436,255,70842,2,0,P|385:218|322:221,1,127.5,8|0,1:0|2:0,2:0:0:0:
327,203,71158,6,0,P|287:218|259:249,1,85,2|0,3:2|2:0,2:0:0:0:
168,364,71474,2,0,P|178:323|170:281,1,85,8|0,1:0|2:0,2:0:0:0:
56,64,71790,2,0,P|45:104|53:146,1,85,0|2,3:0|2:0,2:0:0:0:
16,372,72105,2,0,P|55:356|83:325,1,85,8|0,1:0|2:0,2:0:0:0:
304,112,72421,6,0,B|228:68|216:152|144:108,1,170,2|8,3:2|1:0,2:0:0:0:
224,280,72895,1,0,2:0:0:0:
408,272,73053,1,2,3:2:0:0:
316,276,73211,1,0,2:0:0:0:
144,232,73368,2,0,L|132:188,1,42.5,8|0,1:0|2:0,2:0:0:0:
140,320,73526,2,0,L|128:364,1,42.5,8|0,1:2|2:0,2:0:0:0:
60,272,73684,5,0,1:0:0:0:
60,272,73842,2,0,B|56:252|56:252|60:228,1,42.5,8|0,1:2|1:2,2:0:0:0:
216,144,74000,1,0,1:0:0:0:
216,144,74079,1,0,2:0:0:0:
216,144,74158,2,0,B|220:164|220:164|216:188,1,42.5,8|0,1:2|1:0,2:0:0:0:
136,108,74316,6,0,L|64:100,1,42.5,2|0,1:2|2:0,2:0:0:0:
264,72,74474,2,0,B|268:51|268:51|264:27,1,42.5,8|0,1:2|1:0,2:0:0:0:
100,16,74632,2,0,L|28:24,1,42.5,2|2,1:2|1:2,2:0:0:0:
108,192,74790,2,0,B|112:212|112:212|108:236,1,42.5,0|2,1:0|1:2,2:0:0:0:
0,332,74947,6,0,B|127:339,1,127.5,6|0,3:1|2:0,2:0:0:0:
119,324,75263,2,0,P|161:323|197:346,1,85,6|0,1:2|2:0,2:0:0:0:
287,196,75579,2,0,B|203:200,1,85,0|0,3:0|2:0,2:0:0:0:
12,224,75895,1,10,1:0:0:0:
202,200,76053,1,0,2:0:0:0:
384,272,76211,6,0,B|400:312|400:312|396:360|346:367,1,127.5,2|0,3:1|2:0,2:0:0:0:
340,384,76526,2,0,P|302:363|281:326,1,85,6|0,1:2|2:0,2:0:0:0:
363,172,76842,2,0,P|406:171|444:190,1,85,2|0,3:1|2:0,2:0:0:0:
140,200,77158,2,0,P|112:169|103:129,1,85,10|0,1:0|2:0,2:0:0:0:
340,60,77474,6,0,L|488:76,1,127.5,2|0,3:1|2:0,2:0:0:0:
484,64,77790,1,10,1:0:0:0:
384,272,77947,1,0,2:0:0:0:
340,60,78105,2,0,P|419:68|443:144,1,170,2|10,3:1|1:0,2:0:0:0:
368,280,78579,1,0,2:0:0:0:
324,68,78737,6,0,L|409:65,1,85,2|2,3:1|2:0,2:0:0:0:
424,152,78974,1,2,2:0:0:0:
424,152,79053,2,0,L|340:156,1,85,4|2,1:2|1:2,2:0:0:0:
256,132,79290,1,0,1:0:0:0:
256,132,79368,1,2,3:1:0:0:
216,296,79526,1,0,2:0:0:0:
244,24,79684,1,10,1:0:0:0:
436,164,79842,1,2,2:0:0:0:
188,188,80000,6,0,L|92:181,1,85,4|2,3:1|2:0,2:0:0:0:
103,182,80316,1,10,1:0:0:0:
256,36,80474,1,2,2:0:0:0:
256,36,80553,1,2,2:0:0:0:
256,36,80632,2,0,B|284:88|260:140|260:140|206:170,1,170,2|8,3:1|1:0,2:0:0:0:
24,240,81105,1,8,1:2:0:0:
196,340,81263,5,4,3:1:0:0:
268,296,81579,1,0,2:0:0:0:
352,288,81895,1,0,2:0:0:0:
428,325,82211,2,0,P|441:341|447:361,1,42.5,2|0,2:0|2:0,2:0:0:0:
430,304,85053,6,0,L|310:300,1,102,0|0,1:0|1:0,2:0:0:0:
338,214,85526,1,0,1:0:0:0:
154,222,85684,1,0,1:0:0:0:
246,218,85842,1,0,1:0:0:0:
418,262,86000,2,0,L|430:306,1,42.5,0|0,1:0|2:0,2:0:0:0:
422,174,86158,2,0,L|434:130,1,42.5,0|0,1:0|2:0,2:0:0:0:
328,200,86316,5,0,1:0:0:0:
332,185,86395,1,0,1:0:0:0:
337,172,86474,2,0,B|341:192|341:192|337:216,1,42.5,0|0,1:0|1:0,2:0:0:0:
344,80,86632,5,0,1:0:0:0:
334,67,86711,1,0,1:0:0:0:
326,56,86790,2,0,B|344:64|344:64|361:81,1,42.5,8|8,3:0|3:0,2:0:0:0:
172,80,86947,6,0,L|235:76,1,63.75,8|4,3:0|3:0,2:0:0:0:
512,80,87105,2,0,L|448:76,1,63.75,0|0,3:0|3:0,2:0:0:0:
337,213,87263,5,2,2:0:0:0:
328,268,87342,1,2,2:0:0:0:
276,288,87421,1,2,2:0:0:0:
228,256,87500,1,2,2:0:0:0:
228,204,87579,6,0,B|240:136|192:120|192:120|184:160|158:178,1,170,4|8,3:1|1:0,2:0:0:0:
96,108,88053,1,2,2:0:0:0:
152,32,88211,1,0,3:0:0:0:
148,192,88368,1,2,2:0:0:0:
8,108,88526,1,8,1:0:0:0:
96,108,88684,1,2,2:0:0:0:
92,124,88763,1,2,2:0:0:0:
92,140,88842,5,0,3:0:0:0:
256,196,89000,1,2,2:0:0:0:
140,268,89158,1,8,1:0:0:0:
372,268,89316,1,2,2:0:0:0:
256,276,89474,5,0,3:0:0:0:
420,140,89632,1,2,2:0:0:0:
256,352,89790,1,8,1:0:0:0:
256,36,89947,1,2,2:0:0:0:
336,336,90105,6,0,P|255:311|176:336,1,170,2|8,3:2|1:0,2:0:0:0:
59,271,90579,2,0,P|100:281|140:267,1,85,2|0,2:0|3:0,2:0:0:0:
444,284,90895,1,2,2:0:0:0:
412,280,90974,1,2,2:0:0:0:
380,288,91053,1,8,1:0:0:0:
352,308,91132,1,2,2:0:0:0:
336,336,91211,1,2,2:0:0:0:
288,156,91368,6,0,P|307:118|306:76,1,85,2|0,3:2|2:0,2:0:0:0:
96,188,91684,1,8,1:0:0:0:
336,336,91842,2,0,B|384:364|384:364|448:368|472:300,1,170,2|2,2:0|2:0,2:0:0:0:
444,284,92237,1,0,2:0:0:0:
412,280,92316,1,8,1:0:0:0:
380,288,92395,1,2,2:0:0:0:
352,308,92474,1,2,2:0:0:0:
336,336,92553,1,2,2:0:0:0:
264,372,92632,6,0,L|180:368,1,85,2|0,3:2|2:0,2:0:0:0:
112,220,92947,1,8,1:0:0:0:
180,352,93105,6,0,L|264:348,1,85,2|0,2:0|3:0,2:0:0:0:
332,200,93421,1,2,2:0:0:0:
264,332,93579,2,0,L|180:328,1,85,8|2,1:0|2:0,2:0:0:0:
332,200,93895,5,2,3:2:0:0:
340,40,94053,1,0,2:0:0:0:
328,280,94211,5,8,1:0:0:0:
336,120,94368,1,2,2:0:0:0:
336,288,94526,5,0,3:0:0:0:
348,48,94684,1,2,2:0:0:0:
348,48,94763,1,2,2:0:0:0:
348,48,94842,1,8,1:0:0:0:
340,208,95000,1,2,2:0:0:0:
256,16,95158,5,2,3:2:0:0:
228,16,95237,1,0,2:0:0:0:
200,28,95316,1,0,2:0:0:0:
180,48,95395,1,0,2:0:0:0:
168,80,95474,5,8,1:0:0:0:
201,80,95553,1,0,2:0:0:0:
235,94,95632,1,2,2:0:0:0:
259,118,95711,1,2,2:0:0:0:
276,152,95790,5,2,3:2:0:0:
232,152,95868,1,0,2:0:0:0:
192,172,95947,1,0,2:0:0:0:
168,208,96026,1,2,2:0:0:0:
168,264,96105,5,8,1:0:0:0:
219,264,96184,1,2,2:0:0:0:
266,287,96263,1,0,2:0:0:0:
294,329,96342,1,2,2:0:0:0:
304,380,96421,5,0,3:0:0:0:
248,374,96500,1,2,2:0:0:0:
199,349,96579,1,0,2:0:0:0:
163,309,96658,1,2,2:0:0:0:
144,255,96737,5,8,1:0:0:0:
149,200,96816,1,2,2:0:0:0:
172,152,96895,1,2,2:0:0:0:
215,115,96974,1,2,2:0:0:0:
267,96,97053,5,0,3:0:0:0:
321,101,97132,1,2,2:0:0:0:
371,123,97211,1,2,2:0:0:0:
407,166,97290,1,2,2:0:0:0:
425,219,97368,1,8,1:0:0:0:
422,275,97447,1,2,2:0:0:0:
397,324,97526,1,0,1:0:0:0:
356,359,97605,1,2,1:2:0:0:
304,380,97684,6,2,B|268:316|308:260|308:260|320:280|308:296,1,165.75,4|0,3:1|2:0,2:1:0:0:
308,296,98000,2,0,B|280:332|228:332|200:300|200:300|184:260,1,165.75,12|0,1:2|2:0,2:0:0:0:
160,184,98316,2,2,L|28:180,1,110.5,0|0,3:0|2:0,2:1:0:0:
292,24,98632,2,0,P|316:72|423:36,1,165.75,8|0,1:2|2:0,2:0:0:0:
413,58,98947,6,2,P|322:85|375:165,1,221,2|8,3:2|1:2,2:1:0:0:
272,380,99421,1,2,2:0:0:0:
272,380,99500,1,8,2:0:0:0:
272,380,99579,2,2,P|249:319|298:276,1,140.25,0|0,3:2|2:0,2:1:0:0:
224,199,99895,2,2,P|288:210|300:274,1,140.25,8|0,1:2|2:0,2:1:0:0:
299,276,100211,6,2,B|272:211|328:171|328:171|373:164,1,165.75,2|0,3:2|2:0,2:1:0:0:
416,96,100526,2,0,L|510:105,1,93.5,8|0,1:2|2:0,2:0:0:0:
408,328,100842,1,2,3:1:0:0:
224,199,101000,1,0,2:0:0:0:
67,356,101158,2,0,B|101:328|101:328|153:316|184:363,1,140.25,8|0,1:2|2:0,2:0:0:0:
184,363,101474,6,2,B|192:315|192:315|238:268|238:268|216:235|225:196,1,187,2|8,3:2|1:2,2:1:0:0:
264,44,101947,1,0,2:0:0:0:
318,195,102105,1,0,3:1:0:0:
318,195,102184,2,2,L|206:199,1,93.5,2|0,2:0|2:0,2:1:0:0:
208,184,102421,1,8,1:2:0:0:
404,144,102579,1,2,2:0:0:0:
168,98,102737,6,2,B|200:40|268:56|268:56|292:84|329:79,2,187,0|12|0,3:0|1:2|3:1,2:1:0:0:
160,276,103526,1,0,3:2:0:0:
339,289,103684,1,8,1:2:0:0:
360,280,103763,1,0,3:0:0:0:
376,264,103842,1,0,1:2:0:0:
380,240,103921,1,2,1:2:0:0:
372,216,104000,6,2,B|340:157|272:173|272:173|248:201|211:196,2,187,2|8|0,3:2|1:2|3:1,2:1:0:0:
200,220,104790,1,4,3:2:0:0:
380,240,104947,1,8,1:2:0:0:
332,72,105105,2,0,L|324:156,1,72.25,4|0,3:2|1:0,2:0:0:0:
356,324,105263,5,4,3:1:0:0:
356,324,105421,2,0,L|372:384,1,55.25,8|8,3:0|3:0,2:0:0:0:
512,196,105579,2,0,L|444:188,1,55.25,4|4,3:0|3:0,2:0:0:0:
332,72,105737,2,0,L|316:-20,1,72.25,4|0,1:2|2:0,2:0:0:0:
168,175,105895,5,0,1:0:0:0:
168,175,105974,1,0,3:0:0:0:
168,175,106053,2,0,P|187:194|198:219,1,55.25,0|0,3:1|3:0,2:0:0:0:
94,284,106211,2,0,P|101:257|117:235,1,55.25,8|8,3:0|3:0,2:0:0:0:
228,296,106368,2,0,P|201:302|173:297,1,55.25,4|4,3:0|3:0,2:0:0:0:
48,188,106526,6,2,B|24:132|56:64|56:64|56:88|62:100,1,165.75,4|0,1:2|2:0,2:1:0:0:
140,68,106842,1,2,1:2:0:0:
94,284,107000,1,2,1:2:0:0:
418,284,107158,1,2,1:2:0:0:
256,32,107316,1,2,1:2:0:0:
256,364,107474,1,2,1:2:0:0:
372,68,107632,1,2,1:2:0:0:
175,297,107790,6,0,B|161:272|161:272|124:254|94:284,2,102,2|0|2,2:0|2:0|2:3,2:0:0:0:
175,297,108737,1,0,2:0:0:0:
94,284,108895,1,0,2:0:0:0:
152,180,109053,6,0,B|180:180|180:180|214:157|203:116,2,102,2|0|2,2:0|2:0|2:3,2:0:0:0:
152,180,110000,1,0,2:0:0:0:
203,115,110158,1,0,2:0:0:0:
264,220,110316,6,0,B|249:244|249:244|252:285|293:296,2,102,2|0|2,2:0|2:0|2:3,2:0:0:0:
264,220,111263,1,0,2:0:0:0:
293,296,111421,1,0,2:0:0:0:
175,297,111579,6,0,B|161:272|161:272|124:254|94:284,1,102,2|0,2:0|3:0,2:0:0:0:
94,284,112211,1,2,2:3:0:0:
84,296,112526,1,0,3:0:0:0:
184,288,112684,1,0,3:0:0:0:
280,308,112842,6,0,P|305:303|328:293,1,50.9999999999999,0|0,3:0|2:0,2:0:0:0:
356,96,113158,2,0,L|359:147,1,50.9999999999999,0|0,3:0|2:0,2:0:0:0:
225,194,113474,2,0,P|249:203|274:206,1,50.9999999999999,2|0,3:0|2:0,2:0:0:0:
460,168,113790,2,0,L|437:215,1,50.9999999999999,0|0,3:0|2:0,2:0:0:0:
232,72,114105,6,0,P|248:91|268:106,1,50.9999999999999,0|0,3:0|2:0,2:0:0:0:
492,300,114421,2,0,L|442:317,1,50.9999999999999,0|0,3:0|2:0,2:0:0:0:
372,24,114737,2,0,L|364:80,1,50.9999999999999,2|0,3:0|2:0,2:0:0:0:
352,356,115053,2,0,L|344:300,1,50.9999999999999,0|0,3:0|2:0,2:0:0:0:
511,71,115368,6,0,P|487:64|463:70,1,50.9999999999999,0|0,3:0|2:0,2:0:0:0:
208,356,115684,2,0,P|233:356|255:344,1,50.9999999999999,0|0,3:0|2:0,2:0:0:0:
512,208,116000,2,0,P|506:183|488:165,1,50.9999999999999,2|0,3:0|2:0,2:0:0:0:
176,224,116316,2,0,P|188:246|209:259,1,50.9999999999999,2|0,3:0|2:0,2:0:0:0:
392,304,116632,2,0,P|416:275|420:237,1,76.4999999999998,0|0,3:0|2:0,2:0:0:0:
432,224,116947,6,0,P|375:176|331:235,1,165.75,0|0,3:0|2:0,2:0:0:0:
392,304,117263,2,0,P|422:317|453:314,1,63.7500000000001,2|0,3:0|2:0,2:0:0:0:
331,235,117579,1,0,3:0:0:0:
240,344,117737,1,0,3:0:0:0:
83,228,117895,6,0,P|115:223|143:235,1,63.7500000000001,4|0,3:2|2:0,2:0:0:0:
164,316,118211,1,0,3:0:0:0:
164,316,118368,1,0,2:0:0:0:
76,208,118526,6,0,P|107:193|141:199,1,70.5500000000002,0|0,3:2|2:0,2:0:0:0:
224,252,118842,1,0,3:0:0:0:
224,252,119000,1,0,2:0:0:0:
60,192,119158,6,0,P|92:165|133:161,1,85,0|0,3:2|2:0,2:0:0:0:
284,188,119474,1,0,3:0:0:0:
284,188,119632,1,0,2:0:0:0:
36,188,119790,6,0,P|66:145|115:126,1,106.25,0|0,3:2|2:0,2:0:0:0:
344,120,120105,1,0,3:0:0:0:
344,120,120263,1,0,2:0:0:0:
19,80,120421,6,0,B|56:12|136:24|136:24|154:47|178:54,1,191.25,0|0,3:0|2:0,2:0:0:0:
272,52,120737,1,0,3:0:0:0:
272,52,120895,1,0,2:0:0:0:
153,229,121053,6,0,B|109:254|65:222|73:174|73:174|104:164|115:126,1,191.25,0|0,3:0|2:0,2:0:0:0:
19,80,121368,1,0,3:0:0:0:
19,80,121526,1,0,2:0:0:0:
153,229,121684,6,0,B|244:184|248:272|336:232,1,191.25,0|0,3:0|2:0,2:0:0:0:
296,136,122000,1,0,3:0:0:0:
200,320,122158,2,0,L|208:376,2,42.5,0|0|0,2:0|2:0|3:0,2:0:0:0:
168,116,122474,1,0,2:0:0:0:
336,232,122632,2,0,L|419:214,1,85,0|0,2:0|2:0,2:0:0:0:
153,229,122947,5,0,1:0:0:0:
140,152,123105,2,0,L|84:164,1,42.5,0|0,1:0|2:0,2:0:0:0:
128,76,123263,1,0,1:0:0:0:
116,0,123421,2,0,L|164:8,1,42.5,0|0,1:0|2:0,2:0:0:0:
276,12,123579,5,0,1:0:0:0:
260,104,123737,2,0,L|212:112,1,42.5,0|0,1:0|2:0,2:0:0:0:
244,196,123895,1,0,1:0:0:0:
228,288,124053,2,0,L|276:296,1,42.5,0|0,1:0|2:0,2:0:0:0:
88,288,124211,6,0,L|80:232,1,42.5,8|0,1:2|2:0,2:0:0:0:
216,300,124368,2,0,L|208:356,1,42.5,8|0,1:2|2:0,2:0:0:0:
344,308,124526,2,0,L|336:252,1,42.5,8|0,1:2|2:0,2:0:0:0:
472,320,124684,2,0,L|464:376,1,42.5,8|0,1:2|2:0,2:0:0:0:
476,120,124842,6,0,L|482:77,1,42.5,8|0,1:2|2:0,2:0:0:0:
325,134,125000,2,0,L|331:176,1,42.5,8|0,1:2|2:0,2:0:0:0:
175,143,125158,2,0,L|181:100,1,42.5,8|0,1:2|2:0,2:0:0:0:
24,157,125316,2,0,L|30:199,1,42.5,8|0,1:2|2:0,2:0:0:0:
87,288,125474,6,0,P|104:275|115:257,1,42.5,8|0,1:2|2:0,2:0:0:0:
44,128,125632,1,0,1:0:0:0:
32,140,125711,1,0,1:0:0:0:
24,157,125790,2,0,P|24:178|30:198,1,42.5,8|0,1:2|2:0,2:0:0:0:
87,288,125947,5,0,1:0:0:0:
112,300,126026,1,0,1:0:0:0:
140,300,126105,2,0,P|160:294|177:281,1,42.5,8|0,1:2|2:0,2:0:0:0:
284,252,126263,5,0,1:0:0:0:
304,216,126342,1,0,1:0:0:0:
296,172,126421,2,0,P|284:154|267:141,1,42.5,8|0,1:2|2:0,2:0:0:0:
140,76,126579,1,0,1:0:0:0:
136,148,126658,1,0,1:0:0:0:
132,220,126737,5,10,1:2:0:0:
256,372,126895,1,8,1:2:0:0:
380,220,127053,1,10,1:2:0:0:
172,316,127211,1,8,1:2:0:0:
256,100,127368,1,8,1:2:0:0:
340,316,127526,1,8,1:2:0:0:
256,24,127684,1,8,1:2:0:0:
256,264,127842,1,8,1:2:0:0:
256,264,127921,1,8,1:2:0:0:
256,264,128000,5,4,2:0:0:0:
340,316,128158,2,0,L|403:312,2,63.7500000000001,0|2|0,2:0|2:0|2:0,2:0:0:0:
256,168,128632,5,0,2:0:0:0:
172,220,128790,2,0,L|108:216,2,63.7500000000001,0|2|0,2:0|2:0|2:0,2:0:0:0:
140,60,129263,6,0,P|136:91|143:122,1,63.7500000000001,0|2,2:0|2:0,2:0:0:0:
368,122,129579,2,0,P|375:91|372:60,1,63.7500000000001,0|2,2:0|2:0,2:0:0:0:
340,220,129895,2,0,L|403:216,1,63.7500000000001,0|0,2:0|2:0,2:0:0:0:
172,316,130211,6,0,B|100:304|128:356|52:344,1,127.5,2|2,2:0|2:0,2:0:0:0:
60,244,130684,1,0,2:0:0:0:
172,316,130842,1,2,2:0:0:0:
256,212,131000,1,2,2:0:0:0:
458,344,131158,5,2,2:0:0:0:
452,244,131316,1,0,2:0:0:0:
340,316,131474,1,2,2:0:0:0:
256,212,131632,1,2,2:0:0:0:
256,372,131790,5,0,2:0:0:0:
236,336,131895,1,2,2:0:0:0:
236,292,132000,1,2,2:0:0:0:
256,212,132105,5,0,2:0:0:0:
276,176,132211,1,2,2:0:0:0:
276,132,132316,1,0,2:0:0:0:
240,56,132421,5,2,2:0:0:0:
240,52,132500,1,0,2:0:0:0:
240,48,132579,1,0,2:0:0:0:
241,44,132658,1,0,2:0:0:0:
241,40,132737,1,0,2:0:0:0:
241,36,132816,1,0,2:0:0:0:
242,32,132895,1,0,2:0:0:0:
242,28,132974,1,0,2:0:0:0:
242,24,133053,5,12,3:2:0:0:
312,200,133211,1,8,3:2:0:0:
160,32,133368,5,8,3:2:0:0:
301,217,133526,1,10,3:2:0:0:
88,76,133684,5,8,3:2:0:0:
295,234,133842,1,8,3:2:0:0:
40,148,134000,5,10,3:2:0:0:
290,249,134158,1,8,3:2:0:0:
28,236,134316,5,10,1:2:0:0:
288,264,134474,2,0,P|272:262|257:267,1,31.8750000000001,8|0,1:2|1:0,2:0:0:0:
54,320,134632,5,8,1:2:0:0:
288,276,134790,2,0,P|272:280|260:290,1,31.8750000000001,8|0,1:2|1:0,2:0:0:0:
124,376,134947,5,10,1:2:0:0:
256,132,135105,1,8,1:2:0:0:
388,376,135263,1,8,1:2:0:0:
112,260,135421,1,8,1:2:0:0:
400,260,135579,1,2,2:0:0:0:
92,196,140000,6,0,B|76:164|76:164|79:123,1,76.4999999999999,2|0,1:2|2:0,2:0:0:0:
231,79,140158,2,0,B|247:111|247:111|243:151,1,76.4999999999999,0|0,1:0|2:0,2:0:0:0:
188,292,140316,5,0,1:0:0:0:
172,264,140395,1,0,1:0:0:0:
168,232,140474,1,0,1:0:0:0:
176,200,140553,1,0,1:0:0:0:
243,152,140632,6,0,B|321:124|325:192|407:164,1,170,4|4,3:1|1:2,2:0:0:0:
372,68,141105,1,0,2:0:0:0:
500,216,141263,2,0,P|513:176|509:134,1,85,0|0,3:0|2:0,2:0:0:0:
276,252,141579,2,0,L|281:336,1,85,8|2,1:0|1:2,2:0:0:0:
281,337,141816,1,0,1:0:0:0:
281,337,141895,5,0,3:2:0:0:
243,152,142053,1,0,2:0:0:0:
448,292,142211,2,0,L|352:288,1,85,8|0,1:0|2:0,2:0:0:0:
196,336,142526,5,2,3:2:0:0:
328,144,142684,1,0,2:0:0:0:
472,376,142842,2,0,L|376:372,1,85,8|0,1:0|1:0,2:0:0:0:
372,360,143079,1,0,1:0:0:0:
360,344,143158,6,0,L|367:216,1,127.5,2|0,3:2|2:0,2:0:0:0:
328,144,143474,5,8,1:0:0:0:
348,328,143632,1,0,3:0:0:0:
216,160,143790,1,2,2:0:0:0:
408,144,143947,1,0,3:0:0:0:
271,7,144105,2,0,P|260:47|264:90,1,85,8|2,1:0|1:2,2:0:0:0:
264,90,144342,1,2,1:2:0:0:
264,90,144421,5,2,3:2:0:0:
367,216,144579,1,0,2:0:0:0:
432,52,144737,2,0,L|344:56,1,85,8|0,1:0|2:0,2:0:0:0:
176,24,145053,1,0,3:0:0:0:
148,192,145211,1,2,1:2:0:0:
152,212,145290,1,2,1:2:0:0:
156,232,145368,1,8,1:0:0:0:
0,120,145526,1,2,1:2:0:0:
4,68,145605,1,2,1:2:0:0:
8,16,145684,5,4,3:1:0:0:
8,16,146000,2,0,B|32:68|32:68|18:119,1,110.5,4|0,1:2|2:0,2:0:0:0:
56,360,146316,6,0,B|0:312|44:248|44:248|56:264|84:268,1,170,2|8,3:2|1:0,2:0:0:0:
108,104,146790,1,2,1:2:0:0:
116,68,146868,1,2,1:2:0:0:
124,32,146947,5,2,3:2:0:0:
305,147,147105,1,0,2:0:0:0:
176,304,147263,2,0,P|160:260|172:220,1,85,8|0,1:0|2:0,2:0:0:0:
260,68,147579,5,2,3:2:0:0:
256,256,147737,1,0,2:0:0:0:
76,200,147895,2,0,L|172:204,1,85,8|8,1:0|1:0,2:0:0:0:
169,224,148132,1,8,1:0:0:0:
169,224,148211,6,0,L|176:352,1,127.5,2|0,3:2|2:0,2:0:0:0:
168,372,148526,5,8,1:0:0:0:
76,200,148684,1,0,3:0:0:0:
312,180,148842,1,2,2:0:0:0:
72,112,149000,1,0,3:0:0:0:
264,14,149158,2,0,P|275:54|271:97,1,85,8|2,1:0|1:2,2:0:0:0:
252,116,149395,1,2,1:2:0:0:
228,124,149474,6,0,P|196:120|180:108,1,42.5,0|0,3:0|2:0,2:0:0:0:
69,60,149632,1,8,1:2:0:0:
64,87,149711,1,8,1:2:0:0:
72,112,149790,6,2,P|94:135|113:141,1,42.5,8|2,1:0|2:0,2:0:0:0:
160,300,149947,1,10,1:2:0:0:
168,280,150026,1,8,1:2:0:0:
178,261,150105,5,2,3:2:0:0:
160,235,150184,1,0,1:0:0:0:
120,228,150263,1,8,1:2:0:0:
88,249,150342,1,0,1:0:0:0:
81,289,150421,5,2,1:2:0:0:
102,350,150500,1,2,1:2:0:0:
162,374,150579,1,0,2:0:0:0:
221,349,150658,1,2,1:2:0:0:
243,288,150737,6,0,B|321:316|325:248|407:276,1,170,6|4,3:1|1:2,2:0:0:0:
372,372,151211,1,0,2:0:0:0:
500,224,151368,2,0,P|513:264|509:306,1,85,2|0,3:1|2:0,2:0:0:0:
276,188,151684,2,0,L|281:104,1,85,10|2,1:0|1:2,2:0:0:0:
281,103,151921,1,0,1:0:0:0:
281,103,152000,5,2,3:2:0:0:
243,288,152158,1,0,2:0:0:0:
448,148,152316,2,0,L|352:152,1,85,10|0,1:0|2:0,2:0:0:0:
196,104,152632,5,2,3:1:0:0:
328,296,152790,1,0,2:0:0:0:
468,60,152947,2,0,L|384:64,1,85,10|0,1:0|1:0,2:0:0:0:
372,80,153184,1,0,1:0:0:0:
360,96,153263,6,0,L|367:224,1,127.5,2|0,3:2|2:0,2:0:0:0:
328,296,153579,5,10,1:0:0:0:
348,112,153737,1,0,3:0:0:0:
216,280,153895,1,2,2:1:0:0:
408,296,154053,1,0,3:0:0:0:
272,160,154211,2,0,P|261:120|265:77,1,85,10|2,1:0|1:2,2:0:0:0:
265,77,154447,1,2,1:2:0:0:
265,77,154526,5,2,3:2:0:0:
366,223,154684,1,0,2:0:0:0:
192,196,154842,2,0,L|104:200,1,85,10|0,1:0|2:0,2:0:0:0:
164,372,155158,1,2,3:1:0:0:
124,116,155316,1,2,1:2:0:0:
128,96,155395,1,2,1:2:0:0:
132,76,155474,1,10,1:0:0:0:
0,264,155632,1,2,1:2:0:0:
8,316,155711,1,2,1:2:0:0:
16,368,155790,5,6,3:1:0:0:
16,368,156105,2,0,B|20:160,1,191.25,4|0,1:2|2:0,2:0:0:0:
60,24,156421,6,0,B|4:72|48:136|48:136|60:120|88:116,1,170,2|8,3:2|1:0,2:0:0:0:
128,352,156895,1,2,1:2:0:0:
120,316,156974,1,2,1:2:0:0:
112,280,157053,5,2,3:1:0:0:
309,237,157211,1,0,2:0:0:0:
180,80,157368,2,0,P|164:124|176:164,1,85,10|0,1:0|2:0,2:0:0:0:
264,316,157684,5,2,3:1:0:0:
260,128,157842,1,0,2:0:0:0:
80,184,158000,2,0,L|176:180,1,85,10|8,1:0|1:0,2:0:0:0:
184,164,158237,1,8,1:0:0:0:
184,164,158316,6,0,P|212:90|158:33,1,165.75,4|0,2:0|2:0,2:0:0:0:
79,104,158632,2,0,L|134:106,1,55.25,0|0,1:0|1:0,2:0:0:0:
260,128,158790,2,0,L|262:184,1,55.25,0|0,1:0|1:0,2:0:0:0:
136,380,158947,6,0,P|108:306|162:249,1,165.75,4|0,2:0|2:0,2:0:0:0:
240,333,159263,2,0,L|184:321,1,55.25,0|0,1:0|1:0,2:0:0:0:
28,304,159421,2,0,L|40:248,1,55.25,0|0,1:0|1:0,2:0:0:0:
125,102,159579,6,0,P|202:111|232:39,1,165.75,4|0,2:0|2:0,2:0:0:0:
44,72,159895,2,0,P|40:108|56:144,1,55.25,0|0,1:0|1:0,2:0:0:0:
204,268,160053,2,0,P|237:253|260:221,1,55.25,0|0,1:0|1:0,2:0:0:0:
377,65,160211,5,0,1:0:0:0:
353,65,160290,1,0,1:0:0:0:
329,61,160368,1,0,1:0:0:0:
305,53,160447,1,0,1:0:0:0:
281,45,160526,1,0,1:0:0:0:
257,41,160605,1,0,1:0:0:0:
232,40,160684,2,0,P|211:42|191:48,1,42.5,0|0,1:0|1:0,2:0:0:0:
56,120,160842,5,6,2:0:0:0:
52,140,160921,1,0,2:0:0:0:
48,160,161000,2,0,B|84:160|84:160|97:173,1,55.25,0|0,1:0|1:0,1:0:0:0:
204,204,161158,2,0,B|240:204|240:204|253:190,1,55.25,0|0,1:0|1:0,1:0:0:0:
396,152,161316,5,6,2:0:0:0:
400,172,161395,1,0,2:0:0:0:
404,192,161474,2,0,B|368:192|368:192|354:205,1,55.25,0|0,1:0|1:0,1:0:0:0:
248,236,161632,2,0,B|212:236|212:236|198:222,1,55.25,0|0,1:0|1:0,1:0:0:0:
52,264,161790,5,6,2:0:0:0:
48,284,161868,1,2,1:2:0:0:
44,304,161947,2,0,B|80:304|80:304|93:317,1,55.25,0|0,1:0|1:0,1:0:0:0:
200,384,162105,5,6,2:0:0:0:
196,364,162184,1,0,2:0:0:0:
192,344,162263,2,0,B|228:344|228:344|241:330,1,55.25,0|0,1:0|1:0,1:0:0:0:
340,308,162421,2,0,B|376:308|376:308|389:294,1,55.25,0|0,1:0|1:0,1:0:0:0:
456,184,162579,5,6,2:0:0:0:
460,156,162658,1,0,2:0:0:0:
464,128,162737,2,0,B|428:128|428:128|415:114,1,55.25,0|0,1:0|1:0,1:0:0:0:
320,76,162895,2,0,B|306:63|306:63|306:27,1,55.25,0|0,1:0|1:0,1:0:0:0:
206,27,163053,2,0,B|206:63|206:63|192:76,1,55.25,8|0,1:3|1:0,1:0:0:0:
97,114,163211,2,0,B|84:128|84:128|48:128,1,55.25,0|0,2:0|2:0,1:0:0:0:
8,244,163368,5,4,3:1:0:0:
36,228,163447,1,0,2:0:0:0:
68,224,163526,1,0,1:0:0:0:
100,232,163605,1,0,1:0:0:0:
128,252,163684,1,0,1:0:0:0:
168,268,163763,1,0,1:0:0:0:
212,272,163842,1,0,1:0:0:0:
252,256,163921,1,0,1:0:0:0:
292,222,164000,5,0,1:0:0:0:
276,168,164079,1,0,1:0:0:0:
300,116,164158,1,0,1:0:0:0:
352,100,164237,1,0,1:0:0:0:
404,120,164316,1,0,1:0:0:0:
428,168,164395,1,8,2:3:0:0:
412,220,164474,1,8,2:3:0:0:
364,248,164553,1,0,2:0:0:0:
308,238,164632,5,4,1:0:0:0:
252,240,164711,1,0,2:0:0:0:
208,272,164790,1,0,2:0:0:0:
188,324,164868,1,0,2:0:0:0:
204,376,164947,1,0,1:0:0:0:
174,328,165026,1,0,1:0:0:0:
124,306,165105,1,0,1:0:0:0:
69,315,165184,1,0,1:0:0:0:
28,352,165263,6,0,B|17:332|17:332|13:300,1,55.25,8|0,3:0|3:0,2:0:0:0:
132,196,165421,2,0,L|188:192,1,55.25,8|0,3:0|3:0,2:0:0:0:
306,313,165579,2,0,L|362:319,1,55.25,8|0,3:0|3:0,2:0:0:0:
497,237,165737,2,0,B|499:205|499:205|492:184,1,55.25,8|0,3:0|3:0,2:0:0:0:
360,36,165895,5,4,3:1:0:0:
152,36,166211,1,2,2:0:0:0:
228,32,166842,1,2,2:0:0:0:
304,28,167474,1,2,2:0:0:0:
380,24,168105,1,2,2:0:0:0:
372,8,168421,5,4,3:1:0:0:
320,80,168579,1,8,1:2:0:0:
336,168,168737,1,8,1:2:0:0:
404,224,168895,1,8,3:2:0:0:
492,212,169053,5,0,3:0:0:0:
324,252,169211,1,8,1:2:0:0:
240,100,169368,1,8,1:2:0:0:
156,268,169526,1,8,3:2:0:0:
104,64,169684,5,4,1:2:0:0:
108,80,169763,1,4,2:3:0:0:
112,96,169842,1,4,2:3:0:0:
116,112,169921,1,0,3:0:0:0:
108,144,170000,5,8,3:0:0:0:
112,160,170079,1,8,2:3:0:0:
116,176,170158,1,4,2:3:0:0:
120,192,170237,1,0,3:0:0:0:
112,224,170316,5,0,3:0:0:0:
120,240,170395,1,0,1:0:0:0:
136,256,170474,1,0,1:0:0:0:
156,268,170553,1,0,1:0:0:0:
180,276,170632,1,2,1:2:0:0:
212,280,170711,1,2,1:2:0:0:
252,272,170790,1,2,1:2:0:0:
288,244,170868,1,0,1:0:0:0:
310,199,170947,6,0,B|344:188|372:208|372:208|396:184|429:191,1,127.5,4|0,3:1|2:0,2:0:0:0:
493,233,171263,2,0,P|465:264|424:272,1,85,4|0,1:2|2:0,2:0:0:0:
310,199,171579,2,0,B|316:115,1,85,0|2,3:0|2:0,2:0:0:0:
316,114,171895,1,8,1:0:0:0:
203,281,172053,1,2,2:0:0:0:
203,281,172132,1,2,2:0:0:0:
203,281,172211,6,0,P|186:319|189:360,1,85,0|0,3:0|2:0,2:0:0:0:
215,95,172526,2,0,B|175:79|175:79|133:86,1,85,8|0,1:0|2:0,2:0:0:0:
286,338,172842,2,0,L|384:328,1,85,0|0,3:0|2:0,2:0:0:0:
315,115,173158,2,0,B|317:72|317:72|297:35,1,85,8|0,1:0|2:0,2:0:0:0:
103,65,173474,6,0,L|122:235,1,165.75,2|0,3:2|2:0,2:0:0:0:
122,230,173790,1,8,1:0:0:0:
315,115,173947,1,0,2:0:0:0:
103,65,174105,2,0,B|72:120|116:168|116:168|176:176,1,170,2|8,3:2|1:0,2:0:0:0:
323,99,174579,1,0,2:0:0:0:
103,66,174737,6,0,L|16:76,1,85,2|0,3:2|2:0,2:0:0:0:
188,168,175053,1,8,1:0:0:0:
188,168,175211,1,2,2:0:0:0:
188,168,175290,1,2,2:0:0:0:
188,168,175368,5,0,3:0:0:0:
20,92,175526,1,0,3:0:0:0:
200,60,175684,1,8,1:0:0:0:
136,264,175842,1,2,2:0:0:0:
328,181,176000,6,0,P|390:191|432:237,1,127.5,4|0,3:1|2:0,2:0:0:0:
441,221,176316,2,0,P|457:259|456:301,1,85,8|0,1:0|2:0,2:0:0:0:
252,328,176632,2,0,P|252:246|311:188,1,170,2|8,3:2|1:0,2:0:0:0:
488,144,177105,1,8,1:2:0:0:
316,44,177263,5,4,3:1:0:0:
244,88,177579,1,0,2:0:0:0:
160,96,177895,1,0,2:0:0:0:
83,58,178211,2,0,P|72:41|65:21,1,42.5,2|0,2:0|2:0,2:0:0:0:
256,192,178368,12,0,180737,2:0:0:0:
