osu file format v14

[General]
AudioFilename: HoneyWorks,GUMI.ogg
AudioLeadIn: 0
PreviewTime: 139217
Countdown: 0
SampleSet: Soft
StackLeniency: 0.7
Mode: 0
LetterboxInBreaks: 0
WidescreenStoryboard: 0

[Editor]
Bookmarks: 124842,161237
DistanceSpacing: 1.2
BeatDivisor: 4
GridSize: 4
TimelineZoom: 1.6

[Metadata]
Title:Hatsukoi no Ehon
TitleUnicode:初恋の絵本
Artist:HoneyWorks feat. GUMI
ArtistUnicode:HoneyWorks feat. GUMI
Creator:yf_bmp
Version:Karen's Insane
Source:
Tags:VOCALOID We have always been 10 cm apart. Kokuhaku Jikkou Iinkai japanese pop itsudatte bokura no koi wa datta. centi 好きすぎてやばい。 ~告白実行委員会キャラクターソング集~ 東京ウインターセッション 告白実行委員会〜恋愛シリーズ〜 Sukisugiteyabai Kokuhakujikkouiinkai Character Song Shu Tokyo Winter Session picture book first love 初恋ノート Hatsukoi Note confession executive committee series vocaloid sahuang z1085684963 Pururut Karen Vert Garden Binguo
BeatmapID:978000
BeatmapSetID:381779

[Difficulty]
HPDrainRate:6
CircleSize:4
OverallDifficulty:7
ApproachRate:9
SliderMultiplier:1.7
SliderTickRate:1

[Events]
//Background and Video events
0,0,"BG.jpg",0,0
//Break Periods
2,82411,83821
2,107990,117295
2,128200,132453
2,135779,139400
2,166095,167821
//Storyboard Layer 0 (Background)
//Storyboard Layer 1 (Fail)
//Storyboard Layer 2 (Pass)
//Storyboard Layer 3 (Foreground)
//Storyboard Layer 4 (Overlay)
//Storyboard Sound Samples

[TimingPoints]
-448,685.714285714286,4,2,1,70,1,0
9837,631.578947368421,4,2,1,70,1,0
11633,315.789473684211,4,2,1,80,1,0
11790,315.789473684211,4,2,1,80,1,0
20710,-100,4,2,1,30,0,0
20790,-100,4,2,1,80,0,0
20868,-100,4,2,1,30,0,0
20947,-100,4,2,1,80,0,0
21025,-100,4,2,1,30,0,0
21105,-100,4,2,1,80,0,0
21184,-100,4,2,1,30,0,0
21263,-100,4,2,1,80,0,0
21895,-200,4,2,1,80,0,0
24579,-125,4,2,1,80,0,0
25684,-200,4,2,1,80,0,0
26947,-200,4,2,1,50,0,0
27263,-125,4,2,1,50,0,0
34526,-125,4,2,1,20,0,0
35158,-125,4,2,1,30,0,0
35790,-125,4,2,1,40,0,0
36421,-125,4,2,1,50,0,0
37053,-125,4,2,1,70,0,0
42105,-125,4,2,1,80,0,0
42420,-125,4,2,1,60,0,0
43368,-125,4,2,1,80,0,0
43684,-125,4,2,1,40,0,0
43841,-125,4,2,1,50,0,0
44000,-125,4,2,1,60,0,0
44157,-125,4,2,1,70,0,0
44316,-125,4,2,1,80,0,0
44632,-100,4,2,1,80,0,0
58526,-125,4,2,1,80,0,0
62632,-125,4,2,1,70,0,0
62947,-125,4,2,1,60,0,0
63263,-125,4,2,1,50,0,0
64842,-100,4,2,1,80,0,1
82211,-100,4,2,1,80,0,0
100842,-100,4,2,2,80,0,0
101158,-100,4,2,1,80,0,0
105341,-100,4,2,2,80,0,0
105736,-100,4,2,1,80,0,0
107790,-100,4,2,1,60,0,0
117895,-125,4,2,1,60,0,0
122947,-125,4,2,1,40,0,0
123579,-125,4,2,1,45,0,0
124211,-125,4,2,1,50,0,0
124842,-125,4,2,1,55,0,0
125474,-125,4,2,1,60,0,0
140316,-166.666666666667,4,2,1,40,0,0
140632,-100,4,2,1,80,0,1
165895,-100,4,2,1,80,0,0
170316,-100,4,2,1,40,0,0
170473,-100,4,2,1,50,0,0
170632,-100,4,2,1,60,0,0
170789,-100,4,2,1,70,0,0
170947,-100,4,2,1,80,0,0
171263,-100,4,2,1,80,0,1
178211,-100,4,2,1,80,0,0
180737,-100,4,2,1,20,0,0

[Colours]
Combo1 : 255,0,128
Combo2 : 128,255,0
Combo3 : 255,128,255
Combo4 : 252,14,55

[HitObjects]
117,196,11633,5,0,3:0:0:0:
117,196,11711,1,0,3:0:0:0:
117,196,11790,6,0,B|200:146|209:231|298:178,1,170,4|0,2:1|2:0,2:0:0:0:
310,89,12263,1,2,2:0:0:0:
408,60,12421,1,0,3:0:0:0:
485,126,12579,1,4,2:3:0:0:
466,226,12737,1,4,2:3:0:0:
366,249,12895,1,0,3:0:0:0:
366,249,12974,1,0,3:0:0:0:
366,249,13053,6,0,B|356:354|356:354|420:391,1,170,4|0,2:0|2:0,2:0:0:0:
461,296,13526,1,2,2:0:0:0:
318,353,13684,2,0,P|278:365|207:348,1,85,8|8,2:3|2:3,2:0:0:0:
219,346,13921,1,0,2:0:0:0:
204,330,14000,1,2,2:0:0:0:
190,313,14079,1,4,2:3:0:0:
175,297,14158,1,0,3:0:0:0:
272,139,14316,6,0,P|322:214|268:270,1,170,4|0,2:0|2:0,2:0:0:0:
126,196,14790,1,0,3:0:0:0:
126,196,14868,1,0,3:0:0:0:
126,196,14947,2,0,L|112:131,2,42.5,8|0|0,2:3|2:0|3:0,2:0:0:0:
104,329,15263,1,4,2:3:0:0:
238,231,15421,1,0,3:0:0:0:
238,231,15500,1,0,3:0:0:0:
238,231,15579,6,0,B|284:236|308:233|353:216|353:216|376:230|335:270,1,170,4|0,2:0|2:0,2:0:0:0:
284,132,16053,2,0,B|282:15|282:15|238:61,1,170,6|0,2:0|1:0,2:0:0:0:
182,149,16526,1,0,2:0:0:0:
131,15,16684,1,0,1:0:0:0:
268,69,16842,6,0,P|315:78|361:59,1,85,4|0,2:0|3:0,2:0:0:0:
512,4,17158,2,0,P|470:-5|430:6,1,85,0|8,3:0|3:0,2:0:0:0:
431,125,17474,5,8,3:0:0:0:
434,150,17632,1,0,3:0:0:0:
436,175,17790,1,4,3:0:0:0:
437,200,17947,1,4,3:0:0:0:
370,270,18105,6,0,P|442:228|520:283,1,170,4|2,2:0|2:0,2:0:0:0:
276,316,18579,2,0,L|268:212,1,85,0|0,2:0|3:0,2:0:0:0:
333,95,18895,1,2,2:0:0:0:
196,157,19053,1,0,1:0:0:0:
371,227,19211,1,0,1:0:0:0:
391,233,19290,1,0,1:0:0:0:
410,241,19368,6,0,P|472:234|427:309,1,170,4|0,2:0|3:0,2:0:0:0:
263,338,19842,1,0,3:0:0:0:
317,226,20000,1,0,3:0:0:0:
363,384,20158,1,0,3:0:0:0:
263,338,20316,1,0,1:0:0:0:
401,285,20474,2,0,L|453:275,1,42.5,0|0,3:0|3:0,2:0:0:0:
503,356,20632,6,0,L|461:364,1,42.5,8|0,2:0|2:0,2:0:0:0:
383,269,20790,2,0,L|435:259,1,42.5,8|0,2:0|2:0,2:0:0:0:
489,376,20947,2,0,L|447:384,1,42.5,8|0,2:0|2:0,2:0:0:0:
344,365,21105,1,8,2:0:0:0:
344,365,21184,1,0,2:0:0:0:
344,365,21263,2,0,P|298:359|249:370,1,85,0|0,3:0|3:0,2:0:0:0:
122,373,21579,1,4,1:2:0:0:
196,261,21737,1,0,1:0:0:0:
196,261,21816,1,0,1:0:0:0:
196,261,21895,6,0,B|229:213|189:137|94:121|114:-11|206:-42|319:-43|368:30|388:142|299:252|207:184|135:139|66:163,1,680,2|0,2:0|1:0,2:0:0:0:
62,272,24579,6,0,L|71:316,2,34,0|0|0,3:0|3:0|1:0,2:0:0:0:
171,287,24895,2,0,L|180:331,2,34,0|0|0,3:0|3:0|1:0,2:0:0:0:
279,297,25211,2,0,L|288:341,2,34,0|0|0,3:0|3:0|1:0,2:0:0:0:
383,300,25526,1,0,1:0:0:0:
387,318,25605,1,0,1:0:0:0:
393,336,25684,6,0,P|494:248|469:376,1,340,4|0,2:0|3:0,2:0:0:0:
314,204,27263,6,0,L|310:118,1,68,0|0,3:0|2:0,2:0:0:0:
367,67,27579,2,0,B|326:48|301:46|267:63|267:63|208:63,1,136,0|0,3:0|3:0,2:0:0:0:
171,0,28053,1,0,2:0:0:0:
90,78,28211,6,0,L|110:228,2,136,0|0|0,3:0|3:0|3:0,2:0:0:0:
40,5,29000,1,0,2:0:0:0:
177,108,29158,2,0,L|188:191,1,68,0|0,3:0|2:0,2:0:0:0:
338,277,29474,6,0,P|369:267|406:221,1,68,0|0,3:0|2:0,2:0:0:0:
254,239,29790,2,0,P|244:279|264:329,1,68,0|0,3:0|2:0,2:0:0:0:
330,187,30105,2,0,P|306:159|260:148,1,68,0|0,3:0|2:0,2:0:0:0:
185,175,30421,1,0,3:0:0:0:
185,175,30579,1,0,2:0:0:0:
233,64,30737,6,0,B|309:32|308:91|387:50,2,136,0|0|0,3:0|3:0|3:0,2:0:0:0:
164,120,31526,1,0,2:0:0:0:
80,90,31684,2,0,L|71:14,1,68,0|0,3:0|2:0,2:0:0:0:
6,152,32000,6,0,P|0:187|17:236,1,68,0|0,3:0|2:0,2:0:0:0:
155,341,32316,2,0,P|159:299|144:257,1,68,0|0,3:0|2:0,2:0:0:0:
1,310,32632,2,0,P|37:313|82:306,1,68,0|0,3:0|2:0,2:0:0:0:
163,183,32947,2,0,P|127:180|82:187,1,68,0|0,3:0|2:0,2:0:0:0:
267,253,33263,6,0,L|254:109,2,136,0|0|0,3:0|3:0|3:0,2:0:0:0:
302,334,34053,1,0,2:0:0:0:
414,216,34211,2,0,P|369:207|339:214,1,68,0|0,3:0|2:0,2:0:0:0:
267,253,34526,5,0,1:0:0:0:
267,253,34684,1,0,1:0:0:0:
243,109,34842,1,0,1:0:0:0:
243,109,35000,1,0,1:0:0:0:
122,199,35158,2,0,L|197:191,1,68,0|0,1:0|1:0,2:0:0:0:
392,163,35474,2,0,L|324:170,1,68,0|0,1:0|1:0,2:0:0:0:
234,81,35790,5,8,1:2:0:0:
323,33,35947,1,0,1:0:0:0:
243,109,36105,1,8,1:2:0:0:
344,121,36263,1,8,1:2:0:0:
243,138,36421,1,8,1:2:0:0:
320,204,36579,1,0,1:0:0:0:
234,168,36737,1,8,1:2:0:0:
249,268,36895,1,8,1:2:0:0:
133,211,37053,6,0,B|144:174|143:151|128:118|128:118|142:102|179:120,1,136,0|2,2:0|2:0,2:0:0:0:
234,168,37526,1,0,2:0:0:0:
306,117,37684,2,0,L|395:112,1,68,0|0,2:0|2:0,2:0:0:0:
416,191,38000,2,0,L|505:186,1,68,2|0,2:0|2:0,2:0:0:0:
496,98,38316,6,0,P|472:43|534:20,2,136,0|2|0,2:0|2:0|2:0,2:0:0:0:
503,274,39263,2,0,L|435:277,1,68,2|0,2:0|2:0,2:0:0:0:
371,215,39579,6,0,P|347:276|385:352,1,136,0|2,2:0|2:0,2:0:0:0:
452,374,40053,1,0,2:0:0:0:
192,313,40526,2,0,L|183:232,1,68,2|0,2:0|2:0,2:0:0:0:
100,219,40842,6,0,L|117:360,1,136,0|2,2:0|2:0,2:0:0:0:
48,300,41316,2,0,P|124:268|192:308,1,136,0|0,2:0|2:0,2:0:0:0:
244,336,41790,2,0,L|320:324,1,68,2|0,2:0|2:0,2:0:0:0:
360,222,42105,6,0,B|372:176|372:176|370:130|370:130|339:75,1,136,6|8,1:2|1:2,2:0:0:0:
268,32,42579,1,8,1:2:0:0:
172,55,42737,1,8,1:2:0:0:
241,124,42895,1,8,1:2:0:0:
215,17,43053,1,8,1:2:0:0:
189,109,43211,1,8,1:2:0:0:
278,85,43368,6,0,L|333:69,3,34,0|0|8|8,1:0|1:0|3:0|3:0,2:0:0:0:
355,147,43684,2,0,L|405:133,3,34,0|0|0|0,1:0|1:0|1:0|1:0,2:0:0:0:
421,63,44000,2,0,L|471:49,3,34,0|0|0|0,1:0|1:0|1:0|1:0,2:0:0:0:
499,131,44316,1,8,3:0:0:0:
499,131,44395,1,0,3:0:0:0:
499,131,44474,1,0,3:0:0:0:
499,131,44553,1,0,3:0:0:0:
499,131,44632,6,0,L|507:308,1,170,4|8,3:1|1:2,2:0:0:0:
328,372,45105,1,2,2:0:0:0:
386,288,45263,2,0,P|384:241|364:204,1,85,0|0,3:0|2:0,2:0:0:0:
252,301,45579,1,8,1:2:0:0:
252,301,45737,1,2,2:0:0:0:
328,372,45895,6,0,B|406:397|410:335|510:378,2,170,0|8|0,3:0|1:2|3:0,2:0:0:0:
252,301,46684,1,0,3:0:0:0:
287,205,46842,2,0,L|287:106,1,85,8|2,1:2|2:0,2:0:0:0:
171,33,47158,6,0,P|218:24|267:39,1,85,0|0,3:0|2:0,2:0:0:0:
380,125,47474,2,0,P|421:135|462:126,1,85,8|2,1:2|2:0,2:0:0:0:
355,24,47790,1,0,3:0:0:0:
355,24,47947,1,0,3:0:0:0:
287,120,48105,2,0,L|287:205,1,85,8|2,1:2|2:0,2:0:0:0:
149,278,48421,6,0,B|98:294|72:294|39:278|39:278|23:298|27:322|58:325,2,170,0|12|0,3:0|1:2|3:0,2:0:0:0:
191,184,49211,1,0,3:0:0:0:
137,97,49368,2,0,L|36:94,1,85,8|2,1:2|2:0,2:0:0:0:
191,184,49684,6,0,P|244:184|286:170,1,85,4|0,2:0|2:0,2:0:0:0:
345,248,50000,2,0,P|372:201|376:163,1,85,8|2,1:2|2:0,2:0:0:0:
474,192,50316,2,0,P|472:140|449:100,1,85,0|0,3:0|3:0,2:0:0:0:
512,28,50632,2,0,P|465:14|412:25,1,85,8|2,1:2|2:0,2:0:0:0:
274,175,50947,6,0,P|233:185|191:184,1,85,0|0,3:0|2:0,2:0:0:0:
376,171,51263,2,0,P|368:212|345:248,1,85,12|2,1:2|2:0,2:0:0:0:
457,110,51579,2,0,P|474:149|474:192,1,85,0|0,3:0|3:0,2:0:0:0:
429,18,51895,2,0,P|471:14|512:28,1,85,8|0,1:2|2:0,2:0:0:0:
323,87,52211,6,0,L|318:-3,1,85,2|0,3:2|2:0,2:0:0:0:
233,144,52526,2,0,L|228:54,1,85,8|2,1:2|2:0,2:0:0:0:
414,64,52842,2,0,L|419:149,1,85,0|0,3:0|3:0,2:0:0:0:
318,2,53158,2,0,L|322:86,1,85,8|2,1:2|2:0,2:0:0:0:
298,285,53474,6,0,B|388:245|380:323|487:277,2,170,0|8|0,3:0|1:2|3:0,2:0:0:0:
213,342,54263,1,0,3:0:0:0:
249,171,54421,1,4,1:2:0:0:
249,171,54737,5,0,1:0:0:0:
114,235,54895,1,0,1:0:0:0:
213,342,55053,1,8,3:0:0:0:
213,342,55368,1,2,3:2:0:0:
213,342,55684,1,0,3:0:0:0:
213,342,56000,5,0,1:0:0:0:
114,235,56158,1,0,1:0:0:0:
249,171,56316,1,4,3:0:0:0:
249,171,56632,1,2,3:2:0:0:
249,171,56947,1,0,3:0:0:0:
249,171,57263,5,0,1:0:0:0:
114,235,57421,1,0,1:0:0:0:
213,342,57579,1,8,3:0:0:0:
213,342,57895,1,2,3:2:0:0:
213,342,58211,1,0,3:0:0:0:
213,342,58526,6,0,P|153:317|73:357,1,136,6|0,2:0|3:0,2:0:0:0:
143,269,59000,2,0,L|129:122,1,136,2|0,2:0|2:0,2:0:0:0:
94,52,59474,2,0,P|61:47|12:61,1,68,2|0,3:2|2:0,2:0:0:0:
164,145,59790,6,0,B|211:156|251:139|251:139|309:141,1,136,4|2,2:1|2:0,2:0:0:0:
321,153,60737,1,2,2:0:0:0:
343,167,61368,1,2,2:0:0:0:
366,183,62000,1,2,2:0:0:0:
444,121,62158,1,2,2:0:0:0:
444,121,62237,1,2,2:0:0:0:
444,121,62316,6,0,L|451:154,3,34,2|0|0|0,2:0|2:0|2:0|2:0,2:0:0:0:
479,231,62632,2,0,L|473:264,3,34,2|0|0|0,2:0|2:0|2:0|2:0,2:0:0:0:
393,268,62947,2,0,L|383:223,3,34,2|0|0|0,2:0|2:0|2:0|2:0,2:0:0:0:
304,258,63263,2,0,L|305:304,3,34,2|0|0|0,2:0|2:0|2:0|2:0,2:0:0:0:
360,357,63579,5,0,2:0:0:0:
360,357,64211,1,0,2:0:0:0:
360,357,64526,1,0,2:0:0:0:
360,357,64842,6,0,B|425:377|474:346|474:346|534:347,2,170,4|4|0,3:1|1:2|3:0,2:0:0:0:
268,261,65632,1,2,2:0:0:0:
258,384,65790,1,8,1:0:0:0:
372,333,65947,1,0,2:0:0:0:
268,261,66105,6,0,P|215:251|175:274,1,85,2|0,3:2|2:0,2:0:0:0:
49,344,66421,2,0,P|102:354|142:331,1,85,8|0,1:0|2:0,2:0:0:0:
87,170,66737,2,0,L|90:267,1,85,0|2,3:2|2:0,2:0:0:0:
223,353,67053,1,8,1:0:0:0:
181,200,67211,1,0,2:0:0:0:
181,200,67290,1,0,2:0:0:0:
181,200,67368,6,0,B|177:67|177:67|150:100,1,170,2|8,3:2|1:0,2:0:0:0:
87,170,67842,1,0,2:0:0:0:
250,103,68000,2,0,B|293:95|293:95|342:106,1,85,2|0,3:2|2:0,2:0:0:0:
396,184,68316,2,0,B|436:193|436:193|479:185,1,85,8|0,1:0|2:0,2:0:0:0:
433,14,68632,6,0,P|420:66|435:107,1,85,2|2,3:2|2:0,2:0:0:0:
452,269,68947,1,4,1:2:0:0:
501,161,69105,1,0,1:0:0:0:
366,170,69263,2,0,L|278:175,1,85,0|0,3:0|3:0,2:0:0:0:
212,98,69579,1,8,1:0:0:0:
212,98,69737,1,2,2:0:0:0:
115,274,69895,6,0,P|189:307|275:266,1,170,4|8,3:1|1:0,2:0:0:0:
281,174,70368,1,0,2:0:0:0:
185,212,70526,2,0,P|170:301|231:374,1,170,2|8,3:2|1:0,2:0:0:0:
351,266,71000,1,0,2:0:0:0:
351,266,71079,1,0,2:0:0:0:
351,266,71158,6,0,L|252:276,1,85,2|0,3:2|2:0,2:0:0:0:
79,320,71474,2,0,P|72:276|86:226,1,85,8|0,1:0|2:0,2:0:0:0:
186,127,71790,2,0,L|184:227,1,85,0|2,3:0|2:0,2:0:0:0:
212,363,72105,1,8,1:0:0:0:
266,274,72263,1,0,2:0:0:0:
266,274,72342,1,0,2:0:0:0:
266,274,72421,6,0,B|351:227|351:317|437:265,2,170,2|8|2,3:2|1:0|3:2,2:0:0:0:
212,363,73211,1,0,2:0:0:0:
230,180,73368,2,0,L|230:90,1,85,8|8,1:0|1:2,2:0:0:0:
296,16,73684,5,0,1:0:0:0:
139,44,73842,2,0,L|90:36,2,42.5,8|0|0,1:2|1:2|1:0,2:0:0:0:
137,154,74158,2,0,L|86:172,2,42.5,8|0|2,1:2|1:0|1:2,2:0:0:0:
230,95,74474,1,8,1:2:0:0:
261,82,74553,1,0,1:0:0:0:
294,90,74632,1,2,1:2:0:0:
318,113,74711,1,2,1:2:0:0:
332,143,74790,1,0,1:0:0:0:
326,176,74868,1,2,1:2:0:0:
301,200,74947,6,0,B|356:194|356:194|412:213|412:213|477:206,2,170,6|6|0,3:1|1:2|3:0,2:0:0:0:
222,266,75737,1,0,2:0:0:0:
313,376,75895,2,0,P|323:328|308:282,1,85,10|0,1:0|2:0,2:0:0:0:
213,161,76211,6,0,P|270:104|365:125,2,170,2|6|2,3:1|1:2|3:1,2:0:0:0:
301,200,77000,1,0,2:0:0:0:
257,75,77158,2,0,B|252:28|252:28|262:-12,1,85,10|0,1:0|2:0,2:0:0:0:
442,62,77474,6,0,L|444:263,1,170,2|10,3:1|1:0,2:0:0:0:
443,231,77947,1,0,2:0:0:0:
395,383,78105,2,0,L|485:368,1,85,2|0,3:1|2:0,2:0:0:0:
357,290,78421,2,0,L|265:284,1,85,10|0,1:0|2:0,2:0:0:0:
132,368,78737,6,0,P|181:375|228:364,1,85,2|2,3:1|2:0,2:0:0:0:
220,198,79053,2,0,P|171:191|124:202,1,85,4|2,1:2|1:2,2:0:0:0:
49,244,79368,2,0,L|47:144,1,85,2|0,3:1|2:0,2:0:0:0:
126,21,79684,2,0,L|127:105,1,85,10|2,1:0|2:0,2:0:0:0:
173,285,80000,5,4,3:1:0:0:
173,285,80158,1,2,2:0:0:0:
227,130,80316,1,10,1:0:0:0:
227,130,80632,2,0,B|314:92|309:166|401:125,1,170,2|8,3:1|1:0,2:0:0:0:
273,225,81105,1,8,1:2:0:0:
402,159,81263,5,4,3:1:0:0:
367,63,81579,1,0,2:0:0:0:
462,27,81895,1,0,2:0:0:0:
495,123,82211,1,2,2:0:0:0:
221,253,84421,6,0,L|207:149,1,85,0|0,2:0|2:0,2:0:0:0:
324,77,84737,2,0,L|317:189,1,85,0|0,2:0|2:0,2:0:0:0:
298,322,85053,6,0,P|368:290|457:335,1,170,0|0,1:0|1:0,2:0:0:0:
368,253,85526,1,0,1:0:0:0:
373,384,85684,1,0,1:0:0:0:
382,222,85842,1,0,1:0:0:0:
298,322,86000,2,0,L|212:322,1,85,0|0,1:0|1:0,2:0:0:0:
111,232,86316,6,0,L|99:180,3,42.5,0|0|0|0,1:0|1:0|1:0|1:0,2:0:0:0:
46,116,86632,2,0,L|58:69,3,42.5,0|0|8|8,1:0|1:0|3:0|3:0,2:0:0:0:
134,86,86947,5,8,3:0:0:0:
165,98,87026,1,4,3:0:0:0:
198,103,87105,1,0,3:0:0:0:
231,95,87184,1,0,3:0:0:0:
257,73,87263,2,0,L|328:62,1,42.5,2|2,2:0|2:0,2:0:0:0:
338,137,87421,2,0,L|409:126,1,42.5,2|2,2:0|2:0,2:0:0:0:
410,57,87579,6,0,P|476:54|448:132,1,170,4|8,3:1|1:0,2:0:0:0:
414,224,88053,2,0,L|423:317,1,85,2|0,2:0|3:0,2:0:0:0:
336,374,88368,1,2,2:0:0:0:
316,265,88526,1,8,1:0:0:0:
430,335,88684,1,2,2:0:0:0:
316,265,88842,6,0,L|210:271,1,85,0|2,3:0|2:0,2:0:0:0:
97,293,89158,1,8,1:0:0:0:
148,152,89316,1,2,2:0:0:0:
178,355,89474,1,0,3:0:0:0:
161,177,89632,1,2,2:0:0:0:
84,267,89790,1,8,1:0:0:0:
255,287,89947,1,2,2:0:0:0:
161,177,90105,6,0,P|136:93|186:14,1,170,2|8,3:2|1:0,2:0:0:0:
322,109,90579,2,0,L|225:106,1,85,2|0,2:0|3:0,2:0:0:0:
110,100,90895,1,2,2:0:0:0:
110,100,90974,1,2,2:0:0:0:
110,100,91053,2,0,L|69:90,3,42.5,8|2|2|0,1:0|2:0|2:0|2:0,2:0:0:0:
34,114,91368,6,0,L|40:204,1,85,2|0,3:2|2:0,2:0:0:0:
136,304,91684,1,8,1:0:0:0:
137,135,91842,2,0,L|136:314,1,170,2|2,2:0|2:0,2:0:0:0:
223,238,92316,1,8,1:0:0:0:
256,243,92395,1,2,2:0:0:0:
289,249,92474,1,2,2:0:0:0:
322,253,92553,1,2,2:0:0:0:
355,259,92632,6,0,L|356:165,1,85,2|0,3:2|2:0,2:0:0:0:
451,245,92947,2,0,L|450:329,1,85,8|2,1:0|2:0,2:0:0:0:
354,366,93263,1,0,3:0:0:0:
256,243,93421,2,0,P|249:185|261:139,2,85,2|8|2,2:0|1:0|2:0,2:0:0:0:
347,196,93895,5,2,3:2:0:0:
314,70,94053,1,0,2:0:0:0:
230,138,94211,1,8,1:0:0:0:
410,118,94368,1,2,2:0:0:0:
430,88,94684,2,0,B|436:44|436:44|423:-4,2,85,2|8|2,2:0|1:0|2:0,2:0:0:0:
338,155,95158,6,0,L|344:206,3,42.5,2|0|0|0,3:2|2:0|2:0|2:0,2:0:0:0:
267,218,95474,2,0,L|273:269,3,42.5,8|0|2|2,1:0|2:0|2:0|2:0,2:0:0:0:
185,206,95790,2,0,L|180:163,3,42.5,2|0|0|2,3:2|2:0|2:0|2:0,2:0:0:0:
104,234,96105,2,0,L|110:285,3,42.5,8|2|0|2,1:0|2:0|2:0|2:0,2:0:0:0:
155,346,96421,6,0,L|204:338,3,42.5,0|2|0|2,3:0|2:0|2:0|2:0,2:0:0:0:
274,361,96737,2,0,L|323:353,3,42.5,8|2|2|2,1:0|2:0|2:0|2:0,2:0:0:0:
360,291,97053,2,0,P|418:268|480:311,1,127.5,0|2,3:0|2:0,2:0:0:0:
500,339,97368,2,0,L|493:174,1,127.5,8|2,1:0|1:2,2:0:0:0:
507,161,97684,6,2,P|430:195|354:152,1,170,4|12,3:1|1:2,2:1:0:0:
313,65,98158,1,0,2:0:0:0:
233,129,98316,2,2,L|240:306,1,170,0|8,3:0|1:2,2:1:0:0:
161,365,98790,1,0,2:0:0:0:
144,264,98947,6,2,P|69:246|6:314,1,170,2|8,3:2|1:2,2:1:0:0:
161,365,99421,1,2,2:0:0:0:
247,271,99579,2,2,L|234:181,1,85,0|0,3:2|2:0,2:1:0:0:
347,238,99895,2,2,L|337:341,1,85,8|0,1:2|2:0,2:1:0:0:
161,365,100211,6,2,L|142:169,1,170,2|8,3:2|1:2,2:1:0:0:
85,112,100684,1,0,2:0:0:0:
150,33,100842,2,0,L|243:22,1,85,2|0,3:1|2:0,2:0:0:0:
353,124,101158,2,0,L|262:109,1,85,8|0,1:2|2:0,2:0:0:0:
402,34,101474,6,2,P|477:50|448:116,1,170,2|8,3:2|1:2,2:1:0:0:
356,161,101947,1,0,2:0:0:0:
389,257,102105,2,2,B|452:239|452:239|518:258,2,127.5,0|0|2,3:1|2:0|2:0,2:1:0:0:
330,341,102737,6,2,P|353:258|304:172,1,170,0|12,3:0|1:2,2:1:0:0:
220,155,103211,1,0,2:0:0:0:
170,286,103368,2,0,L|261:267,1,85,0|0,3:1|3:2,2:0:0:0:
201,173,103684,2,0,L|117:190,1,85,8|0,1:2|1:2,2:0:0:0:
38,376,104000,6,2,L|216:377,1,170,2|8,3:2|1:2,2:1:0:0:
283,307,104474,1,0,2:0:0:0:
283,307,104632,2,0,P|290:255|267:199,1,85,0|4,3:1|3:2,2:0:0:0:
216,145,104947,2,0,P|209:93|232:37,1,85,8|4,1:2|3:2,2:0:0:0:
312,23,105263,6,0,L|363:23,3,42.5,4|2|8|8,3:1|3:1|3:0|3:0,2:0:0:0:
369,104,105579,2,0,L|420:104,3,42.5,4|4|4|0,3:0|3:0|1:2|2:0,2:0:0:0:
410,186,105895,2,0,L|359:186,3,42.5,4|0|0|0,2:0|3:0|3:0|3:0,2:0:0:0:
353,267,106211,2,0,L|302:267,3,42.5,8|8|4|4,3:0|3:0|3:0|3:0,2:0:0:0:
233,224,106526,5,4,1:2:0:0:
233,224,106684,1,0,2:0:0:0:
263,360,106842,1,2,1:2:0:0:
263,360,107000,1,2,1:2:0:0:
314,182,107158,1,2,1:2:0:0:
186,312,107316,1,2,1:2:0:0:
343,316,107474,1,2,1:2:0:0:
228,144,107632,1,2,1:2:0:0:
263,360,107790,5,2,2:0:0:0:
117,126,117895,6,0,B|168:113|208:130|208:130|263:132,1,136,4|0,3:2|3:0,2:0:0:0:
328,88,118368,1,0,2:0:0:0:
397,142,118526,2,0,P|417:78|363:12,1,136,0|0,3:2|3:0,2:0:0:0:
328,88,119000,1,0,2:0:0:0:
352,232,119158,6,0,L|506:217,1,136,0|0,3:2|3:0,2:0:0:0:
472,131,119632,1,0,2:0:0:0:
448,302,119790,2,0,L|312:315,1,136,0|0,3:2|3:0,2:0:0:0:
238,267,120263,1,0,2:0:0:0:
267,183,120421,6,0,B|290:112|241:113|271:36,2,136,0|0|0,3:0|3:0|3:0,2:0:0:0:
238,267,121211,1,0,2:0:0:0:
158,229,121368,2,0,L|75:236,1,68,0|0,3:0|2:0,2:0:0:0:
45,157,121684,6,0,P|24:90|72:18,1,136,0|0,3:0|3:0,2:0:0:0:
112,98,122158,1,0,2:0:0:0:
112,98,122316,2,0,L|194:94,1,68,0|0,3:0|2:0,2:0:0:0:
250,41,122632,2,0,L|332:37,1,68,0|0,2:0|2:0,2:0:0:0:
452,90,122947,5,0,1:0:0:0:
452,90,123105,1,0,1:0:0:0:
361,141,123263,1,0,1:0:0:0:
361,141,123421,1,0,1:0:0:0:
452,90,123579,2,0,L|451:1,1,68,0|0,1:0|1:0,2:0:0:0:
361,141,123895,2,0,L|361:208,1,68,0|0,1:0|1:0,2:0:0:0:
321,320,124211,5,8,1:2:0:0:
440,272,124368,1,8,1:2:0:0:
333,350,124526,1,8,1:2:0:0:
452,302,124684,1,8,1:2:0:0:
361,209,124842,1,8,1:2:0:0:
333,350,125000,1,8,1:2:0:0:
349,179,125158,1,8,1:2:0:0:
321,320,125316,1,8,1:2:0:0:
226,256,125474,6,0,L|173:264,3,34,8|0|0|0,1:2|2:0|1:0|1:0,2:0:0:0:
133,331,125790,2,0,L|80:339,3,34,8|0|0|0,1:2|2:0|1:0|1:0,2:0:0:0:
21,309,126105,2,0,L|15:267,3,34,8|0|0|0,1:2|2:0|1:0|1:0,2:0:0:0:
63,204,126421,2,0,L|57:162,3,34,8|0|0|0,1:2|2:0|1:0|1:0,2:0:0:0:
19,80,126737,5,10,1:2:0:0:
19,80,126895,1,8,1:2:0:0:
139,129,127053,2,0,L|223:135,1,68,10|8,1:2|1:2,2:0:0:0:
294,93,127368,1,8,1:2:0:0:
226,16,127526,1,8,1:2:0:0:
282,197,127684,1,8,1:2:0:0:
294,93,127842,1,8,1:2:0:0:
183,229,128000,5,4,2:0:0:0:
78,309,133053,6,0,L|157:303,1,68,12|8,3:2|3:2,2:0:0:0:
129,203,133368,2,0,L|196:197,1,68,8|10,3:2|3:2,2:0:0:0:
248,286,133684,2,0,L|327:280,1,68,8|8,3:2|3:2,2:0:0:0:
299,180,134000,2,0,L|366:174,1,68,10|8,3:2|3:2,2:0:0:0:
414,271,134316,5,10,1:2:0:0:
504,186,134474,1,8,1:2:0:0:
414,271,134632,1,8,1:2:0:0:
442,108,134790,1,8,1:2:0:0:
414,271,134947,2,0,P|408:314|422:356,1,68,10|8,1:2|1:2,2:0:0:0:
342,203,135263,2,0,P|348:160|334:118,1,68,8|8,1:2|1:2,2:0:0:0:
276,58,135579,5,2,2:0:0:0:
98,112,140000,5,2,1:2:0:0:
136,225,140158,1,0,1:0:0:0:
197,145,140316,6,0,L|196:68,1,76.4999999999998,0|0,1:0|1:0,2:0:0:0:
197,145,140632,6,0,P|252:102|273:189,2,170,4|4|0,3:1|1:2|3:0,2:0:0:0:
249,261,141421,1,0,2:0:0:0:
378,207,141579,2,0,L|371:118,1,85,8|2,1:0|1:2,2:0:0:0:
413,28,141895,6,0,P|464:22|500:45,1,85,0|0,3:2|2:0,2:0:0:0:
345,124,142211,2,0,P|294:130|258:107,1,85,8|0,1:0|2:0,2:0:0:0:
88,87,142526,2,0,L|99:184,1,85,2|0,3:2|2:0,2:0:0:0:
140,264,142842,1,8,1:0:0:0:
227,212,143000,1,0,1:0:0:0:
227,212,143079,1,0,1:0:0:0:
227,212,143158,6,0,P|270:203|318:217,1,85,2|0,3:2|2:0,2:0:0:0:
443,301,143474,2,0,P|400:310|352:296,1,85,8|0,1:0|3:0,2:0:0:0:
334,111,143790,1,2,2:0:0:0:
434,183,143947,1,0,3:0:0:0:
309,212,144105,1,8,1:0:0:0:
434,183,144263,1,2,1:2:0:0:
360,300,144421,6,0,P|359:343|374:386,1,85,2|0,3:2|2:0,2:0:0:0:
459,282,144737,1,8,1:0:0:0:
459,282,144895,1,0,2:0:0:0:
329,181,145053,2,0,L|241:186,1,85,0|2,3:0|1:2,2:0:0:0:
107,146,145368,1,8,1:0:0:0:
196,96,145526,1,2,1:2:0:0:
149,240,145684,6,0,P|136:305|198:387,1,170,4|4,3:1|1:2,2:0:0:0:
235,291,146158,1,0,2:0:0:0:
101,327,146316,2,0,L|14:323,1,85,2|0,3:2|2:0,2:0:0:0:
0,158,146632,2,0,L|84:161,1,85,8|2,1:0|1:2,2:0:0:0:
189,239,146947,6,0,B|275:275|268:206|368:250,1,170,2|8,3:2|1:0,2:0:0:0:
312,338,147421,1,0,2:0:0:0:
233,148,147579,2,0,L|233:51,1,85,2|0,3:2|2:0,2:0:0:0:
322,14,147895,1,8,1:0:0:0:
348,112,148053,1,8,1:0:0:0:
348,112,148132,1,8,1:0:0:0:
348,112,148211,6,0,B|433:65|433:155|519:103,2,170,2|8|2,3:2|1:0|2:0,2:0:0:0:
324,211,149000,1,0,3:0:0:0:
383,293,149158,2,0,L|485:280,1,85,8|2,1:0|1:2,2:0:0:0:
335,381,149474,5,0,3:0:0:0:
243,335,149632,2,0,L|194:327,2,42.5,8|8|8,1:2|1:2|1:0,2:0:0:0:
224,233,149947,2,0,L|163:219,2,42.5,10|8|2,1:2|1:2|3:2,2:0:0:0:
324,211,150263,1,8,1:2:0:0:
332,178,150342,1,0,1:0:0:0:
330,144,150421,1,2,1:2:0:0:
314,113,150500,1,2,1:2:0:0:
307,79,150579,1,0,2:0:0:0:
312,45,150658,1,2,1:2:0:0:
330,16,150737,6,0,L|510:18,2,170,6|4|2,3:1|1:2|3:1,2:0:0:0:
229,95,151526,1,0,2:0:0:0:
326,196,151684,2,0,P|336:148|321:102,1,85,10|2,1:0|1:2,2:0:0:0:
158,15,152000,6,0,P|126:81|165:174,2,170,2|10|2,3:2|1:0|3:1,2:0:0:0:
229,95,152790,1,0,2:0:0:0:
153,198,152947,2,0,L|58:199,1,85,10|0,1:0|1:0,2:0:0:0:
27,293,153263,6,0,P|18:349|31:391,1,85,2|0,3:2|2:0,2:0:0:0:
184,384,153579,2,0,P|193:342|186:301,1,85,10|0,1:0|3:0,2:0:0:0:
112,229,153895,1,2,2:1:0:0:
115,127,154053,1,0,3:0:0:0:
199,69,154211,2,0,L|305:67,1,85,10|2,1:0|1:2,2:0:0:0:
466,162,154526,6,0,P|475:118|460:70,1,85,2|0,3:2|2:0,2:0:0:0:
380,42,154842,2,0,P|370:83|380:124,1,85,10|0,1:0|2:0,2:0:0:0:
404,241,155158,2,0,L|292:247,1,85,2|2,3:1|1:2,2:0:0:0:
344,340,155474,2,0,L|428:335,1,85,10|2,1:0|1:2,2:0:0:0:
229,209,155790,6,0,P|222:251|237:301,1,85,6|0,3:1|2:0,2:0:0:0:
319,245,156105,1,4,1:2:0:0:
319,245,156421,2,0,B|332:208|331:180|314:151|314:151|353:115|363:178,1,170,2|8,3:2|1:0,2:0:0:0:
229,209,156895,1,2,1:2:0:0:
159,133,157053,6,0,L|68:139,1,85,2|0,3:1|2:0,2:0:0:0:
228,58,157368,2,0,L|312:52,1,85,10|0,1:0|2:0,2:0:0:0:
168,168,157684,2,0,L|77:174,1,85,2|0,3:1|2:0,2:0:0:0:
237,93,158000,2,0,L|321:87,1,85,10|8,1:0|1:0,2:0:0:0:
408,155,158316,6,0,P|430:216|401:295,1,127.5,4|0,2:0|2:0,2:0:0:0:
369,298,158632,2,0,L|303:293,3,42.5,0|0|0|0,1:0|1:0|1:0|1:0,2:0:0:0:
296,253,158947,2,0,P|239:231|169:269,1,127.5,4|0,2:0|2:0,2:0:0:0:
150,297,159263,2,0,L|155:346,3,42.5,0|0|0|0,1:0|1:0|1:0|1:0,2:0:0:0:
110,367,159579,6,0,L|94:157,1,170,4|0,2:0|1:0,2:0:0:0:
69,57,160053,2,0,L|6:50,2,42.5,0|0|0,1:0|1:0|1:0,2:0:0:0:
162,117,160368,1,0,1:0:0:0:
190,136,160447,1,0,1:0:0:0:
222,144,160526,1,0,1:0:0:0:
256,143,160605,1,0,1:0:0:0:
288,133,160684,1,0,1:0:0:0:
316,114,160763,1,0,1:0:0:0:
336,86,160842,6,0,L|330:0,1,85,6|0,2:0|1:0,2:0:0:0:
436,104,161158,1,0,1:0:0:0:
436,104,161237,1,0,1:0:0:0:
436,104,161316,2,0,P|448:146|441:191,1,85,6|0,2:0|1:0,2:0:0:0:
369,276,161632,1,0,1:0:0:0:
342,255,161711,1,0,1:0:0:0:
308,250,161790,1,6,2:0:0:0:
277,263,161868,1,2,1:2:0:0:
262,293,161947,1,0,1:0:0:0:
261,327,162026,1,0,1:0:0:0:
279,355,162105,6,0,L|182:356,1,85,6|0,2:0|1:0,2:0:0:0:
65,326,162421,1,0,1:0:0:0:
65,326,162500,1,0,1:0:0:0:
65,326,162579,2,0,P|60:275|71:238,1,85,6|0,2:0|1:0,2:0:0:0:
150,150,162895,1,0,1:0:0:0:
150,150,162974,1,0,1:0:0:0:
150,150,163053,2,0,L|155:214,3,42.5,8|0|0|0,1:3|1:0|2:0|2:0,2:0:0:0:
171,229,163368,6,0,L|278:219,1,85,4|0,3:1|1:0,2:0:0:0:
348,264,163684,1,0,1:0:0:0:
445,233,163842,1,0,1:0:0:0:
445,233,163921,1,0,1:0:0:0:
445,233,164000,2,0,L|429:174,3,42.5,0|0|0|0,1:0|1:0|1:0|1:0,2:0:0:0:
452,114,164316,2,0,L|465:63,3,42.5,0|8|8|0,1:0|2:3|2:3|2:0,2:0:0:0:
405,22,164632,6,0,P|364:10|312:30,1,85,4|0,1:0|2:0,2:0:0:0:
301,66,164868,1,0,2:0:0:0:
301,66,164947,2,0,L|235:65,3,42.5,0|0|0|0,1:0|1:0|1:0|1:0,2:0:0:0:
186,32,165263,2,0,L|120:31,3,42.5,8|0|8|0,3:0|3:0|3:0|3:0,2:0:0:0:
92,103,165579,2,0,L|26:102,3,42.5,8|0|8|0,3:0|3:0|3:0|3:0,2:0:0:0:
9,28,165895,5,4,3:1:0:0:
86,150,168421,6,0,B|166:109|165:188|274:138,1,170,4|8,3:1|1:2,2:0:0:0:
283,50,168895,1,8,3:2:0:0:
299,236,169053,2,0,L|394:224,1,85,0|8,3:0|1:2,2:0:0:0:
393,48,169368,2,0,P|379:97|398:152,1,85,8|8,1:2|3:2,2:0:0:0:
471,185,169684,5,4,1:2:0:0:
457,286,169842,1,4,2:3:0:0:
457,286,169921,1,0,3:0:0:0:
457,286,170000,2,0,L|459:355,3,42.5,8|8|4|0,3:0|2:3|2:3|3:0,2:0:0:0:
384,366,170316,2,0,L|326:371,3,42.5,0|0|0|0,3:0|1:0|1:0|1:0,2:0:0:0:
278,318,170632,2,0,L|275:276,3,42.5,2|2|2|0,1:2|1:2|1:2|1:0,2:0:0:0:
333,213,170947,6,0,L|330:171,3,42.5,4|0|0|0,3:1|2:0|2:0|2:0,2:0:0:0:
280,96,171263,2,0,P|202:60|119:105,1,170,4|0,1:2|3:0,2:0:0:0:
73,177,171737,1,2,2:0:0:0:
210,242,171895,2,0,L|202:146,1,85,8|2,1:0|2:0,2:0:0:0:
122,7,172211,6,0,L|129:91,1,85,0|0,3:0|2:0,2:0:0:0:
73,177,172526,2,0,P|38:139|34:83,1,85,8|0,1:0|2:0,2:0:0:0:
230,80,172842,2,0,P|226:121|192:165,1,85,0|0,3:0|2:0,2:0:0:0:
160,277,173158,2,0,L|258:279,1,85,8|0,1:0|2:0,2:0:0:0:
422,242,173474,6,0,B|443:284|444:315|424:344|424:344|399:327|356:333,1,170,2|8,3:2|1:0,2:0:0:0:
273,379,173947,1,0,2:0:0:0:
244,278,174105,2,0,L|241:179,1,85,2|0,3:2|2:0,2:0:0:0:
334,106,174421,2,0,L|336:190,1,85,8|0,1:0|2:0,2:0:0:0:
364,332,174737,5,2,3:2:0:0:
430,214,174895,1,0,2:0:0:0:
278,274,175053,1,8,1:0:0:0:
430,214,175211,1,2,2:0:0:0:
278,274,175368,2,0,L|90:267,2,170,0|8|4,3:0|1:0|3:1,2:0:0:0:
243,147,176158,5,0,2:0:0:0:
191,232,176316,1,8,1:0:0:0:
191,232,176632,2,0,P|185:279|197:324,1,85,2|0,3:2|2:0,2:0:0:0:
243,147,176947,2,0,P|194:130|145:145,1,85,8|8,1:0|1:2,2:0:0:0:
293,235,177263,5,4,3:1:0:0:
395,235,177579,1,0,2:0:0:0:
480,179,177895,1,0,2:0:0:0:
481,76,178211,1,2,2:0:0:0:
256,192,178290,12,0,180737,2:0:0:0:
