osu file format v14

[General]
AudioFilename: HoneyWorks,GUMI.ogg
AudioLeadIn: 0
PreviewTime: 139217
Countdown: 0
SampleSet: Soft
StackLeniency: 0.7
Mode: 0
LetterboxInBreaks: 0
WidescreenStoryboard: 0

[Editor]
DistanceSpacing: 1.2
BeatDivisor: 3
GridSize: 4
TimelineZoom: 1.6

[Metadata]
Title:Hatsukoi no Ehon
TitleUnicode:初恋の絵本
Artist:HoneyWorks feat. GUMI
ArtistUnicode:HoneyWorks feat. GUMI
Creator:yf_bmp
Version:Garden's Hard
Source:
Tags:VOCALOID We have always been 10 cm apart. Kokuhaku Jikkou Iinkai japanese pop itsudatte bokura no koi wa datta. centi 好きすぎてやばい。 ~告白実行委員会キャラクターソング集~ 東京ウインターセッション 告白実行委員会〜恋愛シリーズ〜 Sukisugiteyabai Kokuhakujikkouiinkai Character Song Shu Tokyo Winter Session picture book first love 初恋ノート Hatsukoi Note confession executive committee series vocaloid sahuang z1085684963 Pururut Karen Vert Garden Binguo
BeatmapID:971204
BeatmapSetID:381779

[Difficulty]
HPDrainRate:5
CircleSize:3.8
OverallDifficulty:6
ApproachRate:8
SliderMultiplier:1.4
SliderTickRate:1

[Events]
//Background and Video events
0,0,"BG.jpg",0,0
//Break Periods
2,128200,129776
2,135621,139250
//Storyboard Layer 0 (Background)
//Storyboard Layer 1 (Fail)
//Storyboard Layer 2 (Pass)
//Storyboard Layer 3 (Foreground)
//Storyboard Layer 4 (Overlay)
//Storyboard Sound Samples

[TimingPoints]
-448,685.714285714286,4,2,1,70,1,0
9837,631.578947368421,4,2,1,70,1,0
11100,-100,4,2,1,80,0,0
11633,315.789473684211,4,2,1,80,1,0
11790,315.789473684211,4,2,1,80,1,0
20710,-100,4,2,1,30,0,0
20789,-100,4,2,1,80,0,0
20868,-100,4,2,1,30,0,0
20947,-100,4,2,1,80,0,0
21025,-100,4,2,1,30,0,0
21104,-100,4,2,1,80,0,0
21183,-100,4,2,1,30,0,0
21263,-100,4,2,1,80,0,0
26947,-100,4,2,1,50,0,0
34526,-100,4,2,1,20,0,0
35158,-100,4,2,1,30,0,0
35790,-100,4,2,1,40,0,0
36421,-100,4,2,1,50,0,0
37053,-100,4,2,1,70,0,0
42105,-100,4,2,1,80,0,0
42421,-100,4,2,1,60,0,0
43368,-100,4,2,1,80,0,0
43684,-100,4,2,1,40,0,0
43841,-100,4,2,1,50,0,0
44000,-100,4,2,1,60,0,0
44157,-100,4,2,1,70,0,0
44316,-100,4,2,1,80,0,0
62631,-100,4,2,1,70,0,0
62947,-100,4,2,1,60,0,0
63262,-100,4,2,1,50,0,0
64842,-100,4,2,1,80,0,1
81263,-117.647058823529,4,2,1,80,0,1
82211,-117.647058823529,4,2,1,80,0,0
84421,-100,4,2,1,80,0,0
100842,-100,4,2,2,80,0,0
101158,-100,4,2,1,80,0,0
105341,-100,4,2,2,80,0,0
105736,-100,4,2,1,80,0,0
107790,-117.647058823529,4,2,1,60,0,0
117895,-111.111111111111,4,2,1,60,0,0
120421,-105.263157894737,4,2,1,60,0,0
122947,-100,4,2,1,40,0,0
123579,-100,4,2,1,45,0,0
124211,-100,4,2,1,50,0,0
124842,-100,4,2,1,55,0,0
125474,-100,4,2,1,60,0,0
130526,-111.111111111111,4,2,1,60,0,0
133053,-100,4,2,1,60,0,0
134316,-100,4,2,1,45,0,0
140000,-100,4,2,1,60,0,0
140158,-117.647058823529,4,2,1,60,0,0
140552,-117.647058823529,4,2,1,70,0,0
140632,-100,4,2,1,80,0,1
165895,-100,4,2,1,80,0,0
170316,-100,4,2,1,40,0,0
170473,-100,4,2,1,50,0,0
170632,-100,4,2,1,60,0,0
170789,-100,4,2,1,70,0,0
170947,-100,4,2,1,80,0,0
171263,-100,4,2,1,80,0,1
178211,-100,4,2,1,80,0,0
180737,-100,4,2,1,20,0,0

[Colours]
Combo1 : 255,0,128
Combo2 : 128,255,0
Combo3 : 255,128,255
Combo4 : 252,14,55

[HitObjects]
110,103,237,6,0,P|92:134|85:168,1,70,0|0,2:0|2:0,2:0:0:0:
144,237,923,2,0,B|204:265|232:209|300:257,1,140,2|0,2:0|2:0,2:0:0:0:
460,212,2294,2,0,P|424:132|373:111,1,140,2|0,2:0|2:0,2:0:0:0:
292,136,3323,5,0,2:0:0:0:
216,85,3666,2,0,L|121:76,2,70,2|0|0,2:0|2:0|2:0,2:0:0:0:
292,136,4694,1,0,2:0:0:0:
208,173,5037,2,0,P|195:216|195:248,1,70,2|0,2:0|2:0,2:0:0:0:
294,341,5723,2,0,P|295:304|286:261,1,70,2|0,2:0|2:0,2:0:0:0:
194,240,6409,2,0,L|107:241,1,70,2|0,2:0|2:0,2:0:0:0:
48,292,7094,6,0,P|86:234|80:165,1,140,0|2,2:0|2:0,2:0:0:0:
29,90,8123,1,0,2:0:0:0:
107,44,8466,2,0,P|167:36|201:42,1,70,2|0,2:0|2:0,2:0:0:0:
264,60,9152,1,2,2:0:0:0:
256,192,9323,12,0,11100,2:0:0:0:
347,80,11790,6,0,B|354:128|354:128|336:229,1,140,4|0,2:1|2:0,2:0:0:0:
264,271,12263,1,2,2:0:0:0:
184,227,12421,2,0,P|149:221|109:227,1,70,0|4,3:0|2:3,2:0:0:0:
115,317,12737,2,0,P|152:323|186:318,1,70,4|0,2:3|3:0,2:0:0:0:
264,271,13053,6,0,P|347:250|399:277,1,140,4|0,2:0|2:0,2:0:0:0:
453,340,13526,1,2,2:0:0:0:
492,258,13684,2,0,L|499:137,2,93.3333333333333,8|8|4,2:3|2:3|2:3,2:0:0:0:
453,340,14316,6,0,P|381:319|309:323,1,140,4|0,2:0|2:0,2:0:0:0:
228,345,14790,2,0,L|219:378,2,35,0|0|8,3:0|3:0|2:3,2:0:0:0:
254,257,15105,1,0,3:0:0:0:
170,219,15263,2,0,P|141:216|86:232,1,70,4|0,2:3|3:0,2:0:0:0:
66,248,15500,1,0,3:0:0:0:
66,248,15579,6,0,L|74:89,1,140,4|0,2:0|2:0,2:0:0:0:
137,43,16053,2,0,P|164:39|219:50,1,70,6|0,2:0|2:0,2:0:0:0:
267,112,16368,1,0,1:0:0:0:
357,118,16526,2,0,L|350:217,1,70,0|0,2:0|1:0,2:0:0:0:
290,255,16842,6,0,P|237:247|199:252,1,70,4|0,2:0|3:0,2:0:0:0:
94,325,17158,2,0,P|130:330|165:324,1,70,0|8,3:0|3:0,2:0:0:0:
127,241,17474,2,0,P|122:199|132:153,1,70,8|0,3:0|3:0,2:0:0:0:
225,80,17790,2,0,P|229:129|224:159,1,70,4|4,3:0|3:0,2:0:0:0:
128,49,18105,5,4,2:0:0:0:
308,21,18421,1,2,2:0:0:0:
335,200,18737,1,0,3:0:0:0:
418,163,18895,1,2,2:0:0:0:
335,200,19053,2,0,P|332:250|335:280,1,70,0|0,1:0|1:0,2:0:0:0:
300,298,19290,1,0,1:0:0:0:
300,298,19368,6,0,P|253:293|207:305,1,70,4|0,2:0|3:0,2:0:0:0:
164,359,19684,2,0,L|90:359,1,70,0|0,3:0|3:0,2:0:0:0:
18,307,20000,2,0,P|14:272|21:236,1,70,0|0,3:0|3:0,2:0:0:0:
87,175,20316,2,0,L|170:175,1,70,0|0,1:0|3:0,2:0:0:0:
198,195,20553,1,0,3:0:0:0:
198,195,20632,6,0,L|249:195,3,35,8|0|8|0,2:0|2:0|2:0|2:0,2:0:0:0:
274,176,20947,2,0,L|319:178,3,35,8|0|8|0,2:0|2:0|2:0|2:0,2:0:0:0:
346,204,21263,1,0,3:0:0:0:
430,165,21421,1,0,3:0:0:0:
430,165,21579,2,0,P|429:124|420:91,1,70,4|0,1:2|1:0,2:0:0:0:
342,50,21895,5,2,2:0:0:0:
256,192,21974,12,0,24421,2:0:0:0:
126,86,24737,6,0,L|114:169,1,70,0|0,1:0|3:0,2:0:0:0:
48,217,25053,2,0,P|62:265|84:300,1,70,0|0,1:0|3:0,2:0:0:0:
158,311,25368,1,0,1:0:0:0:
247,276,25526,1,0,1:0:0:0:
247,276,25605,1,0,1:0:0:0:
247,276,25684,6,0,B|312:263|367:297|367:297|427:225|338:211|406:110|406:110|361:80|300:95,1,420,4|0,2:0|2:0,2:0:0:0:
135,122,26947,5,0,3:0:0:0:
135,122,27263,2,0,L|132:204,1,70,0|0,3:0|2:0,2:0:0:0:
51,234,27579,2,0,L|43:78,1,140,0|0,3:0|3:0,2:0:0:0:
115,37,28053,1,0,2:0:0:0:
203,59,28211,6,0,P|265:67|364:22,2,140,0|0|0,3:0|3:0|3:0,2:0:0:0:
330,188,29158,2,0,L|418:202,1,70,0|0,3:0|2:0,2:0:0:0:
488,178,29474,6,0,P|434:237|430:317,1,140,0|0,3:0|3:0,2:0:0:0:
498,348,29947,1,0,2:0:0:0:
425,294,30105,2,0,L|334:292,1,70,0|0,3:0|2:0,2:0:0:0:
269,324,30421,2,0,P|222:313|176:317,1,70,0|0,3:0|2:0,2:0:0:0:
118,353,30737,6,0,P|156:276|141:208,2,140,0|0|0,3:0|3:0|3:0,2:0:0:0:
25,196,31684,2,0,L|38:98,1,70,0|0,3:0|2:0,2:0:0:0:
72,43,32000,6,0,P|121:67|213:66,1,140,0|0,3:0|3:0,2:0:0:0:
383,28,32632,2,0,L|383:178,1,140,0|0,3:0|3:0,2:0:0:0:
381,350,33263,6,0,P|301:330|224:341,1,140,0|0,3:0|3:0,2:0:0:0:
64,363,33895,2,0,L|76:195,1,140,0|0,3:0|3:0,2:0:0:0:
72,43,34526,6,0,L|152:57,1,70,0|0,1:0|1:0,2:0:0:0:
231,38,34842,2,0,P|229:80|202:125,1,70,0|0,1:0|1:0,2:0:0:0:
163,178,35158,2,0,L|251:198,1,70,0|0,1:0|1:0,2:0:0:0:
322,183,35474,2,0,P|319:221|296:261,1,70,0|0,1:0|1:0,2:0:0:0:
252,324,35790,6,0,L|340:348,2,70,8|0|8,1:2|1:0|1:2,2:0:0:0:
161,331,36263,1,8,1:2:0:0:
161,331,36421,2,0,P|143:296|141:243,1,70,8|0,1:2|1:0,2:0:0:0:
52,234,36737,2,0,P|72:187|76:149,1,70,8|8,1:2|1:2,2:0:0:0:
76,76,37053,6,0,L|157:76,2,70,0|0|2,2:0|2:0|2:0,2:0:0:0:
75,168,37526,1,0,2:0:0:0:
165,176,37684,2,0,P|211:172|236:163,1,70,0|0,2:0|2:0,2:0:0:0:
289,91,38000,2,0,P|333:82|365:89,1,70,2|0,2:0|2:0,2:0:0:0:
410,160,38316,6,0,L|424:308,2,140,0|2|0,2:0|2:0|2:0,2:0:0:0:
271,280,39263,2,0,L|249:348,1,70,2|0,2:0|2:0,2:0:0:0:
157,344,39579,6,0,P|137:312|20:295,1,140,0|2,2:0|2:0,2:0:0:0:
69,373,40053,2,0,L|150:241,1,140,0|0,2:0|2:0,2:0:0:0:
217,202,40526,2,0,P|258:208|299:198,1,70,2|0,2:0|2:0,2:0:0:0:
250,118,40842,6,0,L|83:115,1,140,0|2,2:0|2:0,2:0:0:0:
22,143,41316,2,0,P|18:107|32:64,1,70,0|0,2:0|2:0,2:0:0:0:
94,205,41632,1,0,2:0:0:0:
94,205,41790,2,0,P|98:278|78:344,1,140,2|6,2:0|1:2,2:0:0:0:
79,341,42421,6,0,L|172:340,1,70,8|8,1:2|1:2,2:0:0:0:
210,272,42737,2,0,L|301:272,1,70,8|8,1:2|1:2,2:0:0:0:
360,315,43053,1,8,1:2:0:0:
425,251,43211,1,8,1:2:0:0:
380,172,43368,6,0,L|342:146,3,35,0|0|8|8,1:0|1:0|3:0|3:0,2:0:0:0:
312,150,43684,2,0,L|286:122,3,35,0|0|0|0,1:0|1:0|1:0|1:0,2:0:0:0:
287,86,44000,2,0,L|283:49,3,35,0|0|0|0,1:0|1:0|1:0|1:0,2:0:0:0:
244,32,44316,2,0,P|204:41|153:38,1,70,8|0,3:0|3:0,2:0:0:0:
83,33,44632,6,0,L|65:118,1,70,4|0,3:1|2:0,2:0:0:0:
145,150,44947,2,0,L|149:230,1,70,8|2,1:2|2:0,2:0:0:0:
92,293,45263,2,0,P|164:270|228:280,1,140,0|8,3:0|1:2,2:0:0:0:
310,318,45737,1,2,2:0:0:0:
395,286,45895,6,0,L|428:139,2,140,0|8|0,3:0|1:2|3:0,2:0:0:0:
266,157,46842,2,0,L|288:80,1,70,8|2,1:2|2:0,2:0:0:0:
359,36,47158,6,0,P|404:26|447:31,2,70,0|0|8,3:0|2:0|1:2,2:0:0:0:
367,127,47632,1,2,2:0:0:0:
285,89,47790,2,0,L|209:87,1,70,0|0,3:0|3:0,2:0:0:0:
137,135,48105,2,0,P|126:183|128:215,1,70,8|2,1:2|2:0,2:0:0:0:
177,279,48421,6,0,P|108:250|28:258,2,140,0|12|0,3:0|1:2|3:0,2:0:0:0:
340,359,49368,2,0,L|415:359,1,70,8|2,1:2|2:0,2:0:0:0:
484,305,49684,6,0,P|456:242|467:148,1,140,4|8,2:0|1:2,2:0:0:0:
490,86,50158,1,2,2:0:0:0:
490,86,50316,2,0,L|397:86,1,70,0|0,3:0|3:0,2:0:0:0:
341,133,50632,2,0,L|250:125,1,70,8|2,1:2|2:0,2:0:0:0:
196,74,50947,6,0,P|140:48|57:70,1,140,0|12,3:0|1:2,2:0:0:0:
11,138,51421,1,2,2:0:0:0:
11,138,51579,2,0,L|30:216,1,70,0|0,3:0|3:0,2:0:0:0:
81,279,51895,2,0,P|129:280|163:268,1,70,8|0,1:2|2:0,2:0:0:0:
216,210,52211,6,0,P|276:175|352:189,1,140,2|8,3:2|1:2,2:0:0:0:
416,248,52684,1,2,2:0:0:0:
416,248,52842,2,0,L|442:163,1,70,0|0,3:0|3:0,2:0:0:0:
501,245,53158,2,0,L|480:320,1,70,8|2,1:2|2:0,2:0:0:0:
393,335,53474,6,0,B|313:326|313:326|244:348,2,140,0|8|0,3:0|1:2|3:0,2:0:0:0:
482,312,54263,1,0,3:0:0:0:
443,229,54421,2,0,P|437:181|446:138,1,70,4|0,1:2|2:0,2:0:0:0:
465,71,54737,6,0,L|383:65,1,70,0|0,1:0|1:0,2:0:0:0:
305,82,55053,1,8,3:0:0:0:
188,221,55368,1,2,3:2:0:0:
127,49,55684,1,0,3:0:0:0:
305,82,56000,6,0,L|322:171,1,70,0|0,1:0|1:0,2:0:0:0:
305,241,56316,1,4,3:0:0:0:
130,190,56632,1,2,3:2:0:0:
172,366,56947,1,0,3:0:0:0:
305,241,57263,6,0,L|381:232,1,70,0|0,1:0|1:0,2:0:0:0:
460,200,57579,1,8,3:0:0:0:
444,18,57895,1,2,3:2:0:0:
295,123,58211,1,0,3:0:0:0:
460,200,58526,6,0,P|431:252|357:296,1,140,6|0,2:0|3:0,2:0:0:0:
275,270,59000,1,2,2:0:0:0:
275,270,59158,2,0,B|211:246|194:297|117:256,1,140,0|2,2:0|3:2,2:0:0:0:
72,94,59790,5,4,2:1:0:0:
251,120,60105,1,2,2:0:0:0:
251,120,60737,5,2,2:0:0:0:
251,120,61368,6,0,B|289:113|320:126|320:126|358:112|414:123,2,140,2|0|2,2:0|2:0|2:0,2:0:0:0:
172,167,62158,1,2,2:0:0:0:
172,167,62237,1,2,2:0:0:0:
172,167,62316,6,0,L|169:212,7,35,2|0|0|0|2|0|0|0,2:0|2:0|2:0|2:0|2:0|2:0|2:0|2:0,2:0:0:0:
202,233,62947,6,0,L|180:282,7,35,2|0|0|0|2|0|0|0,2:0|2:0|2:0|2:0|2:0|2:0|2:0|2:0,2:0:0:0:
167,306,63579,6,0,B|211:267|281:242|303:320|365:314|427:259,1,280,0|0,2:0|2:0,2:0:0:0:
412,78,64526,1,0,2:0:0:0:
412,78,64842,6,0,B|372:84|372:84|328:60|272:68,2,140,4|4|0,3:1|1:2|3:0,2:0:0:0:
496,129,65632,1,2,2:0:0:0:
496,129,65790,2,0,P|484:189|486:216,1,70,8|0,1:0|2:0,2:0:0:0:
437,283,66105,6,0,B|384:269|384:269|272:278,1,140,2|8,3:2|1:0,2:0:0:0:
206,309,66579,1,0,2:0:0:0:
134,241,66737,2,0,L|130:156,1,70,0|2,3:2|2:0,2:0:0:0:
174,74,67053,2,0,P|206:93|230:122,1,70,8|0,1:0|2:0,2:0:0:0:
286,195,67368,6,0,B|329:176|374:184|374:184|399:216|443:221,2,140,2|8|2,3:2|1:0|3:2,2:0:0:0:
204,251,68158,1,0,2:0:0:0:
204,251,68316,2,0,L|184:328,1,70,8|0,1:0|2:0,2:0:0:0:
89,299,68632,6,0,P|39:297|10:303,1,70,2|2,3:2|2:0,2:0:0:0:
55,209,68947,2,0,L|47:122,1,70,4|0,1:2|1:0,2:0:0:0:
140,102,69263,2,0,L|147:187,1,70,0|0,3:0|3:0,2:0:0:0:
204,251,69579,2,0,P|248:246|274:251,1,70,8|2,1:0|2:0,2:0:0:0:
367,277,69895,6,0,P|428:232|429:172,1,140,4|8,3:1|1:0,2:0:0:0:
294,29,70526,2,0,B|265:86|265:86|266:175,1,140,2|8,3:2|1:0,2:0:0:0:
290,257,71000,1,0,2:0:0:0:
195,232,71158,6,0,L|97:223,1,70,2|0,3:2|2:0,2:0:0:0:
32,258,71474,2,0,L|59:329,1,70,8|0,1:0|2:0,2:0:0:0:
149,357,71790,2,0,B|203:376|258:349|258:349|285:350,1,140,0|8,3:0|1:0,2:0:0:0:
462,266,72421,6,0,L|474:197,1,70,2|0,3:2|2:0,2:0:0:0:
392,140,72737,2,0,L|378:217,1,70,8|0,1:0|2:0,2:0:0:0:
283,231,73053,2,0,L|295:162,1,70,2|0,3:2|2:0,2:0:0:0:
213,105,73368,2,0,L|199:182,1,70,8|8,1:0|1:2,2:0:0:0:
119,230,73684,5,0,1:0:0:0:
44,165,73842,2,0,L|7:173,2,35,8|0|0,1:2|1:2|1:0,2:0:0:0:
81,73,74158,2,0,L|62:39,2,35,8|0|2,1:2|1:0|1:2,2:0:0:0:
179,77,74474,2,0,L|209:38,2,35,8|0|2,1:2|1:0|1:2,2:0:0:0:
208,182,74790,1,0,1:0:0:0:
208,182,74868,1,2,1:2:0:0:
208,182,74947,6,0,B|244:193|244:193|302:170|354:196,1,140,6|6,3:1|1:2,2:0:0:0:
398,273,75421,1,0,2:0:0:0:
306,344,75579,2,0,L|297:273,1,70,0|0,3:0|2:0,2:0:0:0:
198,271,75895,2,0,L|185:358,1,70,10|0,1:0|2:0,2:0:0:0:
88,341,76211,6,0,L|69:182,2,140,2|6|2,3:1|1:2|3:1,2:0:0:0:
192,344,77000,1,0,2:0:0:0:
192,344,77158,2,0,P|243:339|287:349,1,70,10|0,1:0|2:0,2:0:0:0:
357,365,77474,6,0,P|302:323|305:241,1,140,2|10,3:1|1:0,2:0:0:0:
377,199,77947,1,0,2:0:0:0:
285,163,78105,2,0,P|237:163|195:157,1,70,2|0,3:1|2:0,2:0:0:0:
361,102,78421,2,0,P|409:102|451:96,1,70,10|0,1:0|2:0,2:0:0:0:
493,175,78737,6,0,L|487:244,1,70,2|2,3:1|2:0,2:0:0:0:
390,265,79053,2,0,P|358:257|303:264,1,70,4|2,1:2|1:2,2:0:0:0:
348,351,79368,2,0,B|404:368|446:341|446:341|486:352,2,140,2|10|4,3:1|1:0|3:1,2:0:0:0:
252,321,80158,6,0,L|161:316,1,70,2|10,2:0|1:0,2:0:0:0:
88,349,80474,1,2,2:0:0:0:
88,349,80632,2,0,B|76:304|97:263|97:263|84:231|85:201,1,140,2|8,3:1|1:0,2:0:0:0:
125,123,81105,1,8,1:2:0:0:
125,123,81184,1,0,2:0:0:0:
125,123,81263,6,0,L|252:124,2,119,4|0|0,3:1|2:0|2:0,2:0:0:0:
295,220,82211,1,2,2:0:0:0:
256,192,82290,12,0,83790,2:0:0:0:
125,138,84421,6,0,L|109:235,2,70,0|0|0,2:0|2:0|2:0,2:0:0:0:
176,62,84895,1,0,2:0:0:0:
176,62,85053,6,0,P|251:87|321:83,1,140,0|0,1:0|1:0,2:0:0:0:
398,58,85526,1,0,1:0:0:0:
459,124,85684,1,0,1:0:0:0:
402,195,85842,1,0,1:0:0:0:
313,171,86000,2,0,P|261:203|239:230,1,70,0|0,1:0|1:0,2:0:0:0:
203,285,86316,6,0,L|203:335,3,35,0|0|0|0,1:0|1:0|1:0|1:0,2:0:0:0:
238,349,86632,2,0,L|276:361,3,35,0|0|8|8,1:0|1:0|3:0|3:0,2:0:0:0:
316,359,86947,2,0,P|360:350|394:350,1,70,8|0,3:0|3:0,2:0:0:0:
430,352,87184,1,0,3:0:0:0:
430,352,87263,2,0,L|447:306,3,35,2|2|2|2,2:0|2:0|2:0|2:0,2:0:0:0:
476,288,87579,6,0,P|462:245|471:138,1,140,4|8,3:1|1:0,2:0:0:0:
474,60,88053,2,0,P|440:71|406:75,1,70,2|0,2:0|3:0,2:0:0:0:
326,30,88368,2,0,L|247:29,2,70,2|8|2,2:0|1:0|2:0,2:0:0:0:
327,125,88842,5,0,3:0:0:0:
327,125,89000,2,0,P|316:170|313:209,1,70,2|8,2:0|1:0,2:0:0:0:
224,173,89316,2,0,L|141:158,1,70,2|0,2:0|3:0,2:0:0:0:
66,183,89632,2,0,P|51:226|48:269,1,70,2|8,2:0|1:0,2:0:0:0:
114,320,89947,1,2,2:0:0:0:
114,320,90105,6,0,B|157:319|157:319|212:339|212:339|257:335,1,140,2|8,3:2|1:0,2:0:0:0:
340,319,90579,2,0,P|351:284|346:234,1,70,2|0,2:0|3:0,2:0:0:0:
300,173,90895,2,0,L|267:164,5,35,2|2|8|2|2|0,2:0|2:0|1:0|2:0|2:0|2:0,2:0:0:0:
228,168,91368,6,0,L|221:98,1,70,2|0,3:2|2:0,2:0:0:0:
125,43,91684,1,8,1:0:0:0:
125,43,91842,2,0,L|114:125,1,70,2|0,2:0|2:0,2:0:0:0:
132,212,92158,1,2,2:0:0:0:
132,212,92237,1,0,2:0:0:0:
132,212,92316,2,0,L|108:260,3,35,8|2|2|2,1:0|2:0|2:0|2:0,2:0:0:0:
97,277,92632,6,0,P|124:310|142:352,1,70,2|0,3:2|2:0,2:0:0:0:
220,367,92947,1,8,1:0:0:0:
266,288,93105,2,0,P|334:253|407:265,1,140,2|2,2:0|2:0,2:0:0:0:
473,306,93579,1,8,1:0:0:0:
489,216,93737,1,2,2:0:0:0:
411,168,93895,6,0,P|403:116|411:81,1,70,2|0,3:2|2:0,2:0:0:0:
318,28,94211,2,0,L|306:106,1,70,8|2,1:0|2:0,2:0:0:0:
243,162,94526,1,0,3:0:0:0:
163,116,94684,2,0,P|109:109|81:113,2,70,2|8|2,2:0|1:0|2:0,2:0:0:0:
243,162,95158,6,0,L|230:307,1,140,2|8,3:2|1:0,2:0:0:0:
310,357,95632,1,2,2:0:0:0:
310,357,95790,2,0,P|360:354|396:362,1,70,2|0,3:2|2:0,2:0:0:0:
511,286,96105,2,0,P|476:290|442:291,1,70,8|0,1:0|2:0,2:0:0:0:
362,245,96421,6,0,L|367:146,1,70,0|0,3:0|2:0,2:0:0:0:
443,69,96737,2,0,L|450:139,1,70,8|2,1:0|2:0,2:0:0:0:
341,88,97053,2,0,P|297:85|261:90,1,70,0|2,3:0|2:0,2:0:0:0:
177,175,97368,2,0,L|247:175,1,70,8|0,1:0|1:0,2:0:0:0:
153,86,97684,6,0,P|77:85|23:136,1,140,4|12,3:1|1:2,2:0:0:0:
23,218,98158,1,0,2:0:0:0:
23,218,98316,2,0,L|38:295,1,70,0|0,3:0|2:0,2:0:0:0:
109,360,98632,2,0,P|127:333|137:290,1,70,8|0,1:2|2:0,2:0:0:0:
125,206,98947,6,2,B|173:202|173:202|272:223,1,140,2|8,3:2|1:2,2:1:0:0:
334,287,99421,1,2,2:0:0:0:
334,287,99579,2,2,P|378:295|423:284,1,70,0|0,3:2|2:0,2:1:0:0:
479,240,99895,2,2,L|480:161,1,70,8|0,1:2|2:0,2:1:0:0:
404,117,100211,6,2,P|341:93|312:26,2,140,2|8|2,3:2|1:2|3:1,2:1:0:0:
404,25,101000,1,0,2:0:0:0:
312,30,101158,2,2,L|229:43,1,70,8|0,1:2|2:0,2:1:0:0:
161,83,101474,6,2,B|217:182|119:196|180:297,1,210,2|0,3:2|2:0,2:1:0:0:
256,321,102105,2,2,B|293:330|332:310|332:310|316:338,2,105,0|0|2,3:1|2:0|2:0,2:1:0:0:
276,231,102737,6,2,B|317:200|317:200|411:185,1,140,0|12,3:0|1:2,2:1:0:0:
440,101,103211,1,0,2:0:0:0:
440,101,103368,2,0,P|388:93|360:80,1,70,0|0,3:1|3:2,2:0:0:0:
288,49,103684,2,0,L|263:123,1,70,8|0,1:2|1:2,2:0:0:0:
173,119,104000,6,2,P|108:98|40:112,2,140,2|8|0,3:2|1:2|3:1,2:1:0:0:
234,197,104790,1,4,3:2:0:0:
234,197,104947,2,0,L|212:269,1,70,8|4,1:2|3:2,2:0:0:0:
150,330,105263,6,0,L|155:378,2,35,4|2|8,3:1|3:1|3:0,2:0:0:0:
69,286,105579,2,0,L|30:305,2,35,4|4|4,3:0|3:0|1:2,2:0:0:0:
82,195,105895,2,0,L|43:153,2,35,4|0|0,2:0|3:0|3:0,2:0:0:0:
173,182,106211,2,0,L|189:150,2,35,8|8|4,3:0|3:0|3:0,2:0:0:0:
213,263,106526,5,4,1:2:0:0:
309,261,106684,1,0,2:0:0:0:
309,261,106842,2,0,L|296:350,1,70,2|2,1:2|1:2,2:0:0:0:
392,357,107158,1,2,1:2:0:0:
392,357,107316,1,2,1:2:0:0:
463,300,107474,1,2,1:2:0:0:
463,300,107632,1,2,1:2:0:0:
445,206,107790,6,0,L|327:146,2,119,2|0|2,2:0|2:0|2:3,2:0:0:0:
469,17,108737,1,0,2:0:0:0:
281,52,109053,6,0,P|239:96|221:164,2,119,2|0|2,2:0|2:0|2:3,2:0:0:0:
411,190,110000,1,0,2:0:0:0:
228,246,110316,6,0,L|109:185,2,119,2|0|2,2:0|2:0|2:3,2:0:0:0:
83,369,111263,1,0,2:0:0:0:
19,189,111579,6,0,P|44:128|88:95,2,119,2|0|2,2:0|3:0|2:3,2:0:0:0:
200,247,112526,1,0,3:0:0:0:
200,247,112684,1,0,3:0:0:0:
200,247,112842,6,0,L|240:192,1,59.5000000000002,0|0,3:0|2:0,2:0:0:0:
325,168,113158,2,0,P|386:179|453:145,2,119,0|2|0,3:0|3:0|3:0,2:0:0:0:
248,116,113947,1,0,2:0:0:0:
248,116,114105,6,0,L|177:113,1,59.5000000000002,0|0,3:0|2:0,2:0:0:0:
94,134,114421,2,0,P|85:84|102:17,2,119,0|2|0,3:0|3:0|3:0,2:0:0:0:
165,203,115211,1,0,2:0:0:0:
165,203,115368,6,0,L|173:270,1,59.5000000000002,0|0,3:0|2:0,2:0:0:0:
139,352,115684,2,0,P|76:345|17:371,2,119,0|2|2,3:0|3:0|3:0,2:0:0:0:
235,341,116474,1,0,2:0:0:0:
235,341,116632,6,0,L|316:334,1,59.5000000000002,0|0,3:0|2:0,2:0:0:0:
382,371,116947,2,0,B|396:330|378:287|378:287|386:245,1,119,0|2,3:0|3:0,2:0:0:0:
441,73,117579,1,0,3:0:0:0:
441,73,117737,1,0,3:0:0:0:
441,73,117895,6,0,L|452:148,1,63.0000000000001,4|0,3:2|2:0,2:0:0:0:
363,174,118211,2,0,L|353:111,1,63.0000000000001,0|0,3:0|2:0,2:0:0:0:
261,93,118526,2,0,L|272:168,1,63.0000000000001,0|0,3:2|2:0,2:0:0:0:
185,198,118842,2,0,L|175:135,1,63.0000000000001,0|0,3:0|2:0,2:0:0:0:
119,59,119158,6,0,L|35:75,1,63.0000000000001,0|0,3:2|2:0,2:0:0:0:
27,167,119474,2,0,L|88:155,1,63.0000000000001,0|0,3:0|2:0,2:0:0:0:
153,233,119790,2,0,L|69:249,1,63.0000000000001,0|0,3:2|2:0,2:0:0:0:
60,340,120105,2,0,L|121:328,1,63.0000000000001,0|0,3:0|2:0,2:0:0:0:
226,306,120421,6,0,L|226:379,2,66.4999999999999,0|0|0,3:0|2:0|3:0,2:0:0:0:
228,212,120895,1,0,2:0:0:0:
228,212,121053,2,0,L|228:134,2,66.4999999999999,0|0|0,3:0|2:0|3:0,2:0:0:0:
308,268,121526,1,0,2:0:0:0:
308,268,121684,6,0,P|396:278|456:253,1,133,0|0,3:0|3:0,2:0:0:0:
491,188,122158,1,0,2:0:0:0:
491,188,122316,2,0,L|484:110,1,66.4999999999999,0|0,3:0|2:0,2:0:0:0:
406,43,122632,2,0,L|391:115,1,66.4999999999999,0|0,2:0|2:0,2:0:0:0:
304,150,122947,6,0,B|255:140|255:140|224:143,2,70,0|0|0,1:0|1:0|1:0,2:0:0:0:
387,201,123421,1,0,1:0:0:0:
387,201,123579,2,0,L|372:290,1,70,0|0,1:0|1:0,2:0:0:0:
298,319,123895,2,0,B|277:310|277:310|214:306,1,70,0|0,1:0|1:0,2:0:0:0:
144,340,124211,5,8,1:2:0:0:
71,285,124368,1,8,1:2:0:0:
71,285,124526,2,0,L|90:204,1,70,8|8,1:2|1:2,2:0:0:0:
158,160,124842,1,8,1:2:0:0:
79,111,125000,1,8,1:2:0:0:
79,111,125158,2,0,L|98:32,1,70,8|8,1:2|1:2,2:0:0:0:
185,24,125474,5,8,1:2:0:0:
241,95,125632,2,0,L|232:133,2,35,0|0|8,1:0|1:0|1:2,2:0:0:0:
322,53,125947,2,0,L|328:18,2,35,0|0|8,1:0|1:0|1:2,2:0:0:0:
379,124,126263,2,0,L|372:159,2,35,0|0|8,1:0|1:0|1:2,2:0:0:0:
459,79,126579,2,0,L|465:44,2,35,0|0|10,1:0|1:0|1:2,2:0:0:0:
496,163,126895,5,8,1:2:0:0:
446,240,127053,2,0,P|411:260|366:267,1,70,10|8,1:2|1:2,2:0:0:0:
293,245,127368,1,8,1:2:0:0:
215,292,127526,1,8,1:2:0:0:
152,226,127684,2,0,B|155:176|155:176|174:135,1,70,8|8,1:2|1:2,2:0:0:0:
229,94,128000,5,4,2:0:0:0:
229,94,130526,6,0,L|318:260,1,189,2|2,2:0|2:0,2:0:0:0:
358,161,131158,2,0,P|266:166|212:239,1,189,2|2,2:0|2:0,2:0:0:0:
196,332,131790,6,0,L|232:375,2,42,0|2|2,2:0|2:0|2:0,2:0:0:0:
145,331,132105,2,0,L|158:384,2,42,0|2|0,2:0|2:0|2:0,2:0:0:0:
95,321,132421,2,0,L|80:378,2,42,2|0|0,2:0|2:0|2:0,2:0:0:0:
64,290,132737,2,0,L|66:213,1,63.0000000000001,0|0,2:0|2:0,2:0:0:0:
58,135,133053,6,0,P|97:191|177:197,1,140,12|8,3:2|3:2,2:0:0:0:
238,148,133526,1,10,3:2:0:0:
238,148,133684,2,0,L|326:147,1,70,8|8,3:2|3:2,2:0:0:0:
417,83,134000,2,0,L|344:65,1,70,10|8,3:2|3:2,2:0:0:0:
273,14,134316,5,10,1:2:0:0:
198,66,134474,1,8,1:2:0:0:
111,36,134632,2,0,L|79:119,1,70,8|8,1:2|1:2,2:0:0:0:
160,154,134947,2,0,L|237:153,2,70,10|8|8,1:2|1:2|1:2,2:0:0:0:
76,192,135421,5,8,1:2:0:0:
173,104,140000,5,2,1:2:0:0:
173,104,140158,2,0,P|162:168|83:209,1,148.750000000001,0|0,1:0|1:0,2:0:0:0:
64,227,140632,6,0,P|156:236|202:246,1,140,4|4,3:1|1:2,2:0:0:0:
298,280,141105,1,0,2:0:0:0:
282,183,141263,2,0,L|310:98,1,70,0|0,3:0|2:0,2:0:0:0:
386,62,141579,2,0,P|432:81|463:111,1,70,8|2,1:0|1:2,2:0:0:0:
468,189,141895,6,0,P|445:257|428:329,2,140,0|8|2,3:2|1:0|3:2,2:0:0:0:
373,162,142684,1,0,2:0:0:0:
373,162,142842,2,0,L|333:242,1,70,8|0,1:0|1:0,2:0:0:0:
287,307,143158,6,0,P|240:304|211:311,1,70,2|0,3:2|2:0,2:0:0:0:
119,297,143474,2,0,L|125:207,1,70,8|0,1:0|3:0,2:0:0:0:
217,126,143790,2,0,L|223:216,1,70,2|0,2:0|3:0,2:0:0:0:
117,128,144105,2,0,P|71:131|40:123,1,70,8|2,1:0|1:2,2:0:0:0:
161,38,144421,6,0,P|216:27|294:58,2,140,2|8|0,3:2|1:0|3:0,2:0:0:0:
122,131,145211,1,2,1:2:0:0:
122,131,145368,2,0,L|124:219,1,70,8|2,1:0|1:2,2:0:0:0:
131,299,145684,6,0,B|167:297|167:297|222:319|271:302,1,140,4|4,3:1|1:2,2:0:0:0:
440,207,146316,2,0,L|472:289,1,70,2|0,3:2|2:0,2:0:0:0:
396,352,146632,2,0,L|367:284,1,70,8|2,1:0|1:2,2:0:0:0:
296,221,146947,6,0,P|222:220|165:167,1,140,2|8,3:2|1:0,2:0:0:0:
128,92,147421,1,0,2:0:0:0:
198,23,147579,2,0,P|218:56|224:103,1,70,2|0,3:2|2:0,2:0:0:0:
321,68,147895,2,0,P|370:66|406:74,1,70,8|8,1:0|1:0,2:0:0:0:
468,130,148211,6,0,P|470:239|478:290,2,140,2|8|2,3:2|1:0|2:0,2:0:0:0:
375,161,149000,1,0,3:0:0:0:
375,161,149158,2,0,P|373:206|362:252,1,70,8|2,1:0|1:2,2:0:0:0:
281,276,149474,5,0,3:0:0:0:
189,239,149632,2,0,L|137:247,2,35,8|8|8,1:2|1:2|1:0,2:0:0:0:
258,170,149947,2,0,L|292:164,2,35,10|8|2,1:2|1:2|3:2,2:0:0:0:
172,121,150263,2,0,L|137:126,2,35,8|0|2,1:2|1:0|1:2,2:0:0:0:
243,52,150579,1,0,2:0:0:0:
243,52,150658,1,2,1:2:0:0:
243,52,150737,6,0,P|297:54|383:49,1,140,6|4,3:1|1:2,2:0:0:0:
476,78,151211,1,0,2:0:0:0:
422,159,151368,2,0,P|406:213|406:247,1,70,2|0,3:1|2:0,2:0:0:0:
486,352,151684,2,0,L|492:269,1,70,10|2,1:0|1:2,2:0:0:0:
394,319,152000,6,0,P|326:323|246:316,1,140,2|10,3:2|1:0,2:0:0:0:
207,230,152474,1,0,2:0:0:0:
123,280,152632,2,0,P|117:319|121:356,1,70,2|0,3:1|2:0,2:0:0:0:
17,281,152947,2,0,L|24:186,1,70,10|0,1:0|1:0,2:0:0:0:
111,117,153263,6,0,L|120:209,1,70,2|0,3:2|2:0,2:0:0:0:
207,230,153579,2,0,P|256:220|286:225,1,70,10|0,1:0|3:0,2:0:0:0:
368,255,153895,2,0,P|416:247|439:148,1,140,2|10,2:1|1:0,2:0:0:0:
413,77,154368,1,2,1:2:0:0:
315,80,154526,6,0,B|265:86|218:57|218:57|174:64,2,140,2|10|2,3:2|1:0|3:1,2:0:0:0:
418,80,155316,1,2,1:2:0:0:
418,80,155474,2,0,L|411:165,1,70,10|2,1:0|1:2,2:0:0:0:
459,232,155790,6,0,P|386:201|305:219,1,140,6|4,3:1|1:2,2:0:0:0:
184,343,156421,2,0,L|174:264,1,70,2|0,3:2|2:0,2:0:0:0:
77,258,156737,2,0,L|80:181,1,70,8|2,1:0|1:2,2:0:0:0:
142,111,157053,6,0,P|193:115|274:71,1,140,2|10,3:1|1:0,2:0:0:0:
347,14,157526,1,0,2:0:0:0:
441,40,157684,2,0,L|459:119,1,70,2|0,3:1|2:0,2:0:0:0:
364,144,158000,2,0,L|353:232,1,70,10|8,1:0|1:0,2:0:0:0:
447,248,158316,6,0,L|457:326,1,70,4|0,2:0|2:0,2:0:0:0:
366,359,158632,2,0,L|313:374,3,35,0|0|0|0,1:0|1:0|1:0|1:0,2:0:0:0:
296,356,158947,2,0,P|246:344|217:347,1,70,4|0,2:0|2:0,2:0:0:0:
129,355,159263,2,0,L|123:309,3,35,0|0|0|0,1:0|1:0|1:0|1:0,2:0:0:0:
92,298,159579,6,0,P|102:261|106:215,1,70,4|0,2:0|2:0,2:0:0:0:
112,131,159895,2,0,L|159:118,3,35,0|0|0|0,1:0|1:0|1:0|1:0,2:0:0:0:
180,103,160211,2,0,L|229:102,3,35,0|0|0|0,1:0|1:0|1:0|1:0,2:0:0:0:
252,93,160526,2,0,L|297:102,3,35,0|0|0|0,1:0|1:0|1:0|1:0,2:0:0:0:
322,115,160842,6,0,P|366:105|406:111,1,70,6|0,2:0|1:0,2:0:0:0:
461,175,161158,2,0,L|499:173,2,35,0|0|6,1:0|1:0|2:0,2:0:0:0:
368,209,161474,2,0,L|359:290,1,70,0|0,1:0|1:0,2:0:0:0:
429,347,161790,2,0,L|469:352,2,35,6|2|0,2:0|1:2|1:0,2:0:0:0:
333,369,162105,6,0,P|279:366|245:355,1,70,6|0,2:0|1:0,2:0:0:0:
212,277,162421,2,0,L|134:274,1,70,0|6,1:0|2:0,2:0:0:0:
45,293,162737,2,0,L|52:334,2,35,0|0|0,1:0|1:0|1:0,2:0:0:0:
33,195,163053,2,0,L|27:160,2,35,8|0|0,1:3|1:0|2:0,2:0:0:0:
130,187,163368,6,0,P|174:180|222:189,1,70,4|0,3:1|1:0,2:0:0:0:
241,200,163605,1,0,1:0:0:0:
241,200,163684,2,0,L|281:200,3,35,0|0|0|0,1:0|1:0|1:0|1:0,2:0:0:0:
312,216,164000,2,0,L|352:216,3,35,0|0|0|0,1:0|1:0|1:0|1:0,2:0:0:0:
386,228,164316,2,0,P|394:189|409:144,1,70,0|8,1:0|2:3,2:0:0:0:
436,67,164632,6,0,L|388:53,3,35,4|0|0|0,1:0|2:0|2:0|2:0,2:0:0:0:
364,67,164947,2,0,L|316:53,3,35,0|0|0|0,1:0|1:0|1:0|1:0,2:0:0:0:
294,72,165263,2,0,L|246:58,3,35,8|0|8|0,3:0|3:0|3:0|3:0,2:0:0:0:
222,70,165579,2,0,L|136:73,1,70,8|8,3:0|3:0,2:0:0:0:
54,57,165895,6,0,P|105:86|129:167,1,140,4|2,3:1|2:0,2:0:0:0:
60,337,166842,5,2,2:0:0:0:
60,337,167474,5,2,2:0:0:0:
60,337,168105,5,2,2:0:0:0:
202,255,168421,6,0,P|267:235|349:242,1,140,4|8,3:1|1:2,2:0:0:0:
424,270,168895,1,8,3:2:0:0:
485,202,169053,1,0,3:0:0:0:
433,126,169211,1,8,1:2:0:0:
345,148,169368,2,0,P|298:153|259:145,1,70,8|8,1:2|3:2,2:0:0:0:
190,100,169684,6,0,P|133:78|48:97,1,140,4|8,1:2|3:0,2:0:0:0:
20,183,170158,1,4,2:3:0:0:
92,248,170316,2,0,L|99:289,3,35,0|0|0|0,3:0|1:0|1:0|1:0,2:0:0:0:
140,280,170632,2,0,L|159:313,3,35,2|2|2|0,1:2|1:2|1:2|1:0,2:0:0:0:
195,279,170947,2,0,P|225:313|285:332,1,105,4|0,3:1|2:0,2:0:0:0:
313,314,171263,6,0,P|353:306|388:306,1,70,4|0,1:2|2:0,2:0:0:0:
480,303,171579,2,0,L|487:209,1,70,0|2,3:0|2:0,2:0:0:0:
478,134,171895,2,0,P|435:147|398:145,1,70,8|2,1:0|2:0,2:0:0:0:
314,121,172211,6,0,B|305:159|320:192|320:192|312:226|269:250,1,140,0|8,3:0|1:0,2:0:0:0:
121,127,172842,2,0,L|117:42,1,70,0|0,3:0|2:0,2:0:0:0:
26,19,173158,2,0,L|15:114,1,70,8|0,1:0|2:0,2:0:0:0:
37,185,173474,6,0,P|32:274|19:332,2,140,2|8|2,3:2|1:0|3:2,2:0:0:0:
137,168,174263,1,0,2:0:0:0:
137,168,174421,2,0,P|176:178|218:176,1,70,8|0,1:0|2:0,2:0:0:0:
287,123,174737,6,0,L|305:37,1,70,2|0,3:2|2:0,2:0:0:0:
397,33,175053,2,0,L|459:95,1,70,8|2,1:0|2:0,2:0:0:0:
459,179,175368,2,0,L|325:218,1,140,0|8,3:0|1:0,2:0:0:0:
233,256,175842,1,2,2:0:0:0:
207,159,176000,6,0,P|275:168|324:218,1,140,4|8,3:1|1:0,2:0:0:0:
110,221,176632,2,0,P|94:150|122:81,2,140,2|8|4,3:2|1:0|3:1,2:0:0:0:
243,322,177579,5,0,2:0:0:0:
299,163,177895,1,0,2:0:0:0:
388,271,178211,1,2,2:0:0:0:
256,192,178290,12,0,180737,2:0:0:0:
