osu file format v14

[General]
AudioFilename: HoneyWorks,GUMI.ogg
AudioLeadIn: 0
PreviewTime: 139217
Countdown: 0
SampleSet: Soft
StackLeniency: 0.7
Mode: 0
LetterboxInBreaks: 0
WidescreenStoryboard: 0

[Editor]
Bookmarks: 12263,26158,37526,55211,60263,65316,85526,128474,141105,161237,171421
DistanceSpacing: 1
BeatDivisor: 2
GridSize: 4
TimelineZoom: 1.5

[Metadata]
Title:Hatsukoi no Ehon
TitleUnicode:初恋の絵本
Artist:HoneyWorks feat. GUMI
ArtistUnicode:HoneyWorks feat. GUMI
Creator:yf_bmp
Version:Binguo's Easy
Source:
Tags:VOCALOID We have always been 10 cm apart. Kokuhaku Jikkou Iinkai japanese pop itsudatte bokura no koi wa datta. centi 好きすぎてやばい。 ~告白実行委員会キャラクターソング集~ 東京ウインターセッション 告白実行委員会〜恋愛シリーズ〜 Sukisugiteyabai Kokuhakujikkouiinkai Character Song Shu Tokyo Winter Session picture book first love 初恋ノート Hatsukoi Note confession executive committee series vocaloid sahuang z1085684963 Pururut Karen Vert Garden Binguo
BeatmapID:992267
BeatmapSetID:381779

[Difficulty]
HPDrainRate:3
CircleSize:3
OverallDifficulty:3
ApproachRate:4
SliderMultiplier:0.9
SliderTickRate:0.5

[Events]
//Background and Video events
0,0,"BG.jpg",0,0
//Break Periods
2,9351,10470
2,107990,111522
2,113042,116575
2,128200,138680
//Storyboard Layer 0 (Background)
//Storyboard Layer 1 (Fail)
//Storyboard Layer 2 (Pass)
//Storyboard Layer 3 (Foreground)
//Storyboard Layer 4 (Overlay)
//Storyboard Sound Samples

[TimingPoints]
-448,685.714285714286,4,2,1,70,1,0
9837,631.578947368421,4,2,1,70,1,0
11633,315.789473684211,4,2,1,70,1,0
11790,315.789473684211,4,2,1,80,1,0
26947,-100,4,2,1,50,0,0
34526,-100,4,2,1,20,0,0
35158,-100,4,2,1,30,0,0
35790,-100,4,2,1,40,0,0
36420,-100,4,2,1,50,0,0
37053,-100,4,2,1,70,0,0
42105,-100,4,2,1,80,0,0
42421,-100,4,2,1,60,0,0
43368,-100,4,2,1,80,0,0
43684,-100,4,2,1,40,0,0
44315,-100,4,2,1,80,0,0
63579,-100,4,2,1,50,0,0
64842,-100,4,2,1,80,0,1
74316,-100,4,2,1,80,0,0
74947,-100,4,2,1,80,0,1
82368,-100,4,2,1,80,0,0
100842,-100,4,2,2,80,0,0
101158,-100,4,2,1,80,0,0
107790,-100,4,2,1,60,0,0
122947,-100,4,2,1,40,0,0
123579,-100,4,2,1,45,0,0
124211,-100,4,2,1,50,0,0
124842,-100,4,2,1,55,0,0
128000,-100,4,2,1,60,0,0
140315,-100,4,2,1,40,0,0
140632,-100,4,2,1,80,0,1
150105,-100,4,2,1,80,0,0
150737,-100,4,2,1,80,0,1
160842,-100,4,2,1,80,0,0
180737,-100,4,2,1,20,0,0

[Colours]
Combo1 : 255,0,128
Combo2 : 128,255,0
Combo3 : 255,128,255
Combo4 : 252,14,55

[HitObjects]
392,308,237,6,0,P|436:312|484:308,2,90,0|2|0,2:0|2:0|2:0,2:0:0:0:
328,244,2294,1,2,2:0:0:0:
240,244,2980,1,0,2:0:0:0:
180,312,3666,2,0,P|136:316|88:312,1,90,2|0,2:0|2:0,2:0:0:0:
44,236,5037,2,0,P|44:140|96:72,1,180,2|2,2:0|2:0,2:0:0:0:
156,136,7094,5,0,2:0:0:0:
200,56,7780,2,0,P|248:56|308:168,1,180,2|2,2:0|2:0,2:0:0:0:
308,156,11790,6,0,P|372:184|448:144,2,135,4|2|4,2:1|2:0|2:3,2:0:0:0:
264,76,13053,2,0,P|220:64|176:76,1,90,4|0,2:0|2:0,2:0:0:0:
144,156,13684,2,0,L|144:268,1,90,8|2,2:3|2:0,2:0:0:0:
188,324,14316,6,0,P|140:332|72:312,1,90,4|0,2:0|2:0,2:0:0:0:
28,272,14947,2,0,L|28:172,1,90,8|4,2:3|2:3,2:0:0:0:
72,104,15579,2,0,P|128:72|204:88,2,135,4|6|0,2:0|2:0|2:0,2:0:0:0:
144,160,16842,6,0,P|232:164|284:96,2,180,4|8|4,2:0|3:0|2:0,2:0:0:0:
52,160,18421,1,2,2:0:0:0:
16,244,18737,1,0,3:0:0:0:
84,304,19053,1,0,1:0:0:0:
256,192,19368,12,0,24421,1:0:0:0:
202,221,25684,6,0,B|248:184|420:256|468:220,1,270,4|0,2:0|2:0,2:0:0:0:
464,132,26947,6,0,P|416:100|296:96,1,180,0|0,3:0|3:0,2:0:0:0:
212,124,27895,1,0,3:0:0:0:
124,104,28211,2,0,P|92:56|88:16,1,90,0|0,3:0|3:0,2:0:0:0:
56,204,29158,1,0,3:0:0:0:
40,292,29474,6,0,P|112:320|196:240,1,180,0|0,3:0|3:0,2:0:0:0:
144,188,30421,1,0,3:0:0:0:
228,160,30737,2,0,P|272:156|328:172,1,90,0|0,3:0|3:0,2:0:0:0:
268,340,31684,1,0,3:0:0:0:
352,368,32000,6,0,P|388:332|400:284,1,90,0|0,3:0|3:0,2:0:0:0:
488,312,32632,2,0,P|483:261|454:221,1,90,0|0,3:0|3:0,2:0:0:0:
376,208,33263,2,0,P|352:168|352:124,1,90,0|0,3:0|3:0,2:0:0:0:
389,39,33895,2,0,P|425:66|440:108,1,90,0|0,3:0|3:0,2:0:0:0:
351,125,34526,6,0,L|244:136,1,90,0|0,1:0|1:0,2:0:0:0:
180,96,35158,2,0,L|73:107,1,90,0|0,1:0|1:0,2:0:0:0:
24,168,35790,1,8,1:2:0:0:
108,196,36105,2,0,P|120:240|112:304,1,90,8|8,1:2|1:2,2:0:0:0:
44,332,36737,1,8,1:2:0:0:
124,372,37053,6,0,P|188:380|248:328,2,135,0|0|2,2:0|2:0|2:0,2:0:0:0:
168,292,38316,2,0,P|248:248|316:296,1,180,0|0,2:0|2:0,2:0:0:0:
364,368,39263,1,2,2:0:0:0:
412,292,39579,6,0,P|408:248|432:200,2,90,0|2|0,2:0|2:0|2:0,2:0:0:0:
496,264,40526,1,2,2:0:0:0:
508,176,40842,2,0,L|452:80,1,90,0|2,2:0|2:0,2:0:0:0:
376,128,41474,2,0,L|320:36,1,90,0|2,2:0|2:0,2:0:0:0:
244,76,42105,5,6,1:2:0:0:
156,52,42421,2,0,L|100:140,2,90,8|8|8,1:2|1:2|1:2,2:0:0:0:
244,76,43368,1,0,1:0:0:0:
196,152,43684,2,0,P|124:220|48:200,1,180,0|8,1:0|3:0,2:0:0:0:
104,128,44632,6,0,P|64:108|16:116,1,90,4|8,3:1|1:2,2:0:0:0:
52,203,45263,1,0,3:0:0:0:
24,288,45579,2,0,P|40:336|86:372,1,90,8|0,1:2|3:0,3:0:0:0:
156,376,46211,2,0,P|165:308|232:193,1,180,8|8,1:2|1:2,2:0:0:0:
289,269,47158,6,0,P|332:260|376:268,1,90,0|8,3:0|1:2,2:0:0:0:
404,356,47790,1,0,3:0:0:0:
476,300,48105,2,0,L|492:192,1,90,8|0,1:2|3:0,2:0:0:0:
440,130,48737,2,0,P|351:132|266:160,1,180,12|8,1:2|1:2,2:0:0:0:
224,240,49684,6,0,P|180:248|132:240,2,90,4|8|0,2:0|1:2|3:0,2:0:0:0:
266,160,50632,1,8,1:2:0:0:
312,80,50947,6,0,P|356:72|404:80,2,90,0|12|0,3:0|1:2|3:0,2:0:0:0:
220,84,51895,1,8,1:2:0:0:
148,140,52211,2,0,L|56:140,2,90,2|8|0,3:2|1:2|3:0,2:0:0:0:
192,220,53158,1,8,1:2:0:0:
116,268,53474,6,0,L|8:268,1,90,0|8,3:0|1:2,2:0:0:0:
72,348,54105,1,0,3:0:0:0:
164,348,54421,1,4,1:2:0:0:
240,300,54737,6,0,P|240:264|384:200,1,180,0|2,1:0|3:2,2:0:0:0:
388,12,56000,2,0,P|419:30|402:186,1,180,0|2,1:0|3:2,2:0:0:0:
500,328,57263,2,0,P|433:272|349:293,1,180,0|2,1:0|3:2,2:0:0:0:
175,226,58526,6,0,P|94:133|176:41,1,270,6|2,2:0|3:2,2:0:0:0:
264,60,59790,1,4,2:1:0:0:
352,84,60105,1,2,2:0:0:0:
352,264,60737,1,2,2:0:0:0:
436,104,61368,5,2,2:0:0:0:
436,284,62000,1,2,2:0:0:0:
384,356,62316,2,0,B|308:372|264:312|264:312|212:328|168:300|168:300|116:340|40:304,1,360,2|0,2:0|2:0,2:0:0:0:
84,132,64211,6,0,P|100:176|100:228,1,90,0|0,2:0|2:0,2:0:0:0:
100,308,64842,1,4,3:1:0:0:
184,272,65158,1,4,1:2:0:0:
268,308,65474,2,0,P|312:316|356:308,1,90,0|8,3:0|1:0,2:0:0:0:
416,376,66105,6,0,P|436:336|436:268,1,90,2|8,3:2|1:0,2:0:0:0:
384,220,66737,1,0,3:2:0:0:
440,152,67053,1,8,1:0:0:0:
412,68,67368,2,0,P|372:52|312:48,1,90,2|8,3:2|1:0,2:0:0:0:
260,108,68000,1,2,3:2:0:0:
208,32,68316,1,8,1:0:0:0:
172,116,68632,6,0,P|132:144|88:148,1,90,2|4,3:2|1:2,2:0:0:0:
52,68,69263,1,0,3:0:0:0:
4,144,69579,1,8,1:0:0:0:
44,224,69895,2,0,L|40:336,1,90,4|8,3:1|1:0,2:0:0:0:
128,288,70526,2,0,L|168:384,1,90,2|8,3:2|1:0,2:0:0:0:
232,312,71158,6,0,L|320:360,2,90,2|8|0,3:2|1:0|3:0,2:0:0:0:
196,228,72105,1,8,1:0:0:0:
276,188,72421,2,0,P|324:180|392:188,1,90,2|8,3:2|1:0,2:0:0:0:
392,268,73053,2,0,P|440:276|508:268,1,90,2|8,3:2|1:0,2:0:0:0:
448,188,73684,6,0,B|448:128|448:128|404:96|404:96|404:28,2,180,0|2|6,1:0|1:2|3:1,2:0:0:0:
360,180,75263,1,6,1:2:0:0:
272,168,75579,2,0,L|272:72,2,90,0|10|2,3:0|1:0|3:1,2:0:0:0:
184,160,76526,5,6,1:2:0:0:
140,80,76842,2,0,P|92:80|48:100,1,90,2|10,3:1|1:0,2:0:0:0:
52,188,77474,2,0,L|52:292,1,90,2|10,3:1|1:0,2:0:0:0:
120,340,78105,2,0,P|80:364|24:364,2,90,2|10|2,3:1|1:0|3:1,2:0:0:0:
212,340,79053,5,4,1:2:0:0:
288,296,79368,2,0,P|336:292|388:308,1,90,2|10,3:1|1:0,2:0:0:0:
440,368,80000,2,0,P|460:320|460:264,1,90,4|10,3:1|1:0,2:0:0:0:
400,216,80632,2,0,P|384:160|384:112,1,90,2|8,3:1|1:0,2:0:0:0:
412,44,81263,6,0,P|448:68|468:114,2,90,4|0|0,3:1|2:0|2:0,2:0:0:0:
256,192,82211,12,0,83790,2:0:0:0:
52,328,85053,5,0,1:0:0:0:
132,364,85368,1,0,1:0:0:0:
176,284,85684,2,0,P|223:289|277:284,2,90,0|0|0,1:0|1:0|1:0,2:0:0:0:
136,204,86632,2,0,P|164:172|212:128,1,90,0|8,1:0|3:0,2:0:0:0:
288,140,87263,2,0,P|324:172|351:203,1,90,2|4,2:0|3:1,2:0:0:0:
482,237,88053,6,0,P|466:293|394:329,1,135,2|8,2:0|1:0,2:0:0:0:
320,368,88842,1,0,3:0:0:0:
268,292,89158,2,0,B|224:248|112:320|44:292|18:257|8:208,1,270,8|2,1:0|3:2,2:0:0:0:
100,204,90421,5,8,1:0:0:0:
52,128,90737,2,0,P|64:80|92:40,1,90,0|8,3:0|1:0,2:0:0:0:
144,116,91368,2,0,P|168:80|212:52,2,90,2|8|0,3:2|1:0|2:0,2:0:0:0:
196,192,92316,1,8,1:0:0:0:
268,244,92632,6,0,P|312:240|360:244,1,90,2|8,3:2|1:0,2:0:0:0:
400,324,93263,2,0,P|440:356|480:364,1,90,0|8,3:0|1:0,2:0:0:0:
472,272,93895,2,0,P|472:224|456:184,1,90,2|8,3:2|1:0,2:0:0:0:
408,108,94526,2,0,P|368:76|328:68,1,90,0|8,3:0|1:0,2:0:0:0:
256,120,95158,5,2,3:2:0:0:
256,192,95474,12,4,97684,3:1:0:0:
404,264,98947,6,2,P|360:256|316:264,1,90,2|8,3:2|1:2,2:1:0:0:
256,332,99579,2,2,L|160:332,1,90,0|8,3:2|1:2,2:1:0:0:
108,264,100211,2,2,P|112:216|104:168,1,90,2|8,3:2|1:2,2:1:0:0:
16,188,100842,1,2,3:1:0:0:
48,104,101158,1,8,1:2:0:0:
136,84,101474,6,2,P|184:80|224:64,1,90,2|8,3:2|1:2,2:1:0:0:
312,48,102105,2,0,L|412:56,2,90,0|8|0,3:1|1:2|3:0,2:0:0:0:
280,132,103053,5,12,1:2:0:0:
332,204,103368,2,0,L|436:216,1,90,0|8,3:1|1:2,2:0:0:0:
368,288,104000,2,2,P|320:320|260:320,1,90,2|8,3:2|1:2,2:1:0:0:
240,248,104632,2,0,P|196:257|160:284,1,90,0|8,3:1|1:2,2:0:0:0:
100,352,105263,6,0,P|68:296|96:220,2,135,4|4|8,3:1|1:2|3:0,2:0:0:0:
160,284,106526,2,2,P|176:232|160:172,1,90,4|2,1:2|1:2,2:1:0:0:
100,140,107158,1,2,1:2:0:0:
132,56,107474,1,2,1:2:0:0:
204,112,107790,5,2,2:0:0:0:
256,192,112842,5,0,3:0:0:0:
256,192,117895,6,0,B|344:172|344:172|380:204|456:192,1,180,4|0,3:2|3:2,2:0:0:0:
404,104,118842,1,0,3:0:0:0:
316,88,119158,2,0,B|200:116|200:116|168:148|164:192,1,180,0|0,3:2|3:2,2:0:0:0:
188,256,120105,1,0,3:0:0:0:
240,328,120421,6,0,P|156:340|100:272,1,180,0|0,3:0|3:0,2:0:0:0:
188,256,121368,1,0,3:0:0:0:
276,236,121684,2,0,L|388:236,1,90,0|0,3:0|3:0,2:0:0:0:
392,320,122316,2,0,P|432:296|452:236,1,90,0|0,3:0|2:0,2:0:0:0:
428,172,122947,6,0,L|428:76,1,90,0|0,1:0|1:0,2:0:0:0:
352,32,123579,2,0,P|308:32|260:52,1,90,0|0,1:0|1:0,2:0:0:0:
264,140,124211,2,0,P|221:155|176:155,1,90,8|8,1:2|1:2,2:0:0:0:
136,76,124842,2,0,P|92:76|44:96,1,90,8|8,1:2|1:2,2:0:0:0:
256,192,125474,12,4,128000,2:0:0:0:
308,312,140000,6,0,P|356:312|408:292,1,90,2|0,1:2|1:0,2:0:0:0:
464,244,140632,2,0,L|460:136,1,90,4|4,3:1|1:2,2:0:0:0:
408,80,141263,1,0,3:0:0:0:
324,48,141579,1,8,1:0:0:0:
236,40,141895,6,0,P|192:52|148:92,2,90,0|8|2,3:2|1:0|3:2,2:0:0:0:
232,132,142842,1,8,1:0:0:0:
148,168,143158,2,0,P|156:216|148:260,1,90,2|8,3:2|1:0,2:0:0:0:
60,280,143790,2,0,P|52:328|60:372,1,90,2|8,2:0|1:0,2:0:0:0:
148,372,144421,6,0,L|252:372,1,90,2|8,3:2|1:0,2:0:0:0:
320,332,145053,2,0,L|416:332,2,90,0|8|4,3:0|1:0|3:1,2:0:0:0:
244,284,146000,1,4,1:2:0:0:
204,204,146316,2,0,P|192:160|204:116,1,90,2|8,3:2|1:0,2:0:0:0:
292,112,146947,6,0,P|276:64|232:28,2,90,2|8|2,3:2|1:0|3:2,2:0:0:0:
360,168,147895,1,8,1:0:0:0:
448,176,148211,2,0,P|464:216|460:272,1,90,2|8,3:2|1:0,2:0:0:0:
384,304,148842,2,0,P|348:320|296:320,1,90,2|8,2:0|1:0,2:0:0:0:
220,276,149474,6,0,P|148:276|100:332,2,135,0|10|2,3:0|1:2|1:2,2:0:0:0:
298,319,150737,2,0,P|308:276|297:233,1,90,6|4,3:1|1:2,2:0:0:0:
220,188,151368,2,0,P|176:184|124:160,1,90,2|10,3:1|1:0,2:0:0:0:
196,100,152000,6,0,P|201:55|224:17,1,90,2|10,3:2|1:0,2:0:0:0:
284,84,152632,1,2,3:1:0:0:
348,144,152947,1,10,1:0:0:0:
428,104,153263,2,0,P|436:144|412:208,1,90,2|10,3:2|1:0,2:0:0:0:
348,240,153895,1,2,2:1:0:0:
424,284,154211,1,10,1:0:0:0:
348,328,154526,6,0,P|304:344|240:344,1,90,2|10,3:2|1:0,2:0:0:0:
196,284,155158,2,0,P|152:268|88:268,1,90,2|10,3:1|1:0,2:0:0:0:
40,324,155790,2,0,P|23:284|28:212,1,90,6|4,3:1|1:2,2:0:0:0:
92,180,156421,2,0,P|132:84|224:44,1,180,2|2,3:2|3:1,2:0:0:0:
284,68,157368,5,10,1:0:0:0:
348,132,157684,2,0,L|348:236,1,90,2|10,3:1|1:0,2:0:0:0:
416,280,158316,1,4,2:0:0:0:
480,216,158632,2,0,P|492:164|480:124,1,90,0|4,1:0|2:0,2:0:0:0:
392,116,159263,2,0,L|392:24,1,90,0|4,1:0|2:0,2:0:0:0:
304,36,159895,6,0,P|216:68|200:156,1,180,0|0,1:0|1:0,2:0:0:0:
284,124,160842,2,0,P|282:187|224:228,2,135,6|6|6,2:0|2:0|2:0,2:0:0:0:
197,144,162105,6,0,P|172:92|100:60,2,135,6|6|8,2:0|2:0|1:3,2:0:0:0:
108,152,163368,2,0,P|76:200|60:252,1,90,4|0,3:1|1:0,2:0:0:0:
132,292,164000,2,0,P|176:288|224:292,1,90,0|0,1:0|1:0,2:0:0:0:
276,220,164632,6,0,P|272:176|276:128,1,90,4|0,1:0|1:0,2:0:0:0:
356,172,165263,2,0,P|356:272|288:316,1,180,8|4,3:0|3:1,2:0:0:0:
212,288,166211,2,0,P|182:206|231:135,1,180,2|2,2:0|2:0,2:0:0:0:
384,232,167474,5,2,2:0:0:0:
230,135,168105,1,2,2:0:0:0:
308,88,168421,1,4,3:1:0:0:
380,144,168737,2,0,P|432:144|484:128,2,90,8|0|8,1:2|3:0|1:2,2:0:0:0:
300,188,169684,5,4,1:2:0:0:
228,132,170000,2,0,P|100:100|28:216,1,270,8|4,3:0|3:1,2:0:0:0:
8,288,171263,1,4,1:2:0:0:
96,264,171579,2,0,P|140:260|188:264,1,90,0|8,3:0|1:0,2:0:0:0:
256,324,172211,6,0,P|300:328|356:324,1,90,0|8,3:0|1:0,2:0:0:0:
400,252,172842,2,0,P|444:252|500:268,1,90,0|8,3:0|1:0,2:0:0:0:
436,336,173474,1,2,3:2:0:0:
345,325,173790,1,8,1:0:0:0:
308,244,174105,2,0,L|308:128,1,90,2|8,3:2|1:0,2:0:0:0:
388,108,174737,6,0,P|392:64|376:0,1,90,2|8,3:2|1:0,2:0:0:0:
304,64,175368,2,0,P|264:76|228:112,2,90,0|8|4,3:0|1:0|3:1,2:0:0:0:
308,156,176316,1,8,1:0:0:0:
228,196,176632,2,0,P|184:208|136:196,1,90,2|8,3:2|1:0,2:0:0:0:
180,116,177263,6,0,P|64:148|100:280,1,270,4|2,3:1|2:0,2:0:0:0:
256,192,178368,12,0,180737,2:0:0:0:
