osu file format v14

[General]
AudioFilename: audio.mp3
AudioLeadIn: 0
PreviewTime: 54541
Countdown: 1
SampleSet: Soft
StackLeniency: 0.7
Mode: 0
LetterboxInBreaks: 0
WidescreenStoryboard: 0

[Editor]
DistanceSpacing: 1.5
BeatDivisor: 8
GridSize: 4
TimelineZoom: 1.6

[Metadata]
Title:Erande Kurete Arigatou. (Short Ver.)
TitleUnicode:選んでくれてありがとう。(Short Ver.)
Artist:HoneyWorks feat. Fukase & Hatsune Miku
ArtistUnicode:HoneyWorks feat. Fukase & 初音ミク
Creator:Ipas
Version:Hard
Source:
Tags:vocaloid kokuhaku jikko iinkai 告白実行委員会 ふかせ farel12345
BeatmapID:1891685
BeatmapSetID:906115

[Difficulty]
HPDrainRate:5
CircleSize:3.5
OverallDifficulty:6
ApproachRate:7
SliderMultiplier:2.25
SliderTickRate:1

[Events]
//Background and Video events
0,0,"kotahina.png",0,0
//Break Periods
//Storyboard Layer 0 (Background)
//Storyboard Layer 1 (Fail)
//Storyboard Layer 2 (Pass)
//Storyboard Layer 3 (Foreground)
//Storyboard Sound Samples

[TimingPoints]
1511,606.060606060606,4,2,1,60,1,0
20904,-100,4,2,1,40,0,0
30601,-100,4,2,1,60,0,0
54844,-100,4,2,1,60,0,1
74238,-100,4,2,1,60,0,0

[Colours]
Combo1 : 126,83,50
Combo2 : 255,117,83
Combo3 : 54,129,169

[HitObjects]
368,164,1511,6,0,P|364:196|364:220,1,56.25
452,276,1814,2,0,P|451:247|447:220,1,56.25
316,292,2117,2,0,P|256:280|192:288,1,112.5
128,316,2571,1,0,0:0:0:0:
128,316,2723,6,0,L|68:320,2,56.25
136,232,3177,2,0,P|120:200|108:184,2,56.25
220,228,3632,2,0,P|236:200|244:176,1,56.25
296,108,3935,6,0,L|352:96,1,56.25
320,16,4238,2,0,L|264:28,1,56.25
204,84,4541,2,0,B|144:96|172:128|111:142,1,112.5
28,136,4995,1,0,0:0:0:0:
28,136,5147,6,0,L|40:72,2,56.25
40,220,5601,2,0,P|64:228|96:232,1,56.25
180,220,5904,2,0,L|168:276,2,56.25
264,240,6359,6,0,P|244:292|250:347,1,112.5
420,332,6965,2,0,P|448:344|480:344,2,56.25
392,252,7420,6,0,L|404:136,1,112.5
420,60,7874,2,0,L|364:64,2,56.25
308,128,8329,1,0,0:0:0:0:
308,128,8480,2,0,L|244:132,1,56.25
192,192,8783,6,0,B|196:236|196:236|208:256|208:256|213:300,2,112.5
232,28,9692,2,0,P|258:76|252:131,1,112.5
280,212,10147,5,0,0:0:0:0:
280,212,10298,2,0,P|272:244|272:272,1,56.25
328,332,10601,2,0,L|384:324,1,56.25
452,276,10904,1,0,0:0:0:0:
416,100,11207,6,0,P|411:72|411:44,1,56.25
496,56,11510,2,0,P|500:83|500:111,1,56.25
348,156,11814,2,0,B|288:136|316:116|254:96,1,112.5
172,108,12268,1,0,0:0:0:0:
172,108,12420,6,0,P|184:148|184:168,2,56.25
100,68,12874,2,0,P|102:40|112:13,2,56.25
44,132,13329,2,0,L|56:192,1,56.25
92,264,13632,6,0,L|152:252,1,56.25
228,272,13935,2,0,L|288:260,1,56.25
320,184,14238,2,0,B|332:124|304:136|315:72,1,112.5
376,16,14692,1,0,0:0:0:0:
416,90,14844,6,0,P|362:101|314:73,1,112.5
152,108,15450,2,0,P|205:97|253:125,1,112.5
204,244,15904,1,0,0:0:0:0:
140,188,16056,6,0,B|116:216|116:216|128:296,1,112.5
292,336,16662,2,0,L|284:280,2,56.25
376,332,17117,6,0,L|360:220,1,112.5
412,156,17571,2,0,P|432:128|436:104,2,56.25
334,44,18026,1,0,0:0:0:0:
334,44,18177,2,0,P|348:67|351:95,1,56.25
248,48,18480,6,0,L|136:56,1,112.5
44,196,19086,1,0,0:0:0:0:
212,224,19389,6,0,P|180:176|128:156,1,112.5
128,240,19844,1,0,0:0:0:0:
168,316,19995,2,0,L|284:304,1,112.5
332,240,20450,2,0,P|328:208|328:184,1,56.25
327,184,20904,6,0,L|440:172,1,112.5
468,88,21511,1,0,0:0:0:0:
392,40,21814,1,0,0:0:0:0:
320,92,22117,6,0,L|208:104,1,112.5
132,152,22723,1,0,0:0:0:0:
72,84,23026,1,0,0:0:0:0:
140,24,23329,6,0,P|186:53|208:104,1,112.5
216,196,23935,2,0,P|267:174|296:127,1,112.5
388,120,24541,6,0,P|366:68|319:39,1,112.5
296,127,25147,2,0,L|308:239,1,112.5
268,320,25753,6,0,B|308:328|308:328|336:320|336:320|380:328,1,112.5
418,242,26359,2,0,B|378:234|378:234|350:242|350:242|308:232,1,112.5
232,188,26965,5,0,0:0:0:0:
156,236,27268,1,0,0:0:0:0:
96,168,27571,2,0,L|108:56,1,112.5
196,44,28177,6,0,B|256:56|232:84|293:95,1,112.5
360,156,28783,2,0,B|300:168|324:196|262:207,1,112.5
176,228,29389,6,0,L|188:344,1,112.5
187,339,29995,2,0,L|244:332,1,56.25
320,292,30298,2,0,L|377:285,1,56.25
456,256,30601,6,0,P|440:200|456:136,1,112.5
408,76,31056,1,0,0:0:0:0:
408,76,31207,2,0,P|380:92|356:100,1,56.25
272,92,31511,2,0,L|284:152,1,56.25
220,204,31814,6,0,P|172:200|96:208,2,112.5
360,296,32723,2,0,P|328:300|304:308,1,56.25
232,348,33026,6,0,B|188:344|188:344|168:332|168:332|124:328,1,112.5
56,276,33480,1,0,0:0:0:0:
56,276,33632,2,0,L|64:216,1,56.25
144,196,33935,2,0,L|136:136,1,56.25
168,60,34238,6,0,P|215:87|269:77,1,112.5
352,96,34692,1,0,0:0:0:0:
352,96,34844,2,0,L|368:152,1,56.25
396,229,35147,2,0,P|420:216|440:196,1,56.25
312,232,35450,6,0,P|332:296|320:344,1,112.5
164,284,36056,2,0,B|172:240|172:240|168:216|168:216|176:172,1,112.5
168,88,36511,1,0,0:0:0:0:
168,88,36662,6,0,L|112:76,1,56.25
36,116,36965,1,0,0:0:0:0:
168,220,37268,1,0,0:0:0:0:
312,132,37571,2,0,P|308:100|312:72,1,56.25
392,104,37874,6,0,P|392:168|356:208,1,112.5
292,252,38329,1,0,0:0:0:0:
292,252,38480,2,0,P|312:276|324:300,1,56.25
240,320,38784,2,0,P|237:351|228:376,1,56.25
156,332,39086,6,0,L|168:220,2,112.5
116,164,39995,2,0,P|140:148|168:144,1,56.25
244,180,40298,6,0,P|252:224|240:292,1,112.5
304,348,40753,1,0,0:0:0:0:
304,348,40904,2,0,P|332:340|360:340,1,56.25
416,280,41207,2,0,P|408:253|407:225,1,56.25
468,164,41511,5,0,0:0:0:0:
328,72,41814,1,0,0:0:0:0:
160,84,42117,2,0,L|172:196,1,112.5
284,324,42571,1,0,0:0:0:0:
284,324,42723,6,0,L|296:212,1,112.5
396,76,43329,2,0,P|372:92|344:100,1,56.25
272,60,43632,2,0,P|248:44|220:36,1,56.25
148,80,43935,5,0,0:0:0:0:
108,244,44238,1,0,0:0:0:0:
272,288,44541,2,0,P|240:240|188:224,1,112.5
108,244,44995,1,0,0:0:0:0:
60,172,45147,6,0,L|72:88,2,84.375
108,244,45753,2,0,P|112:300|100:332,2,84.375
156,176,46359,2,0,L|240:168,2,84.375
108,244,46965,1,0,0:0:0:0:
264,308,47268,2,0,L|320:304,1,56.25
400,328,47571,6,0,P|420:296|460:268,2,84.375
320,304,48177,2,0,L|336:216,2,84.375
248,348,48783,2,0,P|200:332|136:328,1,112.5
48,360,49238,1,0,0:0:0:0:
68,220,49389,2,0,L|72:276,1,56.25
112,136,49692,1,0,0:0:0:0:
272,75,49995,6,0,P|326:71|371:104,1,112.5
304,156,50450,1,0,0:0:0:0:
304,156,50601,2,0,L|289:268,1,112.5
428,364,51207,5,0,0:0:0:0:
496,208,51511,1,0,0:0:0:0:
408,64,51814,2,0,P|388:88|376:112,1,56.25
302,155,52117,2,0,P|293:129|292:101,1,56.25
360,216,52420,5,0,0:0:0:0:
480,100,52723,1,0,0:0:0:0:
336,16,53026,1,0,0:0:0:0:
212,128,53329,1,0,0:0:0:0:
359,216,53632,6,0,P|345:269|310:314,1,112.5
236,264,54086,1,0,0:0:0:0:
84,256,54238,2,0,L|139:245,1,56.25
168,332,54541,2,0,L|112:342,1,56.25
204,188,54844,6,0,P|200:144|172:64,1,112.5
252,36,55298,1,0,0:0:0:0:
316,92,55450,2,0,L|372:80,1,56.25
452,96,55753,2,0,P|440:128|432:160,1,56.25
456,232,56056,6,0,P|460:276|436:348,1,112.5
364,300,56511,1,0,0:0:0:0:
288,340,56662,2,0,L|228:332,1,56.25
220,248,56965,1,0,0:0:0:0:
300,216,57117,1,0,0:0:0:0:
300,216,57192,1,0,0:0:0:0:
300,216,57268,6,0,B|320:164|320:164|304:92,1,112.5
232,68,57723,1,0,0:0:0:0:
180,136,57874,2,0,P|152:148|124:152,1,56.25
96,72,58177,2,0,P|124:60|152:56,1,56.25
232,68,58480,6,0,L|292:56,1,56.25
324,132,58783,2,0,L|264:144,1,56.25
228,216,59086,1,0,0:0:0:0:
284,280,59238,2,0,P|312:268|340:268,1,56.25
420,288,59541,1,0,0:0:0:0:
324,360,59692,6,0,P|260:356|188:368,1,112.5
188,280,60147,1,0,0:0:0:0:
104,288,60298,2,0,L|112:348,1,56.25
28,340,60601,2,0,L|20:280,1,56.25
64,212,60904,6,0,B|80:152|52:168|64:96,2,112.5
148,200,61662,1,0,0:0:0:0:
192,128,61814,2,0,P|224:132|248:140,1,56.25
320,184,62117,6,0,P|376:192|428:176,1,112.5
468,100,62571,1,0,0:0:0:0:
400,52,62723,2,0,L|284:68,1,112.5
246,139,63177,1,0,0:0:0:0:
172,96,63329,6,0,P|144:80|124:64,1,56.25
68,128,63632,2,0,P|57:154|42:178,1,56.25
108,232,63935,2,0,L|100:292,1,56.25
168,340,64238,1,0,0:0:0:0:
168,340,64389,1,0,0:0:0:0:
324,308,64541,6,0,P|308:244|316:180,1,112.5
376,144,64995,1,0,0:0:0:0:
460,132,65147,2,0,L|448:192,1,56.25
376,144,65449,2,0,L|388:84,1,56.25
324,32,65753,6,0,L|200:44,1,112.5
148,100,66207,1,0,0:0:0:0:
196,168,66359,2,0,P|188:200|176:224,1,56.25
108,268,66662,1,0,0:0:0:0:
180,312,66814,1,0,0:0:0:0:
180,312,66889,1,0,0:0:0:0:
180,312,66965,6,0,P|144:348|80:348,1,112.5
108,268,67420,1,0,0:0:0:0:
56,200,67571,2,0,L|64:144,1,56.25
76,60,67874,2,0,P|104:72|132:72,1,56.25
212,48,68177,6,0,L|220:104,1,56.25
296,164,68481,2,0,L|304:108,1,56.25
356,240,68783,1,0,0:0:0:0:
356,239,68935,2,0,P|328:242|302:254,1,56.25
352,328,69238,1,0,0:0:0:0:
436,188,69389,6,0,P|428:128|440:72,1,112.5
376,20,69844,1,0,0:0:0:0:
300,60,69995,2,0,P|268:52|232:56,1,56.25
184,112,70298,2,0,L|192:168,1,56.25
108,176,70601,6,0,B|100:108|100:108|114:66,2,112.5
164,240,71359,1,0,0:0:0:0:
96,288,71510,2,0,P|92:320|92:344,1,56.25
176,364,71814,6,0,P|232:352|288:352,1,112.5
360,312,72268,1,0,0:0:0:0:
428,260,72420,2,0,P|404:216|352:232,1,112.5
360,312,72874,1,0,0:0:0:0:
284,276,73026,6,0,P|248:272|224:276,1,56.25
148,308,73329,2,0,P|112:312|88:308,1,56.25
48,236,73632,1,0,0:0:0:0:
48,236,73783,1,0,0:0:0:0:
72,104,73935,2,0,L|84:44,1,56.25
164,32,74238,6,0,P|184:48|212:60,1,56.25
296,64,74541,2,0,L|352:60,1,56.25
420,108,74844,2,0,P|388:160|384:220,1,112.5
380,296,75298,1,0,0:0:0:0:
299,267,75450,6,0,L|244:260,2,56.25
256,340,75904,2,0,L|132:320,1,112.5
88,260,76359,2,0,P|100:236|104:208,1,56.25
72,72,76662,6,0,L|68:128,1,56.25
152,108,76965,2,0,L|156:52,1,56.25
236,32,77268,2,0,P|292:48|348:36,1,112.5
412,88,77723,1,0,0:0:0:0:
492,64,77874,6,0,L|503:119,2,56.25
412,88,78329,2,0,B|420:128|420:128|416:156|416:156|420:200,1,112.5
400,280,78783,2,0,P|372:268|340:264,1,56.25
268,292,79086,6,0,B|224:284|188:308|188:308|172:268|128:244,1,168.75
48,264,79692,2,0,P|52:208|88:168,1,112.5
172,168,80147,1,0,0:0:0:0:
232,112,80298,6,0,B|320:132|276:176|368:208,1,168.75
448,196,80904,2,0,P|404:232|428:276,1,112.5
484,332,81359,1,0,0:0:0:0:
484,332,81510,5,0,0:0:0:0:
316,332,81814,1,0,0:0:0:0:
184,228,82117,2,0,P|176:160|188:116,1,112.5
248,60,82571,6,0,L|280:52,2,28.125
164,40,82874,2,0,P|136:48|108:52,1,56.25
40,104,83177,1,0,0:0:0:0:
72,184,83329,1,0,0:0:0:0:
