osu file format v14

[General]
AudioFilename: audio.mp3
AudioLeadIn: 0
PreviewTime: 42486
Countdown: 0
SampleSet: Soft
StackLeniency: 0.4
Mode: 0
LetterboxInBreaks: 0
WidescreenStoryboard: 1

[Editor]
DistanceSpacing: 1
BeatDivisor: 4
GridSize: 32
TimelineZoom: 1.8

[Metadata]
Title:Kawaikute Gomen
TitleUnicode:可愛くてごめん
Artist:HoneyWorks feat. Capi
ArtistUnicode:HoneyWorks feat. かぴ
Creator:aundy
Version:Mana's Normal
Source:
Tags:Toofu SayuMana Kumocha shirokumocha japanese pop jpop j-pop Confession Executive Committee Kokuhaku Jikkou Iinkai Koishiteru 告白実行委員会 -FLYING SONGS- 恋してる track 7 shito 使徒 Nakamura Chizuru 中村千鶴 Chuu-tan Chutan Chuutan
BeatmapID:3966699
BeatmapSetID:1860175

[Difficulty]
HPDrainRate:3
CircleSize:3
OverallDifficulty:4
ApproachRate:5
SliderMultiplier:1
SliderTickRate:1

[Events]
//Background and Video events
Video,0,"kurage.mp4"
0,0,"bg.png",0,0
//Break Periods
2,66685,68286
2,135685,137286
2,174686,187536
2,200935,202536
//Storyboard Layer 0 (Background)
//Storyboard Layer 1 (Fail)
//Storyboard Layer 2 (Pass)
//Storyboard Layer 3 (Foreground)
//Storyboard Layer 4 (Overlay)
//Storyboard Sound Samples

[TimingPoints]
486,375,4,2,1,75,1,0
486,-111.111111111111,4,2,1,75,0,0
12486,-100,4,2,1,60,0,0
24486,-100,4,2,1,70,0,0
33486,-100,4,2,1,70,0,0
42111,-100,4,2,1,70,0,0
42486,-90.9090909090909,4,2,1,85,0,1
66486,-111.111111111111,4,2,1,60,0,0
69486,-90.9090909090909,4,2,1,75,0,0
81486,-100,4,2,1,60,0,0
87486,-100,4,2,1,60,0,0
93486,-100,4,2,1,70,0,0
102486,-100,4,2,1,70,0,0
111111,-100,4,2,1,70,0,0
111486,-90.9090909090909,4,2,1,85,0,1
135486,-111.111111111111,4,2,1,60,0,0
138486,-100,4,2,1,65,0,0
150486,-100,4,2,1,65,0,0
159486,-100,4,2,1,70,0,0
160986,-100,4,2,1,75,0,0
162486,-90.9090909090909,4,2,1,65,0,0
174486,-111.111111111111,4,2,1,50,0,0
188736,375,4,2,1,85,1,0
188736,-90.9090909090909,4,2,1,85,0,1
200736,-111.111111111111,4,2,1,60,0,0
203736,-90.9090909090909,4,2,1,75,0,0

[Colours]
Combo1 : 166,255,255
Combo2 : 255,166,166
Combo3 : 255,255,166
Combo4 : 166,255,166

[HitObjects]
309,189,486,6,0,P|354:187|403:219,1,89.9999972534181,6|0,3:2|0:0,0:0:0:0:
460,268,1236,2,0,L|519:254,2,44.999998626709,6|0|0,3:2|0:0|0:0,0:0:0:0:
426,296,1798,1,2,0:2:0:0:
426,296,1986,2,0,L|408:393,2,89.9999972534181,6|2|6,3:2|0:2|3:2,0:0:0:0:
392,207,3111,2,0,L|381:163,1,44.999998626709,2|8,0:2|0:2,0:0:0:0:
400,121,3486,5,6,0:2:0:0:
296,43,4048,1,2,0:2:0:0:
296,43,4236,2,0,L|309:-16,2,44.999998626709,6|2|2,3:2|3:2|3:2,0:0:0:0:
271,81,4798,1,2,3:2:0:0:
271,81,4986,2,0,L|173:98,2,89.9999972534181,6|2|2,3:2|0:2|3:2,0:0:0:0:
437,148,6486,6,0,L|418:248,1,89.9999972534181,6|0,3:2|3:2,0:0:0:0:
467,312,7236,2,0,L|526:298,2,44.999998626709,6|2|2,3:2|0:2|3:2,0:0:0:0:
446,353,7798,1,2,0:2:0:0:
446,353,7986,1,6,3:2:0:0:
357,338,8361,1,2,3:2:0:0:
268,320,8736,1,2,3:2:0:0:
268,320,8923,2,0,L|258:363,2,44.999998626709,8|8|10,0:2|0:2|0:2,0:0:0:0:
245,280,9486,1,2,0:2:0:0:
245,280,10986,6,0,L|147:297,2,89.9999972534181,10|10|2,0:2|0:2|3:2,0:0:0:0:
325,320,12111,1,10,0:2:0:0:
403,258,12486,6,0,P|426:214|414:156,1,100,6|10,3:2|0:2,0:0:0:0:
379,80,13236,1,2,3:2:0:0:
379,80,13423,2,0,L|268:99,1,100,2|2,0:2|0:2,0:0:0:0:
241,128,13986,1,2,3:2:0:0:
150,84,14361,2,0,L|159:25,2,50,10|2|2,0:2|0:2|3:2,0:0:0:0:
115,120,14923,2,0,L|131:218,1,100,2|0,0:2|0:0,0:0:0:0:
137,268,15486,6,0,P|179:291|228:286,1,100,2|10,3:2|0:2,0:0:0:0:
299,214,16236,1,2,3:2:0:0:
299,214,16423,2,0,L|410:233,1,100,2|0,0:2|0:0,0:0:0:0:
446,241,16986,2,0,L|453:290,2,50,2|2|10,3:2|0:2|0:2,0:0:0:0:
481,205,17548,1,2,0:2:0:0:
481,205,17736,2,0,P|504:163|499:114,1,100,2|10,3:2|0:2,0:0:0:0:
441,29,18486,6,0,L|342:45,1,100,2|10,3:2|3:2,0:0:0:0:
256,93,19236,1,2,3:2:0:0:
256,93,19423,2,0,P|232:136|238:185,1,100,2|2,0:2|0:2,0:0:0:0:
273,221,19986,1,2,3:2:0:0:
225,309,20361,2,0,L|232:358,2,50,10|2|2,0:2|0:2|3:2,0:0:0:0:
187,275,20923,2,0,L|88:258,1,100,2|0,0:2|0:0,0:0:0:0:
38,251,21486,6,0,P|14:207|20:158,1,100,2|10,3:2|0:2,0:0:0:0:
52,66,22236,1,2,3:2:0:0:
52,66,22423,2,0,L|163:85,1,100,2|2,0:2|0:2,0:0:0:0:
187,48,22986,2,0,L|179:-2,2,50,2|2|10,3:2|0:2|0:2,0:0:0:0:
236,71,23548,1,2,0:2:0:0:
236,71,23736,2,0,P|259:114|253:163,1,100,2|0,3:2|3:2,0:0:0:0:
219,257,24486,6,0,L|121:241,1,100,6|2,3:2|1:2,0:0:0:0:
48,170,25236,2,0,L|-1:177,2,50,2|0|0,0:2|3:2|1:2,0:0:0:0:
90,142,25798,1,2,0:2:0:0:
90,142,25986,2,0,P|113:98|106:49,1,100,2|2,3:2|1:2,0:0:0:0:
76,10,26548,1,2,1:2:0:0:
9,85,26923,1,0,3:2:0:0:
9,85,27111,1,2,1:2:0:0:
90,142,27486,6,0,P|132:119|181:124,1,100,2|2,3:2|1:2,0:0:0:0:
251,196,28236,2,0,L|244:245,2,50,2|0|0,0:2|3:2|1:2,0:0:0:0:
299,177,28798,1,0,0:0:0:0:
299,177,28986,2,0,P|322:134|317:85,1,100,2|2,3:2|1:2,0:0:0:0:
291,48,29548,1,2,1:2:0:0:
291,48,29736,2,0,L|241:55,2,50,0|0|8,3:2|3:2|0:2,0:0:0:0:
380,2,30486,6,0,P|428:-3|472:19,1,100,14|2,0:2|1:2,0:0:0:0:
507,64,31048,1,2,1:2:0:0:
507,64,31236,2,0,L|491:163,1,100,2|2,3:2|1:2,0:0:0:0:
484,215,31798,1,2,0:2:0:0:
484,215,31986,1,2,3:2:0:0:
482,314,32361,1,2,1:2:0:0:
386,344,32736,1,2,3:2:0:0:
328,262,33111,1,0,1:2:0:0:
388,182,33486,6,0,L|404:83,2,100,6|0|0,3:2|3:2|3:2,0:0:0:0:
328,262,34611,1,10,0:2:0:0:
386,344,34986,2,0,L|436:337,2,50,2|2|10,3:2|0:2|0:2,0:0:0:0:
346,374,35548,2,0,L|235:355,1,100,2|0,0:2|3:2,0:0:0:0:
202,379,36111,1,10,0:2:0:0:
140,302,36486,6,0,L|90:309,2,50,6|0|0,3:2|0:0|3:2,0:0:0:0:
174,266,37048,2,0,P|197:223|192:174,1,100,2|0,3:2|3:2,0:0:0:0:
160,134,37611,1,2,3:2:0:0:
100,54,37986,2,0,L|50:61,2,50,10|10|10,0:2|0:2|0:2,0:0:0:0:
129,14,38548,2,0,P|177:8|221:31,1,100,10|8,0:2|0:2,0:0:0:0:
260,65,39111,2,0,L|253:115,1,50,10|10,0:2|0:2,0:0:0:0:
285,153,39486,1,6,3:2:0:0:
284,153,40986,6,0,L|382:136,2,100,0|8|0,3:2|0:2|3:2,0:0:0:0:
217,227,42111,2,0,L|210:277,1,50,8|0,0:2|0:0,0:0:0:0:
198,330,42486,6,0,P|243:358|297:349,1,110.000003356934,6|8,3:2|0:2,0:0:0:0:
345,321,43048,1,2,0:2:0:0:
345,321,43236,1,2,3:2:0:0:
387,219,43611,2,0,L|379:164,1,55.0000016784668,10|2,0:2|0:2,0:0:0:0:
395,111,43986,2,0,L|518:132,2,110.000003356934,2|10|2,3:2|0:2|3:2,0:0:0:0:
325,25,45111,1,10,0:2:0:0:
228,77,45486,6,0,B|242:131|203:126|215:188,1,110.000003356934,2|8,3:2|0:2,0:0:0:0:
246,234,46048,1,2,0:2:0:0:
246,234,46236,2,0,L|300:226,2,55.0000016784668,2|2|10,3:2|0:2|0:2,0:0:0:0:
220,284,46798,1,2,0:2:0:0:
220,284,46986,1,2,3:2:0:0:
161,377,47361,1,10,0:2:0:0:
55,345,47736,2,0,L|76:221,1,110.000003356934,2|8,3:2|0:2,0:0:0:0:
34,133,48486,6,0,L|157:111,1,110.000003356934,6|8,3:2|0:2,0:0:0:0:
186,79,49048,1,2,0:2:0:0:
186,79,49236,2,0,L|194:24,2,55.0000016784668,2|2|10,3:2|0:2|0:2,0:0:0:0:
254,165,49986,2,0,B|308:151|303:190|365:178,2,110.000003356934,2|10|2,3:2|0:2|3:2,0:0:0:0:
164,229,51111,2,0,L|109:221,1,55.0000016784668,10|2,0:2|0:2,0:0:0:0:
55,230,51486,6,0,P|26:275|35:328,1,110.000003356934,2|8,3:2|0:2,0:0:0:0:
78,372,52048,1,2,0:2:0:0:
78,372,52236,2,0,L|201:350,1,110.000003356934,2|10,3:2|0:2,0:0:0:0:
239,382,52798,1,2,0:2:0:0:
239,382,52986,1,2,3:2:0:0:
313,300,53361,1,6,3:2:0:0:
256,211,53736,2,0,L|201:219,2,55.0000016784668,2|8|8,3:2|0:2|0:2,0:0:0:0:
294,172,54298,5,8,0:2:0:0:
294,172,54486,2,0,L|417:194,1,110.000003356934,4|8,3:2|0:2,0:0:0:0:
458,177,55048,1,2,0:2:0:0:
458,177,55236,1,2,3:2:0:0:
509,273,55611,2,0,L|501:328,1,55.0000016784668,10|2,0:2|0:2,0:0:0:0:
492,381,55986,2,0,B|438:395|443:356|381:368,2,110.000003356934,2|10|2,3:2|0:2|3:2,0:0:0:0:
509,273,57111,2,0,L|501:218,1,55.0000016784668,10|2,0:2|0:2,0:0:0:0:
493,164,57486,6,0,B|439:178|444:139|382:151,1,110.000003356934,2|8,3:2|0:2,0:0:0:0:
350,191,58048,1,2,0:2:0:0:
350,191,58236,1,2,3:2:0:0:
250,143,58611,2,0,L|258:88,1,55.0000016784668,10|2,0:2|0:2,0:0:0:0:
262,33,58986,2,0,L|370:13,2,110.000003356934,2|10|2,3:2|0:2|3:2,0:0:0:0:
171,96,60111,2,0,L|116:88,1,55.0000016784668,8|8,0:2|0:2,0:0:0:0:
65,109,60486,6,0,B|79:163|40:158|52:220,1,110.000003356934,6|8,3:2|0:2,0:0:0:0:
57,274,61048,1,2,0:2:0:0:
57,274,61236,2,0,L|2:282,2,55.0000016784668,2|2|10,3:2|0:2|0:2,0:0:0:0:
167,276,61986,2,0,L|147:384,2,110.000003356934,2|10|2,3:2|0:2|3:2,0:0:0:0:
108,182,63111,1,10,0:2:0:0:
181,100,63486,6,0,P|226:72|280:81,1,110.000003356934,2|8,3:2|0:2,0:0:0:0:
321,125,64048,1,2,0:2:0:0:
321,125,64236,2,0,L|376:117,2,55.0000016784668,2|2|10,3:2|0:2|0:2,0:0:0:0:
296,176,64798,1,2,0:2:0:0:
296,176,64986,1,2,3:2:0:0:
222,257,65361,1,10,0:2:0:0:
284,347,65736,1,2,3:2:0:0:
388,313,66111,2,0,L|443:321,2,55.0000016784668,14|0|2,0:2|0:0|0:2,0:0:0:0:
0,69,69486,6,0,P|45:41|99:50,1,110.000003356934,4|8,3:2|0:2,0:0:0:0:
146,87,70048,1,2,0:2:0:0:
146,87,70236,1,2,3:2:0:0:
214,172,70611,2,0,L|206:227,1,55.0000016784668,10|2,0:2|0:2,0:0:0:0:
194,280,70986,2,0,B|140:266|145:305|83:293,2,110.000003356934,2|10|2,3:2|0:2|3:2,0:0:0:0:
256,370,72111,1,10,0:2:0:0:
354,322,72486,6,0,P|382:276|373:223,1,110.000003356934,2|8,3:2|0:2,0:0:0:0:
336,189,73048,1,2,0:2:0:0:
336,189,73236,2,0,L|282:197,2,55.0000016784668,2|2|10,3:2|0:2|0:2,0:0:0:0:
357,141,73798,1,2,0:2:0:0:
357,141,73986,1,2,3:2:0:0:
419,50,74361,1,14,0:2:0:0:
512,112,74736,2,0,L|493:220,1,110.000003356934,2|0,3:2|3:2,0:0:0:0:
486,278,75298,5,8,0:2:0:0:
486,278,75486,2,0,P|441:306|387:297,1,110.000003356934,4|8,3:2|0:2,0:0:0:0:
351,263,76048,1,2,0:2:0:0:
351,263,76236,1,2,3:2:0:0:
272,185,76611,2,0,L|218:193,1,55.0000016784668,10|2,0:2|0:2,0:0:0:0:
179,232,76986,2,0,B|193:286|154:281|166:343,2,110.000003356934,2|10|2,3:2|0:2|3:2,0:0:0:0:
99,155,78111,1,10,0:2:0:0:
153,59,78486,6,0,P|199:31|252:40,1,110.000003356934,2|8,3:2|0:2,0:0:0:0:
299,78,79048,1,2,0:2:0:0:
299,78,79236,2,0,L|353:70,2,55.0000016784668,2|2|10,3:2|0:2|0:2,0:0:0:0:
271,127,79798,1,8,0:2:0:0:
271,127,79986,1,2,3:2:0:0:
196,207,80361,1,2,3:2:0:0:
249,303,80736,1,2,3:2:0:0:
357,282,81111,1,2,3:2:0:0:
371,173,81486,6,0,L|469:189,2,100,6|2|2,3:2|3:2|3:2,0:0:0:0:
328,199,82423,1,2,0:2:0:0:
245,153,82798,1,2,0:2:0:0:
245,153,82986,2,0,P|239:104|263:60,1,100,2|2,3:2|3:2,0:0:0:0:
347,4,83736,1,2,3:2:0:0:
347,4,83923,2,0,L|445:20,1,100,2|0,0:2|0:0,0:0:0:0:
487,47,84486,6,0,P|492:95|468:139,1,100,2|2,3:2|3:2,0:0:0:0:
396,209,85236,1,2,3:2:0:0:
396,209,85423,2,0,L|298:193,1,100,2|0,0:2|0:0,0:0:0:0:
253,217,85986,1,2,3:2:0:0:
184,144,86361,2,0,L|135:151,2,50,2|2|2,3:2|0:2|3:2,0:0:0:0:
253,72,87111,1,10,0:2:0:0:
172,12,87486,6,0,L|74:28,1,100,6|10,3:2|0:2,0:0:0:0:
5,101,88236,1,2,3:2:0:0:
5,101,88423,2,0,P|0:149|23:192,1,100,2|2,0:2|0:2,0:0:0:0:
66,220,88986,1,2,3:2:0:0:
156,176,89361,2,0,L|254:192,1,100,10|2,0:2|3:2,0:0:0:0:
300,171,89923,1,2,0:2:0:0:
373,247,90298,5,0,0:0:0:0:
373,247,90486,2,0,P|378:295|354:339,1,100,2|10,3:2|3:2,0:0:0:0:
267,384,91236,1,2,3:2:0:0:
267,384,91424,2,0,L|168:367,1,100,2|2,0:2|0:2,0:0:0:0:
133,331,91986,2,0,L|83:339,2,50,2|2|14,3:2|0:2|0:2,0:0:0:0:
151,287,92548,1,2,0:2:0:0:
151,287,92736,2,0,L|167:189,1,100,2|8,3:2|0:2,0:0:0:0:
104,109,93486,6,0,P|148:85|197:92,1,100,6|2,3:2|1:2,0:0:0:0:
285,140,94236,2,0,L|334:133,2,50,2|0|0,0:2|3:2|1:2,0:0:0:0:
253,179,94798,1,2,0:2:0:0:
253,179,94986,2,0,L|237:277,1,100,2|2,3:2|1:2,0:0:0:0:
261,321,95548,1,2,1:2:0:0:
358,289,95923,1,0,3:2:0:0:
358,289,96111,1,2,1:2:0:0:
430,357,96486,6,0,P|453:313|448:264,1,100,2|2,3:2|1:2,0:0:0:0:
395,179,97236,2,0,L|402:130,2,50,2|0|0,0:2|3:2|1:2,0:0:0:0:
356,210,97798,1,2,0:2:0:0:
356,210,97986,2,0,L|258:226,1,100,2|2,3:2|1:2,0:0:0:0:
219,257,98548,1,2,1:2:0:0:
219,257,98736,2,0,L|212:307,2,50,0|0|8,3:2|3:2|0:2,0:0:0:0:
125,221,99486,6,0,P|102:177|107:128,1,100,14|2,0:2|1:2,0:0:0:0:
149,99,100048,1,2,1:2:0:0:
149,99,100236,2,0,L|248:115,1,100,2|2,3:2|1:2,0:0:0:0:
298,101,100798,1,2,0:2:0:0:
298,101,100986,1,2,3:2:0:0:
361,177,101361,1,2,1:2:0:0:
309,263,101736,1,2,3:2:0:0:
211,239,102111,2,0,L|162:246,1,50,0|0,1:2|3:2,0:0:0:0:
112,255,102486,6,0,L|96:354,2,100,6|0|0,3:2|3:2|3:2,0:0:0:0:
30,196,103611,1,10,0:2:0:0:
63,101,103986,2,0,L|56:51,2,50,2|2|10,3:2|0:2|0:2,0:0:0:0:
100,134,104548,2,0,P|143:156|192:152,1,100,2|0,0:2|3:2,0:0:0:0:
229,118,105111,1,10,0:2:0:0:
315,168,105486,6,0,L|365:161,2,50,6|0|0,3:2|0:0|3:2,0:0:0:0:
276,199,106048,2,0,P|271:248|294:291,1,100,2|0,3:2|3:2,0:0:0:0:
339,314,106611,1,2,3:2:0:0:
436,334,106986,2,0,L|429:384,2,50,10|10|10,0:2|0:2|0:2,0:0:0:0:
467,295,107548,2,0,L|451:196,1,100,10|8,0:2|0:2,0:0:0:0:
443,146,108111,2,0,L|393:139,1,50,10|10,0:2|0:2,0:0:0:0:
349,163,108486,1,6,3:2:0:0:
349,163,109986,6,0,P|304:140|255:145,1,100,2|0,3:2|3:2,0:0:0:0:
221,180,110548,1,8,0:2:0:0:
196,280,110923,1,0,3:2:0:0:
196,280,111111,2,0,L|146:273,1,50,8|0,0:2|0:0,0:0:0:0:
91,265,111486,6,0,P|63:220|72:166,1,110.000003356934,6|8,3:2|0:2,0:0:0:0:
113,130,112048,1,2,0:2:0:0:
113,130,112236,1,2,3:2:0:0:
216,93,112611,2,0,L|270:101,1,55.0000016784668,10|2,0:2|0:2,0:0:0:0:
325,108,112986,2,0,L|306:0,2,110.000003356934,2|10|2,3:2|0:2|3:2,0:0:0:0:
417,167,114111,1,10,0:2:0:0:
373,268,114486,6,0,P|328:240|274:249,1,110.000003356934,2|8,3:2|0:2,0:0:0:0:
248,299,115048,1,2,0:2:0:0:
248,299,115236,2,0,B|194:313|199:274|137:286,1,110.000003356934,2|10,3:2|0:2,0:0:0:0:
106,328,115798,1,2,0:2:0:0:
106,328,115986,1,2,3:2:0:0:
11,272,116361,1,10,0:2:0:0:
68,178,116736,2,0,L|48:70,1,110.000003356934,2|8,3:2|0:2,0:0:0:0:
135,2,117485,6,0,L|244:20,1,110.000003356934,6|8,3:2|0:2,0:0:0:0:
291,57,118048,1,2,0:2:0:0:
291,57,118236,2,0,P|300:110|271:155,1,110.000003356934,2|10,3:2|0:2,0:0:0:0:
226,184,118798,1,2,0:2:0:0:
226,184,118986,2,0,L|117:166,2,110.000003356934,2|10|2,3:2|0:2|3:2,0:0:0:0:
305,260,120111,2,0,L|313:315,1,55.0000016784668,10|2,0:2|0:2,0:0:0:0:
330,366,120486,6,0,P|382:375|428:346,1,110.000003356934,2|8,3:2|0:2,0:0:0:0:
467,307,121048,1,2,0:2:0:0:
467,307,121236,2,0,B|481:253|442:258|454:196,1,110.000003356934,2|10,3:2|0:2,0:0:0:0:
479,154,121798,1,2,0:2:0:0:
479,154,121986,1,2,3:2:0:0:
407,70,122361,1,6,3:2:0:0:
314,129,122736,2,0,L|259:137,2,55.0000016784668,2|8|8,3:2|0:2|0:2,0:0:0:0:
354,174,123298,5,8,0:2:0:0:
354,174,123486,2,0,B|340:228|379:223|367:285,1,110.000003356934,4|8,3:2|0:2,0:0:0:0:
341,330,124048,1,2,0:2:0:0:
341,330,124236,1,2,3:2:0:0:
243,381,124611,2,0,L|188:373,1,55.0000016784668,10|2,0:2|0:2,0:0:0:0:
146,337,124986,2,0,L|37:355,2,110.000003356934,2|10|2,3:2|0:2|3:2,0:0:0:0:
225,260,126111,2,0,L|233:205,1,55.0000016784668,10|2,0:2|0:2,0:0:0:0:
214,153,126486,6,0,L|105:171,1,110.000003356934,2|8,3:2|0:2,0:0:0:0:
66,140,127048,1,2,0:2:0:0:
66,140,127236,2,0,L|74:85,2,55.0000016784668,2|2|10,3:2|0:2|0:2,0:0:0:0:
0,229,127986,2,0,B|-14:283|25:278|13:340,2,110.000003356934,2|10|2,3:2|0:2|3:2,0:0:0:0:
66,140,129111,1,2,3:2:0:0:
158,199,129486,6,0,L|267:181,1,110.000003356934,6|8,3:2|0:2,0:0:0:0:
325,195,130049,1,2,0:2:0:0:
325,195,130237,2,0,P|354:240|345:293,1,110.000003356934,2|10,3:2|0:2,0:0:0:0:
306,332,130799,1,2,0:2:0:0:
306,332,130987,2,0,L|197:350,2,110.000003356934,2|10|2,3:2|0:2|3:2,0:0:0:0:
408,371,132111,1,10,0:2:0:0:
459,273,132486,6,0,B|473:219|434:224|446:162,1,110.000003356934,2|8,3:2|0:2,0:0:0:0:
457,116,133048,1,2,0:2:0:0:
457,116,133236,2,0,L|512:124,2,55.0000016784668,2|2|10,3:2|0:2|0:2,0:0:0:0:
420,82,133798,1,2,0:2:0:0:
420,82,133986,1,6,3:2:0:0:
321,32,134361,1,10,0:0:0:0:
249,116,134736,1,0,3:2:0:0:
307,209,135111,2,0,L|299:264,2,55.0000016784668,14|0|2,0:2|0:0|0:2,0:0:0:0:
0,111,138486,6,0,P|43:87|92:93,1,100,6|2,3:2|1:2,0:0:0:0:
136,127,139048,1,2,1:2:0:0:
136,127,139236,2,0,L|117:238,1,100,0|0,0:0|1:2,0:0:0:0:
67,311,139986,2,0,L|18:318,2,50,2|2|2,3:2|0:2|1:2,0:0:0:0:
109,346,140548,1,2,1:2:0:0:
109,346,140736,2,0,P|157:351|201:328,1,100,2|2,0:2|1:2,0:0:0:0:
236,293,141298,5,0,0:0:0:0:
236,293,141486,1,2,3:2:0:0:
286,380,141861,1,2,1:2:0:0:
384,359,142236,1,0,0:0:0:0:
394,259,142611,1,0,1:2:0:0:
303,219,142986,2,0,L|319:120,1,100,2|2,3:2|1:2,0:0:0:0:
338,74,143548,2,0,P|381:50|430:56,1,100,2|0,1:2|3:2,0:0:0:0:
472,84,144111,1,0,1:2:0:0:
508,177,144486,6,0,L|491:275,1,100,2|2,3:2|1:2,0:0:0:0:
482,327,145048,1,2,1:2:0:0:
482,327,145236,2,0,P|438:350|389:344,1,100,0|0,0:0|1:2,0:0:0:0:
314,278,145986,2,0,L|265:285,2,50,2|2|2,3:2|0:2|1:2,0:0:0:0:
351,244,146548,1,2,1:2:0:0:
351,244,146736,2,0,L|367:145,1,100,2|2,0:2|1:2,0:0:0:0:
305,66,147486,6,0,P|348:42|397:48,2,100,2|2|0,3:2|1:2|0:0,0:0:0:0:
244,145,148611,1,2,1:2:0:0:
157,95,148986,2,0,L|58:111,1,100,2|2,3:2|1:2,0:0:0:0:
22,147,149548,2,0,P|16:195|39:239,1,100,2|0,1:2|3:2,0:0:0:0:
78,270,150111,1,0,1:2:0:0:
142,346,150486,6,0,L|240:329,1,100,6|2,3:2|3:2,0:0:0:0:
279,297,151048,1,2,0:2:0:0:
279,297,151236,2,0,L|377:313,1,100,2|2,3:2|3:2,0:0:0:0:
474,289,151986,2,0,P|479:337|456:381,2,100,2|2|2,3:2|3:2|3:2,0:0:0:0:
402,219,153111,1,2,3:2:0:0:
377,313,153486,5,2,3:2:0:0:
377,313,153674,2,0,L|279:297,1,100,2|2,0:2|0:2,0:0:0:0:
229,285,154236,2,0,P|205:241|210:192,1,100,2|2,3:2|3:2,0:0:0:0:
255,104,154986,2,0,L|239:6,2,100,2|2|2,3:2|3:2|3:2,0:0:0:0:
336,161,156111,1,0,3:2:0:0:
401,85,156486,5,2,3:2:0:0:
401,85,156673,2,0,P|450:80|493:104,1,100,2|2,0:2|0:2,0:0:0:0:
509,157,157236,1,2,3:2:0:0:
509,157,157424,2,0,L|493:255,1,100,0|2,0:0|0:2,0:0:0:0:
510,302,157986,1,2,3:2:0:0:
450,382,158361,1,2,3:2:0:0:
361,335,158736,2,0,P|317:311|268:315,1,100,2|0,3:2|3:2,0:0:0:0:
230,346,159298,5,2,0:2:0:0:
230,346,159486,2,0,L|214:248,1,100,2|0,3:2|3:2,0:0:0:0:
261,159,160236,2,0,L|310:166,2,50,8|8|8,0:2|0:2|0:2,0:0:0:0:
237,120,160798,1,8,0:2:0:0:
237,120,160986,2,0,P|193:96|144:100,1,100,0|8,3:2|0:2,0:0:0:0:
69,166,161736,2,0,L|85:264,1,100,10|8,0:2|0:2,0:0:0:0:
100,317,162298,5,8,0:2:0:0:
100,317,162486,2,0,P|145:345|199:336,1,110.000003356934,6|10,3:2|0:2,0:0:0:0:
242,302,163048,1,2,0:2:0:0:
294,205,163423,2,0,L|348:213,2,55.0000016784668,2|10|2,0:2|0:2|0:2,0:0:0:0:
259,161,163986,2,0,L|150:179,1,110.000003356934,2|10,3:2|0:2,0:0:0:0:
110,215,164548,1,2,0:2:0:0:
110,215,164736,2,0,L|102:269,2,55.0000016784668,2|2|10,3:2|0:2|0:2,0:0:0:0:
18,153,165486,6,0,P|-10:107|-1:54,1,110.000003356934,2|8,3:2|0:2,0:0:0:0:
36,13,166048,2,0,L|145:31,1,110.000003356934,2|2,0:2|0:2,0:0:0:0:
216,114,166798,2,0,B|230:168|191:163|203:225,1,110.000003356934,2|2,0:2|0:2,0:0:0:0:
232,273,167361,1,10,0:2:0:0:
232,273,167548,2,0,L|341:255,1,110.000003356934,2|0,0:2|3:2,0:0:0:0:
386,285,168111,1,8,0:2:0:0:
474,220,168486,6,0,P|483:166|454:121,1,110.000003356934,6|8,3:2|0:2,0:0:0:0:
417,89,169048,1,2,0:2:0:0:
417,89,169236,2,0,L|425:34,2,55.0000016784668,2|2|10,3:2|0:2|0:2,0:0:0:0:
320,142,169986,2,0,B|266:128|271:167|209:155,2,110.000003356934,2|10|0,3:2|0:2|3:2,0:0:0:0:
389,227,171111,2,0,L|381:282,1,55.0000016784668,10|2,0:2|0:2,0:0:0:0:
375,336,171486,5,2,3:2:0:0:
267,356,171861,1,10,0:2:0:0:
215,261,172236,1,2,3:2:0:0:
288,180,172611,1,14,0:2:0:0:
389,227,172986,2,0,B|375:173|414:178|402:116,1,110.000003356934,2|8,3:2|0:2,0:0:0:0:
322,45,173736,2,0,L|267:53,2,55.0000016784668,0|0|12,3:2|3:2|0:2,0:0:0:0:
359,4,174298,1,0,0:0:0:0:
359,4,174486,1,2,0:2:0:0:
512,47,188736,6,0,B|458:33|463:72|401:60,1,110.000003356934,6|8,3:2|0:2,0:0:0:0:
366,30,189298,1,2,0:2:0:0:
366,30,189486,1,2,3:2:0:0:
276,94,189861,2,0,L|284:149,1,55.0000016784668,10|2,0:2|0:2,0:0:0:0:
263,200,190236,2,0,L|155:180,2,110.000003356934,2|10|2,3:2|0:2|3:2,0:0:0:0:
349,268,191361,2,0,L|357:323,1,55.0000016784668,10|2,0:2|0:2,0:0:0:0:
328,369,191736,6,0,L|220:349,1,110.000003356934,2|8,3:2|0:2,0:0:0:0:
174,377,192298,1,2,0:2:0:0:
174,377,192486,1,2,3:2:0:0:
90,305,192861,2,0,L|98:250,1,55.0000016784668,10|2,0:2|0:2,0:0:0:0:
105,195,193236,2,0,B|51:181|56:220|-6:208,2,110.000003356934,2|10|2,3:2|0:2|3:2,0:0:0:0:
203,144,194361,2,0,L|195:89,1,55.0000016784668,8|8,0:2|0:0,0:0:0:0:
200,34,194736,6,0,P|245:6|298:14,1,110.000003356934,6|8,3:2|0:2,0:0:0:0:
347,51,195298,1,2,0:2:0:0:
347,51,195486,2,0,L|402:43,2,55.0000016784668,2|2|10,3:2|3:2|0:2,0:0:0:0:
292,147,196236,2,0,B|306:201|267:196|279:258,2,110.000003356934,2|10|2,3:2|0:2|3:2,0:0:0:0:
347,51,197361,1,10,0:2:0:0:
241,7,197736,6,0,P|187:-2|142:26,1,110.000003356934,2|8,3:2|0:2,0:0:0:0:
112,73,198298,1,2,0:2:0:0:
112,73,198486,2,0,L|57:65,2,55.0000016784668,2|2|14,3:2|0:0|0:2,0:0:0:0:
142,125,199048,1,2,0:2:0:0:
142,125,199236,1,2,3:2:0:0:
217,204,199611,1,6,3:2:0:0:
163,300,199986,1,2,3:2:0:0:
56,271,200361,2,0,L|1:282,2,55.0000016784668,14|0|2,0:0|0:0|0:0,0:0:0:0:
0,61,203736,6,0,L|108:80,1,110.000003356934,4|8,3:2|0:0,0:0:0:0:
160,57,204298,1,2,0:0:0:0:
160,57,204486,1,2,3:2:0:0:
229,142,204861,2,0,L|284:134,1,55.0000016784668,10|2,0:0|0:0,0:0:0:0:
338,127,205236,2,0,B|352:73|313:78|325:16,2,110.000003356934,2|10|2,3:2|0:0|3:2,0:0:0:0:
407,212,206361,1,10,3:2:0:0:
339,298,206736,6,0,P|293:270|240:279,1,110.000003356934,2|8,3:2|0:0,0:0:0:0:
215,330,207298,1,2,0:0:0:0:
215,330,207486,2,0,L|223:384,2,55.0000016784668,2|2|10,3:2|0:0|0:0,0:0:0:0:
166,317,208048,1,2,0:0:0:0:
166,317,208236,1,2,3:2:0:0:
78,250,208611,1,12,0:0:0:0:
126,151,208986,2,0,P|172:122|225:132,1,110.000003356934,2|0,3:2|3:0,0:0:0:0:
278,159,209548,5,8,0:0:0:0:
278,159,209736,2,0,B|264:213|303:208|291:270,1,110.000003356934,6|8,3:2|0:0,0:0:0:0:
265,315,210298,1,2,0:0:0:0:
265,315,210486,1,2,3:2:0:0:
360,370,210861,2,0,L|414:362,1,55.0000016784668,10|2,0:0|0:0,0:0:0:0:
460,330,211236,2,0,P|469:277|440:231,2,110.000003356934,2|10|8,3:2|0:0|0:0,0:0:0:0:
360,370,212361,1,10,0:0:0:0:
272,303,212736,6,0,B|218:317|223:278|161:290,1,110.000003356934,6|2,3:2|3:2,0:0:0:0:
126,326,213298,1,2,3:2:0:0:
126,326,213486,2,0,L|134:380,2,55.0000016784668,10|0|10,0:0|3:0|0:0,0:0:0:0:
87,295,214048,1,2,3:2:0:0:
87,295,214236,1,4,3:2:0:0:
9,216,214611,1,12,0:2:0:0:
70,124,214986,1,4,3:2:0:0:
