osu file format v14

[General]
AudioFilename: audio.mp3
AudioLeadIn: 0
PreviewTime: 42486
Countdown: 0
SampleSet: Soft
StackLeniency: 0.4
Mode: 0
LetterboxInBreaks: 0
WidescreenStoryboard: 1

[Editor]
DistanceSpacing: 1.9
BeatDivisor: 4
GridSize: 16
TimelineZoom: 2.5

[Metadata]
Title:Kawaikute Gomen
TitleUnicode:可愛くてごめん
Artist:HoneyWorks feat. Capi
ArtistUnicode:HoneyWorks feat. かぴ
Creator:aundy
Version:Kumocha's Insane
Source:
Tags:Toofu SayuMana Kumocha shirokumocha japanese pop jpop j-pop Confession Executive Committee Kokuhaku Jikkou Iinkai Koishiteru 告白実行委員会 -FLYING SONGS- 恋してる track 7 shito 使徒 Nakamura Chizuru 中村千鶴 Chuu-tan Chutan Chuutan
BeatmapID:3932887
BeatmapSetID:1860175

[Difficulty]
HPDrainRate:5
CircleSize:3.5
OverallDifficulty:7.5
ApproachRate:8.8
SliderMultiplier:1.6
SliderTickRate:1

[Events]
//Background and Video events
0,0,"bg.png",0,0
Video,0,"kurage.mp4"
//Break Periods
2,69486,80482
2,174686,185107
//Storyboard Layer 0 (Background)
//Storyboard Layer 1 (Fail)
//Storyboard Layer 2 (Pass)
//Storyboard Layer 3 (Foreground)
//Storyboard Layer 4 (Overlay)
//Storyboard Sound Samples

[TimingPoints]
486,375,4,2,1,75,1,0
486,-133.333333333333,4,2,1,75,0,0
10986,-105.263157894737,4,2,1,75,0,0
12111,-86.9565217391303,4,2,1,75,0,0
12486,-117.647058823529,4,2,1,60,0,0
24486,-133.333333333333,4,2,1,70,0,0
30486,-117.647058823529,4,2,1,70,0,0
33486,-117.647058823529,4,2,1,70,0,0
36486,-105.263157894737,4,2,1,70,0,0
39486,-181.818181818182,4,2,1,70,0,0
40986,-105.263157894737,4,2,1,70,0,0
42111,-86.9565217391303,4,2,1,70,0,0
42486,-95.2380952380951,4,2,1,85,0,1
66486,-100,4,2,1,60,0,0
67986,-200,4,2,1,60,0,0
69486,-133.333333333333,4,2,1,75,0,0
81111,-117.647058823529,4,2,1,75,0,0
81486,-117.647058823529,4,2,1,60,0,0
93486,-133.333333333333,4,2,1,70,0,0
99486,-117.647058823529,4,2,1,70,0,0
102486,-117.647058823529,4,2,1,70,0,0
105486,-105.263157894737,4,2,1,70,0,0
108486,-222.222222222221,4,2,1,70,0,0
109986,-105.263157894737,4,2,1,70,0,0
111111,-79.9999999999999,4,2,1,70,0,0
111486,-95.2380952380951,4,2,1,85,0,1
135486,-100,4,2,1,60,0,0
136986,-200,4,2,1,60,0,0
138486,-133.333333333333,4,2,1,65,0,0
150486,-117.647058823529,4,2,1,65,0,0
159486,-117.647058823529,4,2,1,70,0,0
160986,-117.647058823529,4,2,1,75,0,0
162486,-105.263157894737,4,2,1,65,0,0
174486,-200,4,2,1,50,0,0
180486,-222.222222222221,4,2,1,50,0,0
188361,-79.9999999999999,4,2,1,50,0,0
188736,375,4,2,1,85,1,0
188736,-95.2380952380951,4,2,1,85,0,1
200736,-100,4,2,1,60,0,0
202236,-200,4,2,1,60,0,0
203736,-105.263157894737,4,2,1,75,0,0
214236,-95.2380952380952,4,2,1,75,0,0

[Colours]
Combo1 : 157,255,255
Combo2 : 255,204,204
Combo3 : 255,255,157
Combo4 : 166,255,166

[HitObjects]
422,114,486,6,0,B|382:83|329:120|364:146|313:192|252:147,1,180.000006866455,6|2,3:2|0:2,0:0:0:0:
165,112,1236,2,0,P|198:233|212:292,1,180.000006866455,6|2,3:2|0:2,0:0:0:0:
292,338,1986,2,0,P|338:295|396:306,2,120.000004577637,6|2|6,3:2|0:2|3:2,0:0:0:0:
210,286,3111,1,2,0:2:0:0:
301,214,3298,1,8,0:2:0:0:
301,214,3392,1,8,0:2:0:0:
301,214,3486,6,0,B|325:191|351:173|351:173|324:125|304:60,1,180.000006866455,6|2,0:2|0:2,0:0:0:0:
237,12,4236,1,6,3:2:0:0:
191,89,4423,1,2,3:2:0:0:
191,89,4517,1,0,3:0:0:0:
191,89,4611,2,0,P|159:100|131:114,1,60.0000022888184,2|2,3:2|3:2,0:0:0:0:
62,193,4986,6,0,P|118:202|128:268,1,120.000004577637,6|2,3:2|0:2,0:0:0:0:
99,346,5548,1,8,0:2:0:0:
99,346,5642,1,8,0:2:0:0:
99,346,5736,2,0,P|58:329|-8:310,2,90.0000034332277,2|0|0,3:2|3:0|3:0,0:0:0:0:
254,221,6486,6,0,P|206:236|118:269,1,120.000004577637,6|0,3:2|0:0,0:0:0:0:
50,192,7048,1,2,0:2:0:0:
139,107,7236,2,0,P|173:111|194:138,1,60.0000022888184,6|2,3:2|0:2,0:0:0:0:
282,186,7611,2,0,P|250:197|235:230,1,60.0000022888184,2|2,3:2|0:2,0:0:0:0:
303,316,7986,6,0,P|335:323|369:334,1,60.0000022888184,6|0,3:2|0:0,0:0:0:0:
456,215,8361,2,0,P|429:239|395:241,1,60.0000022888184,2|0,3:2|0:0,0:0:0:0:
267,167,8736,5,2,3:2:0:0:
361,331,8923,1,8,0:2:0:0:
371,108,9111,1,8,0:2:0:0:
261,309,9298,1,10,0:2:0:0:
406,242,9486,5,2,0:2:0:0:
151,61,10986,5,10,0:2:0:0:
151,61,11079,1,8,0:2:0:0:
151,61,11173,1,0,3:2:0:0:
95,142,11361,1,10,0:2:0:0:
95,142,11454,1,0,3:2:0:0:
95,142,11548,2,0,L|109:189,1,37.9999989852906,0|0,3:2|3:0,0:0:0:0:
190,228,11736,2,0,L|179:264,3,37.9999989852906,2|0|0|0,3:2|3:2|3:2|3:2,0:0:0:0:
50,316,12111,6,0,P|111:335|181:364,1,138.000002632141,10|0,0:2|0:0,0:0:0:0:
263,337,12486,6,0,P|278:304|256:266,1,68.0000012969971,6|2,3:2|0:2,0:0:0:0:
396,198,12861,1,10,0:2:0:0:
357,328,13048,1,2,0:2:0:0:
302,198,13236,1,2,3:2:0:0:
428,288,13423,2,0,P|461:300|495:288,1,68.0000012969971,2|8,0:2|0:0,0:0:0:0:
462,195,13798,1,2,0:2:0:0:
345,274,13986,6,0,B|262:311|262:311|218:286,1,136.000002593994,2|10,3:2|0:2,0:0:0:0:
160,138,14548,1,2,0:2:0:0:
265,210,14736,1,2,3:2:0:0:
133,292,14923,2,0,P|119:254|108:223,1,68.0000012969971,2|8,0:2|0:0,0:0:0:0:
160,138,15298,1,2,0:0:0:0:
5,134,15486,6,0,P|41:145|75:154,1,68.0000012969971,2|2,3:2|0:2,0:0:0:0:
164,38,15861,2,0,P|131:47|98:56,1,68.0000012969971,10|2,0:2|0:2,0:0:0:0:
174,199,16236,1,2,3:2:0:0:
229,99,16423,1,2,0:2:0:0:
100,150,16611,2,0,P|80:177|86:210,1,68.0000012969971,8|0,0:2|0:0,0:0:0:0:
236,308,16986,5,2,3:2:0:0:
177,194,17173,1,2,0:2:0:0:
110,342,17361,2,0,P|77:354|41:366,1,68.0000012969971,10|2,0:2|0:2,0:0:0:0:
212,272,17736,2,0,L|267:287,2,34.0000006484985,2|8|2,3:2|0:2|0:2,0:0:0:0:
72,236,18111,2,0,P|60:186|44:137,1,102.000001945496,10|0,0:2|0:0,0:0:0:0:
62,103,18486,6,0,P|93:123|135:117,1,68.0000012969971,2|2,3:2|0:2,0:0:0:0:
261,40,18861,1,10,3:2:0:0:
214,176,19048,1,2,0:2:0:0:
157,38,19236,1,2,3:2:0:0:
294,127,19423,2,0,P|315:156|308:194,1,68.0000012969971,2|8,0:2|0:0,0:0:0:0:
250,273,19798,1,2,0:2:0:0:
440,231,19986,6,0,P|381:211|307:185,1,136.000002593994,2|10,3:2|0:2,0:0:0:0:
232,35,20548,1,2,0:2:0:0:
348,94,20736,1,2,3:2:0:0:
198,173,20923,2,0,P|233:186|278:212,1,68.0000012969971,2|8,0:2|0:0,0:0:0:0:
406,273,21298,1,0,0:0:0:0:
341,329,21486,6,0,P|327:289|317:258,1,68.0000012969971,2|2,3:2|0:2,0:0:0:0:
398,122,21861,2,0,P|387:154|376:186,1,68.0000012969971,10|0,0:2|0:2,0:0:0:0:
225,256,22236,1,2,3:2:0:0:
284,145,22423,1,2,0:2:0:0:
371,295,22611,2,0,P|327:313|292:323,1,68.0000012969971,8|2,0:2|0:2,0:0:0:0:
192,183,22986,5,2,3:2:0:0:
192,183,23079,1,8,0:2:0:0:
192,183,23173,1,2,0:2:0:0:
321,223,23361,1,10,0:2:0:0:
200,294,23548,1,2,0:2:0:0:
277,140,23736,2,0,L|261:98,3,34.0000006484985,2|8|8|8,3:2|0:2|0:2|0:2,0:0:0:0:
347,200,24111,2,0,L|334:231,3,34.0000006484985,0|0|2|2,3:2|3:0|3:2|3:2,0:0:0:0:
267,291,24486,6,0,P|225:305|201:315,1,60.0000022888184,6|0,3:2|0:0,0:0:0:0:
124,249,24861,1,2,1:2:0:0:
124,249,25048,1,2,1:2:0:0:
209,178,25236,2,0,P|194:143|183:116,1,60.0000022888184,2|0,0:2|3:2,0:0:0:0:
255,50,25611,2,0,P|289:53|312:84,1,60.0000022888184,0|2,1:2|0:2,0:0:0:0:
406,132,25986,6,0,P|371:143|277:177,1,120.000004577637,2|2,3:2|1:2,0:0:0:0:
242,245,26548,1,2,1:2:0:0:
242,245,26642,1,2,0:0:0:0:
242,245,26736,2,0,P|259:281|270:309,1,60.0000022888184,0|0,0:0|3:2,0:0:0:0:
339,369,27111,1,2,1:2:0:0:
404,291,27298,1,0,0:0:0:0:
332,212,27486,6,0,P|364:162|432:182,1,120.000004577637,2|2,3:2|1:2,0:0:0:0:
495,115,28048,1,2,1:2:0:0:
414,66,28236,2,0,P|428:25|441:1,1,60.0000022888184,2|0,0:2|3:2,0:0:0:0:
313,68,28611,2,0,P|325:95|334:123,1,60.0000022888184,0|0,1:2|0:0,0:0:0:0:
307,244,28986,5,2,3:2:0:0:
252,151,29173,1,2,0:2:0:0:
394,199,29361,1,2,1:2:0:0:
394,199,29548,1,2,1:2:0:0:
232,280,29736,1,0,3:2:0:0:
232,280,29829,1,0,3:2:0:0:
232,280,29923,2,0,L|214:232,2,30.0000011444092,0|8|8,3:2|0:0|0:2,0:0:0:0:
313,324,30298,1,2,3:2:0:0:
144,288,30486,6,0,P|82:314|-10:353,1,136.000002593994,14|2,0:2|1:2,0:0:0:0:
157,195,31048,1,2,1:2:0:0:
157,195,31142,1,0,3:0:0:0:
157,195,31236,2,0,P|215:211|231:297,1,136.000002593994,2|2,3:2|1:2,0:0:0:0:
323,191,31798,1,2,0:2:0:0:
187,89,31986,6,0,P|227:101|272:118,1,68.0000012969971,2|0,3:2|0:0,0:0:0:0:
329,31,32361,1,2,1:2:0:0:
404,147,32548,1,0,1:2:0:0:
404,147,32642,1,8,0:2:0:0:
404,147,32736,2,0,P|420:96|426:70,1,68.0000012969971,2|8,3:2|0:2,0:0:0:0:
426,46,33017,1,8,0:2:0:0:
426,46,33111,2,0,P|388:58|353:68,1,68.0000012969971,0|0,1:2|3:2,0:0:0:0:
332,100,33392,1,0,3:0:0:0:
332,100,33486,6,0,P|281:86|183:58,2,136.000002593994,6|0|0,3:2|3:2|3:2,0:0:0:0:
485,167,34423,1,0,3:2:0:0:
414,230,34611,2,0,P|394:184|384:158,1,68.0000012969971,10|2,0:2|0:2,0:0:0:0:
233,96,34986,5,2,3:2:0:0:
311,243,35173,1,2,0:0:0:0:
355,80,35361,1,10,0:2:0:0:
231,194,35548,2,0,P|197:214|160:203,1,68.0000012969971,2|0,3:2|3:2,0:0:0:0:
55,139,35923,1,0,3:2:0:0:
157,48,36111,2,0,P|190:73|184:123,1,68.0000012969971,10|2,0:2|3:2,0:0:0:0:
103,275,36486,6,0,P|138:207|224:224,1,151.999995941162,6|0,3:2|3:2,0:0:0:0:
356,306,37048,1,2,3:2:0:0:
317,114,37236,2,0,P|301:156|288:192,1,75.9999979705811,0|0,3:2|3:2,0:0:0:0:
212,363,37611,2,0,P|198:327|185:291,1,75.9999979705811,2|2,3:2|3:2,0:0:0:0:
135,120,37986,5,10,0:2:0:0:
213,199,38173,1,10,0:2:0:0:
117,104,38361,5,10,0:2:0:0:
128,249,38548,1,10,0:2:0:0:
100,84,38736,5,8,0:2:0:0:
9,237,38923,1,8,0:2:0:0:
119,62,39111,5,10,0:2:0:0:
203,259,39298,1,10,0:2:0:0:
2,183,39486,6,0,B|54:222|109:186|126:114|80:157|100:90|155:51|212:100,1,264.000008056641,6|0,3:2|0:0,0:0:0:0:
201,92,40986,6,0,L|213:37,3,37.9999989852906,0|0|0|8,3:2|3:2|3:2|0:2,0:0:0:0:
261,176,41361,2,0,L|273:211,3,37.9999989852906,8|8|8|0,0:2|0:0|0:2|3:0,0:0:0:0:
322,79,41736,1,0,3:2:0:0:
356,64,41829,1,0,3:0:0:0:
393,70,41923,1,0,3:2:0:0:
421,95,42017,1,0,3:2:0:0:
432,131,42111,6,0,P|401:229|385:300,1,138.000002632141,8|0,0:2|0:0,0:0:0:0:
442,329,42486,6,0,B|415:277|347:292|347:292|363:364,1,167.999994873047,6|8,3:2|0:2,0:0:0:0:
223,237,43048,1,2,0:2:0:0:
331,145,43236,2,0,P|374:160|422:175,1,83.9999974365235,2|0,3:2|0:0,0:0:0:0:
215,106,43611,2,0,P|185:75|206:24,1,83.9999974365235,10|2,0:2|0:2,0:0:0:0:
285,226,43986,6,0,P|258:263|211:265,1,83.9999974365235,2|0,3:2|0:0,0:0:0:0:
85,143,44361,2,0,P|102:190|116:233,1,83.9999974365235,10|2,0:2|0:2,0:0:0:0:
250,122,44736,2,0,L|269:77,2,41.9999987182618,2|8|0,3:2|0:0|3:2,0:0:0:0:
341,301,45111,1,10,0:2:0:0:
206,217,45298,1,2,0:2:0:0:
376,99,45486,6,0,B|399:124|423:140|423:140|395:190|376:244,1,167.999994873047,2|8,3:2|0:2,0:0:0:0:
306,362,46048,1,2,0:2:0:0:
227,191,46236,2,0,P|268:170|313:194,1,83.9999974365235,2|2,3:2|0:2,0:0:0:0:
430,324,46611,2,0,P|389:299|377:252,1,83.9999974365235,10|2,0:2|0:2,0:0:0:0:
405,93,46986,6,0,P|443:116|446:167,1,83.9999974365235,2|0,3:2|0:0,0:0:0:0:
279,98,47361,2,0,P|266:45|253:2,1,83.9999974365235,10|0,0:2|0:0,0:0:0:0:
354,189,47736,2,0,L|335:245,2,41.9999987182618,2|8|0,3:2|0:2|3:2,0:0:0:0:
195,136,48111,2,0,P|136:158|73:182,1,125.999996154785,8|0,0:2|0:0,0:0:0:0:
15,137,48486,6,0,B|67:183|20:245|20:245|13:206|-13:180,1,167.999994873047,6|8,3:2|0:2,0:0:0:0:
112,90,49048,1,2,0:2:0:0:
210,228,49236,2,0,P|163:247|120:265,1,83.9999974365235,2|2,3:2|0:2,0:0:0:0:
285,136,49611,1,10,0:2:0:0:
234,315,49798,1,2,0:2:0:0:
153,141,49986,6,0,P|133:104|145:65,1,83.9999974365235,2|0,3:2|0:0,0:0:0:0:
310,156,50361,2,0,P|294:200|282:240,1,83.9999974365235,10|0,0:2|0:0,0:0:0:0:
280,264,50642,1,0,3:0:0:0:
280,264,50736,2,0,L|296:306,2,41.9999987182618,2|8|0,3:2|0:2|3:2,0:0:0:0:
232,114,51111,1,10,0:2:0:0:
390,186,51298,1,2,0:2:0:0:
230,310,51486,6,0,P|305:292|356:372,1,167.999994873047,2|8,3:2|0:2,0:0:0:0:
466,263,52048,1,2,0:2:0:0:
355,163,52236,2,0,P|312:155|276:185,1,83.9999974365235,2|0,3:2|0:0,0:0:0:0:
212,330,52611,1,10,0:2:0:0:
144,183,52798,1,2,0:2:0:0:
316,274,52986,5,2,3:2:0:0:
316,274,53079,1,8,0:2:0:0:
316,274,53173,1,0,3:2:0:0:
214,337,53361,2,0,P|198:294|185:255,1,83.9999974365235,6|0,3:2|0:2,0:0:0:0:
182,222,53642,1,8,0:0:0:0:
182,222,53736,2,0,L|197:173,3,41.9999987182618,2|0|8|2,3:2|3:0|0:2|3:2,0:0:0:0:
130,117,54111,1,8,0:2:0:0:
97,109,54204,1,8,0:2:0:0:
65,117,54298,1,8,0:2:0:0:
41,140,54392,1,8,0:2:0:0:
30,172,54486,6,0,P|57:283|67:340,1,167.999994873047,4|8,3:2|0:2,0:0:0:0:
168,200,55048,1,2,0:2:0:0:
243,340,55236,2,0,P|202:355|154:373,1,83.9999974365235,2|0,3:2|0:0,0:0:0:0:
300,270,55611,2,0,P|335:294|333:340,1,83.9999974365235,10|2,0:2|0:2,0:0:0:0:
200,198,55986,6,0,P|234:167|275:174,1,83.9999974365235,2|0,3:2|0:0,0:0:0:0:
423,92,56361,2,0,P|380:78|338:63,1,83.9999974365235,10|0,0:2|0:0,0:0:0:0:
310,71,56642,1,8,0:0:0:0:
310,71,56736,2,0,L|263:88,2,41.9999987182618,2|8|0,3:2|0:0|3:2,0:0:0:0:
253,203,57111,1,10,0:2:0:0:
163,65,57298,1,2,0:2:0:0:
49,218,57486,6,0,P|126:215|170:308,1,167.999994873047,2|8,3:2|0:2,0:0:0:0:
353,254,58048,1,2,0:2:0:0:
287,336,58236,2,0,P|267:265|237:171,1,167.999994873047,2|10,3:2|0:2,0:0:0:0:
318,38,58798,1,2,0:2:0:0:
410,156,58986,6,0,P|366:142|320:131,1,83.9999974365235,2|0,3:2|0:0,0:0:0:0:
175,94,59361,2,0,P|216:100|253:63,1,83.9999974365235,10|0,0:2|0:0,0:0:0:0:
262,63,59642,1,0,3:0:0:0:
262,63,59736,2,0,L|275:10,2,41.9999987182618,2|8|0,3:2|0:2|3:2,0:0:0:0:
212,228,60111,1,8,0:2:0:0:
212,228,60204,1,8,0:2:0:0:
212,228,60298,2,0,L|193:175,1,41.9999987182618,8|8,0:2|0:2,0:0:0:0:
136,52,60486,6,0,B|29:15|29:15|51:43|51:76,1,167.999994873047,6|8,3:2|0:2,0:0:0:0:
132,237,61048,1,2,0:2:0:0:
217,92,61236,2,0,P|237:51|213:10,1,83.9999974365235,2|2,3:2|0:2,0:0:0:0:
97,134,61611,1,10,0:2:0:0:
209,193,61798,1,2,0:2:0:0:
88,310,61986,6,0,P|69:254|56:218,1,83.9999974365235,2|0,3:2|0:0,0:0:0:0:
202,365,62361,2,0,P|221:309|234:273,1,83.9999974365235,10|0,0:2|0:0,0:0:0:0:
244,252,62642,1,0,3:0:0:0:
244,252,62736,2,0,L|223:195,2,41.9999987182618,2|8|0,3:2|0:0|3:2,0:0:0:0:
292,100,63111,1,10,0:2:0:0:
145,188,63298,1,2,0:2:0:0:
341,273,63486,6,0,P|388:202|472:224,1,167.999994873047,2|8,3:2|0:2,0:0:0:0:
437,28,64048,1,2,0:2:0:0:
305,132,64236,1,2,3:2:0:0:
305,132,64329,1,2,0:0:0:0:
305,132,64423,1,2,0:2:0:0:
393,185,64611,1,10,0:2:0:0:
258,253,64798,1,2,0:2:0:0:
258,253,64892,1,8,0:2:0:0:
258,253,64986,6,0,L|236:200,1,41.9999987182618,2|0,3:2|3:0,0:0:0:0:
197,106,65173,1,0,3:2:0:0:
197,106,65267,1,0,3:2:0:0:
197,106,65361,2,0,L|180:144,1,41.9999987182618,10|0,0:2|3:0,0:0:0:0:
122,245,65548,2,0,L|176:262,1,41.9999987182618,0|0,3:2|3:0,0:0:0:0:
281,201,65736,2,0,L|227:218,3,41.9999987182618,2|0|0|0,3:2|3:2|3:2|0:0,0:0:0:0:
389,184,66111,6,0,P|339:193|329:269,1,125.999996154785,14|0,0:2|0:0,0:0:0:0:
328,281,66486,1,2,0:2:0:0:
129,195,67236,1,2,0:2:0:0:
330,81,67986,2,0,P|373:79|403:106,2,80,2|2|2,0:2|0:2|0:2,0:0:0:0:
126,112,81111,6,0,L|148:181,1,68.0000012969971,2|0,3:2|0:0,0:0:0:0:
220,234,81486,2,0,P|261:247|303:267,1,68.0000012969971,6|2,3:2|0:2,0:0:0:0:
357,334,81861,2,0,P|316:347|274:367,1,68.0000012969971,2|2,3:2|0:2,0:0:0:0:
431,248,82236,1,2,3:2:0:0:
290,188,82423,2,0,P|309:237|321:271,1,68.0000012969971,2|0,0:2|3:0,0:0:0:0:
387,138,82798,1,2,0:2:0:0:
233,82,82986,6,0,P|279:97|309:108,1,68.0000012969971,2|2,3:2|0:2,0:0:0:0:
222,197,83361,2,0,P|189:207|157:218,1,68.0000012969971,2|2,3:2|0:2,0:0:0:0:
46,145,83736,1,2,3:2:0:0:
58,299,83923,2,0,P|72:253|78:224,1,68.0000012969971,2|0,0:2|3:0,0:0:0:0:
142,107,84298,1,2,0:0:0:0:
213,243,84486,6,0,B|246:254|246:254|290:238,1,68.0000012969971,2|2,3:2|0:2,0:0:0:0:
408,146,84861,1,2,3:2:0:0:
359,290,85048,1,2,0:2:0:0:
300,148,85236,1,2,3:2:0:0:
435,237,85423,2,0,P|458:270|445:307,1,68.0000012969971,2|0,0:2|3:0,0:0:0:0:
325,255,85798,1,2,0:0:0:0:
483,157,85986,6,0,P|418:126|327:109,1,136.000002593994,2|2,3:2|3:2,0:0:0:0:
217,180,86548,1,2,0:2:0:0:
350,238,86736,1,2,3:2:0:0:
207,309,86923,1,2,3:2:0:0:
207,309,87017,1,0,3:0:0:0:
207,309,87111,2,0,L|160:330,2,34.0000006484985,10|0|0,0:2|3:2|3:2,0:0:0:0:
340,219,87486,6,0,P|312:147|294:89,1,136.000002593994,6|10,3:2|0:2,0:0:0:0:
160,20,88048,1,2,0:2:0:0:
219,163,88236,1,2,3:2:0:0:
294,7,88423,2,0,P|337:19|378:31,1,68.0000012969971,2|8,0:2|0:0,0:0:0:0:
489,99,88798,1,2,0:2:0:0:
335,202,88986,5,2,3:2:0:0:
404,108,89173,1,2,0:2:0:0:
476,266,89361,2,0,P|428:286|397:296,1,68.0000012969971,10|2,0:2|0:2,0:0:0:0:
252,218,89736,1,2,3:2:0:0:
351,195,89923,2,0,P|336:232|327:263,1,68.0000012969971,2|8,0:2|0:0,0:0:0:0:
443,152,90298,1,2,0:0:0:0:
319,73,90486,6,0,P|278:72|250:98,1,68.0000012969971,2|2,3:2|0:2,0:0:0:0:
201,228,90861,1,10,3:2:0:0:
145,76,91048,1,2,0:2:0:0:
287,173,91236,2,0,L|338:192,2,34.0000006484985,2|2|2,3:2|0:0|0:2,0:0:0:0:
145,76,91611,2,0,P|103:93|67:109,1,68.0000012969971,8|2,0:0|0:2,0:0:0:0:
131,270,91986,5,2,3:2:0:0:
211,140,92173,1,2,0:2:0:0:
273,332,92361,2,0,P|320:313|350:297,1,68.0000012969971,14|2,0:2|0:2,0:0:0:0:
131,270,92736,2,0,P|84:251|54:235,1,68.0000012969971,2|10,3:2|0:2,0:0:0:0:
28,219,93017,1,8,0:2:0:0:
28,219,93111,2,0,L|15:177,2,34.0000006484985,8|8|10,0:2|0:2|0:2,0:0:0:0:
131,147,93486,6,0,P|148:98|157:69,1,60.0000022888184,6|0,3:2|0:0,0:0:0:0:
225,22,93861,1,2,1:2:0:0:
225,22,94048,1,2,1:2:0:0:
285,99,94236,2,0,P|326:112|354:124,1,60.0000022888184,2|0,0:2|3:2,0:0:0:0:
436,20,94611,2,0,P|397:24|383:37,1,60.0000022888184,0|2,1:2|0:2,0:0:0:0:
341,118,94986,6,0,P|399:137|476:165,1,120.000004577637,2|2,3:2|1:2,0:0:0:0:
502,246,95548,1,2,1:2:0:0:
502,246,95642,1,2,0:0:0:0:
502,246,95736,2,0,P|489:284|480:313,1,60.0000022888184,0|0,0:0|3:2,0:0:0:0:
415,373,96111,1,2,1:2:0:0:
347,303,96298,1,0,0:0:0:0:
419,210,96486,6,0,P|394:159|323:164,1,120.000004577637,2|2,3:2|1:2,0:0:0:0:
273,224,97048,1,2,1:2:0:0:
273,224,97236,2,0,P|238:235|205:248,1,60.0000022888184,2|0,0:2|3:2,0:0:0:0:
333,340,97611,2,0,P|304:329|276:320,1,60.0000022888184,0|2,1:2|0:0,0:0:0:0:
119,339,97986,5,2,3:2:0:0:
216,243,98173,1,2,0:2:0:0:
107,184,98361,1,2,1:2:0:0:
107,184,98548,1,2,1:2:0:0:
207,331,98736,1,0,3:2:0:0:
207,331,98829,1,0,3:2:0:0:
207,331,98923,2,0,L|221:380,2,30.0000011444092,0|8|8,3:2|0:2|0:2,0:0:0:0:
124,267,99298,1,2,3:2:0:0:
238,174,99486,6,0,P|303:171|340:235,1,136.000002593994,14|2,0:2|1:2,0:0:0:0:
391,375,100048,1,2,1:2:0:0:
421,282,100236,2,0,P|366:300|302:329,1,102.000001945496,2|0,3:2|0:0,0:0:0:0:
283,317,100611,2,0,P|267:285|279:247,1,68.0000012969971,2|2,1:2|0:2,0:0:0:0:
388,168,100986,6,0,P|430:183|471:196,1,68.0000012969971,2|0,3:2|0:0,0:0:0:0:
284,99,101361,2,0,P|242:114|201:127,1,68.0000012969971,2|0,1:2|1:2,0:0:0:0:
191,144,101642,1,0,3:2:0:0:
191,144,101736,2,0,L|209:190,1,34.0000006484985,2|0,3:2|3:0,0:0:0:0:
260,243,101923,2,0,L|242:289,2,34.0000006484985,8|8|0,0:2|0:2|1:2,0:0:0:0:
83,325,102298,1,0,3:2:0:0:
83,325,102392,1,0,3:2:0:0:
83,325,102486,6,0,P|156:349|237:386,1,136.000002593994,6|0,3:2|3:2,0:0:0:0:
346,271,103048,1,2,0:0:0:0:
346,271,103142,1,0,3:0:0:0:
346,271,103236,2,0,P|326:320|317:353,1,68.0000012969971,0|0,3:2|3:2,0:0:0:0:
306,176,103611,1,10,0:2:0:0:
428,253,103798,1,2,0:2:0:0:
241,294,103986,6,0,P|204:307|172:325,1,68.0000012969971,2|2,3:2|0:0,0:0:0:0:
61,250,104361,1,10,0:2:0:0:
165,162,104548,1,2,0:2:0:0:
165,162,104642,1,0,3:2:0:0:
165,162,104736,2,0,P|188:196|184:222,1,68.0000012969971,0|0,3:2|3:2,0:0:0:0:
101,356,105111,1,10,0:2:0:0:
253,300,105298,1,2,0:2:0:0:
253,300,105392,1,0,3:2:0:0:
253,300,105486,6,0,P|312:284|407:242,1,151.999995941162,6|0,3:2|3:2,0:0:0:0:
443,100,106048,1,2,3:2:0:0:
297,195,106236,2,0,P|278:148|266:121,1,75.9999979705811,0|0,3:2|3:2,0:0:0:0:
390,346,106611,2,0,P|409:299|421:272,1,75.9999979705811,2|2,3:2|3:2,0:0:0:0:
371,135,106986,5,10,0:2:0:0:
295,282,107173,1,10,0:2:0:0:
295,79,107361,5,10,0:2:0:0:
401,253,107548,1,10,0:2:0:0:
366,29,107736,5,8,0:2:0:0:
264,221,107923,1,8,0:2:0:0:
264,221,108017,1,8,0:2:0:0:
264,221,108111,2,0,L|218:240,3,37.9999989852906,10|8|10|8,0:2|0:2|0:2|0:2,0:0:0:0:
154,326,108486,6,0,P|105:169|86:117,1,215.999993408203,6|2,3:2|0:0,0:0:0:0:
159,56,109986,5,2,3:2:0:0:
159,56,110079,1,8,0:2:0:0:
159,56,110173,2,0,L|239:88,1,75.9999979705811,8|0,0:2|3:2,0:0:0:0:
318,143,110454,1,0,3:2:0:0:
318,143,110548,2,0,L|238:175,1,75.9999979705811,8|0,0:2|0:0,0:0:0:0:
125,240,110923,6,0,L|143:282,1,37.9999989852906,0|0,3:2|3:2,0:0:0:0:
223,355,111111,1,8,0:2:0:0:
223,355,111204,1,0,3:0:0:0:
223,355,111298,2,0,L|246:283,1,50,0|0,3:0|3:0,0:0:0:0:
319,175,111486,6,0,B|282:178|242:220|242:220|195:206|185:158,1,167.999994873047,6|8,3:2|0:2,0:0:0:0:
259,39,112048,1,2,0:2:0:0:
337,203,112236,2,0,P|383:219|427:197,1,83.9999974365235,2|0,3:2|0:0,0:0:0:0:
395,40,112611,2,0,P|352:67|343:103,1,83.9999974365235,10|2,0:2|0:2,0:0:0:0:
510,184,112986,6,0,P|490:141|451:125,1,83.9999974365235,2|0,3:2|0:0,0:0:0:0:
307,220,113361,2,0,P|327:272|337:311,1,83.9999974365235,10|0,0:2|0:0,0:0:0:0:
325,340,113642,1,0,3:0:0:0:
325,340,113736,2,0,L|271:322,2,41.9999987182618,2|8|0,3:2|0:0|3:2,0:0:0:0:
414,206,114111,1,10,0:2:0:0:
477,373,114298,1,2,0:2:0:0:
317,230,114486,6,0,P|242:226|208:312,1,167.999994873047,2|8,3:2|0:2,0:0:0:0:
78,207,115048,1,2,0:2:0:0:
200,116,115236,2,0,L|239:130,2,41.9999987182618,2|0|0,3:2|3:0|0:0,0:0:0:0:
46,40,115611,1,10,0:2:0:0:
110,178,115798,1,2,0:2:0:0:
186,24,115986,6,0,P|232:17|265:42,1,83.9999974365235,2|0,3:2|0:0,0:0:0:0:
372,132,116361,2,0,P|336:143|282:164,1,83.9999974365235,10|0,0:2|0:0,0:0:0:0:
259,171,116642,1,0,3:0:0:0:
259,171,116736,2,0,L|211:155,2,41.9999987182618,2|8|0,3:2|0:2|3:2,0:0:0:0:
359,307,117111,2,0,P|384:273|357:228,1,83.9999974365235,8|0,0:2|0:0,0:0:0:0:
130,314,117486,6,0,P|207:342|300:381,1,167.999994873047,6|8,3:2|0:2,0:0:0:0:
453,279,118048,1,2,0:2:0:0:
388,213,118236,2,0,B|339:250|339:250|390:370,1,167.999994873047,2|10,3:2|0:2,0:0:0:0:
453,279,118798,1,2,0:2:0:0:
301,165,118986,6,0,P|260:181|215:197,1,83.9999974365235,2|0,3:2|0:0,0:0:0:0:
78,55,119361,2,0,P|127:53|155:83,1,83.9999974365235,10|0,0:2|0:0,0:0:0:0:
99,220,119736,1,2,3:2:0:0:
99,220,119829,1,8,0:2:0:0:
99,220,119923,1,0,3:2:0:0:
236,100,120111,1,10,0:2:0:0:
242,284,120298,1,2,0:2:0:0:
130,117,120486,6,0,B|84:72|26:96|26:96|39:169,1,167.999994873047,2|8,3:2|0:2,0:0:0:0:
127,314,121048,1,2,0:2:0:0:
224,162,121236,2,0,L|209:121,2,41.9999987182618,2|0|0,3:2|3:0|0:0,0:0:0:0:
400,243,121611,1,10,0:2:0:0:
331,46,121798,1,10,0:2:0:0:
331,46,121892,1,8,0:2:0:0:
331,46,121986,6,0,P|316:91|299:133,1,83.9999974365235,2|0,3:2|3:2,0:0:0:0:
210,262,122361,2,0,L|195:216,3,41.9999987182618,6|0|0|8,3:2|3:0|3:2|0:0,0:0:0:0:
293,341,122736,1,2,3:2:0:0:
293,341,122829,1,0,3:0:0:0:
293,341,122923,2,0,L|307:298,1,41.9999987182618,8|10,0:2|0:2,0:0:0:0:
393,197,123111,1,8,0:2:0:0:
424,207,123204,1,8,0:2:0:0:
447,231,123298,1,8,0:2:0:0:
457,263,123392,1,8,0:2:0:0:
452,296,123486,6,0,B|358:349|358:349|320:337|308:309,1,167.999994873047,4|8,3:2|0:2,0:0:0:0:
226,200,124048,1,2,0:2:0:0:
349,106,124236,2,0,P|400:105|432:135,1,83.9999974365235,2|0,3:2|0:0,0:0:0:0:
364,319,124611,1,10,0:2:0:0:
282,148,124798,1,2,0:2:0:0:
448,220,124986,6,0,P|470:262|455:298,1,83.9999974365235,2|0,3:2|0:0,0:0:0:0:
296,367,125361,2,0,P|279:314|265:281,1,83.9999974365235,10|0,0:2|0:0,0:0:0:0:
263,251,125642,1,0,3:0:0:0:
263,251,125736,2,0,L|281:205,2,41.9999987182618,2|8|2,3:2|0:0|3:2,0:0:0:0:
219,98,126111,1,10,0:2:0:0:
376,180,126298,1,2,0:2:0:0:
190,329,126486,6,0,P|153:206|130:143,1,167.999994873047,2|8,3:2|0:2,0:0:0:0:
305,86,127048,1,2,0:2:0:0:
253,240,127236,1,2,3:2:0:0:
207,66,127423,1,2,0:2:0:0:
344,193,127611,1,10,0:2:0:0:
187,51,127798,1,2,0:2:0:0:
234,297,127986,6,0,P|249:235|256:205,1,83.9999974365235,2|0,3:2|0:0,0:0:0:0:
358,94,128361,2,0,P|406:92|433:123,1,83.9999974365235,10|8,0:2|0:2,0:0:0:0:
455,151,128642,1,8,0:2:0:0:
455,151,128736,2,0,L|437:212,1,41.9999987182618,2|0,3:2|3:0,0:0:0:0:
372,280,128923,2,0,L|360:239,1,41.9999987182618,8|8,3:2|3:2,0:0:0:0:
278,123,129111,1,2,3:2:0:0:
248,115,129204,1,0,3:0:0:0:
218,122,129298,1,8,0:2:0:0:
195,142,129392,1,8,0:2:0:0:
184,171,129486,6,0,B|220:274|220:274|224:236|246:219,1,167.999994873047,6|8,3:2|0:2,0:0:0:0:
341,139,130048,1,2,0:2:0:0:
195,62,130236,2,0,P|146:81|103:103,1,83.9999974365235,2|0,3:2|0:0,0:0:0:0:
201,264,130611,1,10,0:2:0:0:
277,129,130798,1,2,0:2:0:0:
119,230,130986,6,0,P|80:247|39:234,1,83.9999974365235,2|0,3:2|0:0,0:0:0:0:
123,62,131361,2,0,P|162:51|200:68,1,83.9999974365235,10|0,0:2|0:0,0:0:0:0:
225,102,131642,1,0,3:0:0:0:
225,102,131736,2,0,L|244:153,2,41.9999987182618,2|8|0,3:2|0:2|3:2,0:0:0:0:
321,262,132111,1,10,0:2:0:0:
176,210,132298,1,2,0:2:0:0:
329,103,132486,6,0,P|409:111|427:186,1,167.999994873047,2|8,3:2|0:2,0:0:0:0:
368,343,133048,1,2,0:2:0:0:
285,180,133236,1,2,3:2:0:0:
454,277,133423,1,2,0:2:0:0:
279,269,133611,1,10,0:2:0:0:
427,181,133798,1,2,0:2:0:0:
263,285,133986,6,0,P|214:307|171:329,1,83.9999974365235,6|0,3:2|3:2,0:0:0:0:
150,323,134267,1,8,0:2:0:0:
150,323,134361,2,0,L|123:271,1,41.9999987182618,10|0,0:0|3:2,0:0:0:0:
226,165,134548,1,0,3:0:0:0:
226,165,134642,1,0,3:0:0:0:
226,165,134736,2,0,L|205:222,3,41.9999987182618,0|0|0|0,3:2|3:2|3:2|3:2,0:0:0:0:
135,85,135111,6,0,P|73:83|37:141,1,125.999996154785,14|0,0:2|0:0,0:0:0:0:
41,166,135486,1,2,0:2:0:0:
188,348,136236,1,2,0:2:0:0:
289,124,136986,2,0,P|270:69|257:39,2,80,2|2|2,0:2|0:2|0:2,0:0:0:0:
417,289,138298,1,2,0:2:0:0:
339,249,138486,6,0,P|287:272|213:303,1,120.000004577637,6|2,3:2|1:2,0:0:0:0:
160,369,139048,1,2,1:2:0:0:
160,369,139236,2,0,P|144:308|121:249,1,120.000004577637,2|0,0:0|1:2,0:0:0:0:
46,199,139798,1,2,0:0:0:0:
150,135,139986,6,0,P|212:129|247:183,1,120.000004577637,2|2,3:2|1:2,0:0:0:0:
312,239,140548,1,2,1:2:0:0:
312,239,140736,2,0,P|347:248|380:265,1,60.0000022888184,2|0,0:2|3:2,0:0:0:0:
479,170,141111,2,0,P|456:189|420:186,1,60.0000022888184,2|2,1:2|0:0,0:0:0:0:
332,125,141486,6,0,P|309:53|293:7,1,120.000004577637,2|2,3:2|1:2,0:0:0:0:
225,86,142048,1,2,1:2:0:0:
225,86,142236,2,0,L|208:158,1,60.0000022888184,2|0,0:0|3:2,0:0:0:0:
293,226,142611,2,0,P|245:234|218:271,1,90.0000034332277,0|0,1:2|0:0,0:0:0:0:
205,295,142986,6,0,L|126:267,2,60.0000022888184,2|2|2,3:2|0:0|1:2,0:0:0:0:
143,171,143548,2,0,P|82:197|18:223,1,120.000004577637,2|0,1:2|3:2,0:0:0:0:
56,354,144111,2,0,P|64:316|79:272,1,60.0000022888184,0|2,1:2|0:2,0:0:0:0:
202,236,144486,6,0,P|245:259|238:323,1,120.000004577637,2|2,3:2|1:2,0:0:0:0:
329,364,145048,1,2,1:2:0:0:
329,364,145236,2,0,P|403:332|456:314,1,120.000004577637,2|0,0:0|1:2,0:0:0:0:
498,250,145798,1,2,0:0:0:0:
398,205,145986,6,0,B|370:169|370:169|400:91,1,120.000004577637,2|2,3:2|1:2,0:0:0:0:
326,40,146548,1,2,1:2:0:0:
326,40,146736,2,0,P|285:58|251:75,1,60.0000022888184,2|0,0:2|3:2,0:0:0:0:
188,148,147111,2,0,P|242:148|268:200,1,90.0000034332277,2|0,1:2|0:0,0:0:0:0:
284,192,147486,6,0,P|260:262|244:319,1,120.000004577637,2|2,3:2|1:2,0:0:0:0:
179,237,148048,1,2,1:2:0:0:
342,296,148236,2,0,P|373:281|407:269,1,60.0000022888184,2|0,0:0|3:2,0:0:0:0:
240,356,148611,2,0,P|209:341|175:329,1,60.0000022888184,2|0,1:2|0:0,0:0:0:0:
155,324,148892,1,2,0:0:0:0:
155,324,148986,5,2,3:2:0:0:
237,245,149173,1,0,3:2:0:0:
91,173,149361,2,0,P|112:223|124:254,1,60.0000022888184,2|2,1:2|1:2,0:0:0:0:
215,138,149736,1,0,3:2:0:0:
75,77,149923,2,0,L|23:100,2,30.0000011444092,0|0|0,3:2|3:2|1:2,0:0:0:0:
197,203,150298,1,2,0:2:0:0:
197,203,150392,1,0,3:2:0:0:
197,203,150486,6,0,L|218:122,1,68.0000012969971,6|0,3:2|0:0,0:0:0:0:
292,62,150861,2,0,L|309:127,1,68.0000012969971,2|2,3:2|0:2,0:0:0:0:
180,217,151236,2,0,L|201:136,1,68.0000012969971,2|2,3:2|0:2,0:0:0:0:
315,233,151611,1,2,3:2:0:0:
224,299,151798,1,2,0:2:0:0:
281,159,151986,6,0,P|315:147|351:163,1,68.0000012969971,2|2,3:2|0:2,0:0:0:0:
400,285,152361,1,2,3:2:0:0:
455,166,152548,1,2,0:2:0:0:
326,249,152736,2,0,P|313:280|322:314,1,68.0000012969971,2|0,3:2|0:0,0:0:0:0:
476,230,153111,2,0,P|460:182|452:155,1,68.0000012969971,2|2,3:2|0:2,0:0:0:0:
377,72,153486,6,0,B|293:48|293:48|245:87,1,136.000002593994,2|0,3:2|3:2,0:0:0:0:
194,202,154048,1,2,0:2:0:0:
144,72,154236,1,2,3:2:0:0:
272,163,154423,1,2,0:2:0:0:
144,72,154611,2,0,P|106:67|74:93,1,68.0000012969971,2|2,3:2|0:2,0:0:0:0:
24,200,154986,6,0,P|63:210|100:220,1,68.0000012969971,2|2,3:2|0:2,0:0:0:0:
228,272,155361,1,2,3:2:0:0:
111,344,155548,1,2,0:2:0:0:
174,204,155736,2,0,P|186:163|177:140,1,68.0000012969971,2|0,3:2|0:0,0:0:0:0:
31,45,156111,2,0,P|49:86|57:122,1,68.0000012969971,0|2,3:2|0:2,0:0:0:0:
68,264,156486,5,2,3:2:0:0:
68,264,156673,2,0,P|116:207|190:232,1,136.000002593994,2|2,0:2|0:2,0:0:0:0:
263,290,157236,2,0,P|248:324|234:365,1,68.0000012969971,2|0,3:2|0:0,0:0:0:0:
249,179,157611,2,0,P|237:147|223:115,1,68.0000012969971,0|2,3:2|0:2,0:0:0:0:
385,41,157986,5,2,3:2:0:0:
342,160,158173,1,2,0:2:0:0:
296,18,158361,1,2,3:2:0:0:
425,125,158548,1,2,0:2:0:0:
264,210,158736,2,0,P|248:163|236:126,1,68.0000012969971,2|0,3:2|0:0,0:0:0:0:
387,274,159111,2,0,P|376:306|365:338,1,68.0000012969971,0|2,3:2|0:2,0:0:0:0:
242,145,159486,6,0,P|186:134|145:210,1,136.000002593994,2|0,3:2|3:2,0:0:0:0:
219,370,160048,1,8,0:2:0:0:
294,207,160236,1,8,0:2:0:0:
123,288,160423,1,8,0:2:0:0:
324,351,160611,1,8,0:2:0:0:
166,180,160798,1,8,0:2:0:0:
381,213,160986,6,0,L|302:250,1,68.0000012969971,0|8,3:2|0:2,0:0:0:0:
277,241,161267,1,8,0:2:0:0:
277,241,161361,2,0,L|255:189,3,34.0000006484985,8|8|8|0,0:2|0:2|0:2|3:2,0:0:0:0:
200,146,161736,1,10,0:2:0:0:
200,146,161829,1,8,0:0:0:0:
200,146,161923,2,0,L|218:83,1,34.0000006484985,0|0,3:2|3:2,0:0:0:0:
295,42,162111,1,8,0:2:0:0:
328,35,162204,1,8,0:2:0:0:
360,45,162298,1,8,0:2:0:0:
383,69,162392,1,8,0:2:0:0:
392,102,162486,6,0,P|373:165|365:197,1,75.9999979705811,6|2,3:2|0:2,0:0:0:0:
299,242,162861,1,10,0:2:0:0:
468,279,163048,2,0,P|415:277|368:311,1,113.999996955872,2|0,0:2|0:0,0:0:0:0:
352,337,163423,1,2,0:2:0:0:
211,274,163611,1,10,0:2:0:0:
305,139,163798,1,2,0:2:0:0:
195,181,163986,6,0,P|283:217|342:236,1,151.999995941162,2|10,3:2|0:2,0:0:0:0:
432,115,164548,1,2,0:2:0:0:
432,115,164642,1,8,0:2:0:0:
432,115,164736,2,0,L|387:125,2,37.9999989852906,2|8|2,3:2|0:0|0:2,0:0:0:0:
267,31,165111,2,0,P|289:88|303:144,1,113.999996955872,10|2,0:2|0:2,0:0:0:0:
332,229,165486,6,0,P|286:163|205:172,1,151.999995941162,2|8,3:2|0:2,0:0:0:0:
146,260,166048,2,0,L|166:308,2,37.9999989852906,2|0|0,0:2|3:0|3:0,0:0:0:0:
77,117,166423,2,0,P|60:170|46:211,1,75.9999979705811,2|8,0:2|0:2,0:0:0:0:
223,132,166798,6,0,P|245:80|212:36,1,113.999996955872,2|0,0:2|0:0,0:0:0:0:
186,21,167173,1,2,0:2:0:0:
77,117,167361,1,10,0:2:0:0:
216,229,167548,1,2,0:2:0:0:
216,229,167642,1,8,0:2:0:0:
216,229,167736,2,0,P|260:213|292:204,1,75.9999979705811,0|0,3:2|3:2,0:0:0:0:
323,198,168017,1,8,0:0:0:0:
323,198,168111,2,0,L|342:140,1,37.9999989852906,8|0,0:2|3:0,0:0:0:0:
300,65,168298,1,8,0:2:0:0:
300,65,168392,1,8,0:2:0:0:
300,65,168486,6,0,P|356:49|416:129,1,151.999995941162,6|8,3:2|0:2,0:0:0:0:
457,270,169048,1,2,0:2:0:0:
341,135,169236,1,2,3:2:0:0:
346,316,169423,1,2,0:2:0:0:
445,164,169611,1,10,0:2:0:0:
484,355,169798,1,2,0:2:0:0:
308,213,169986,6,0,P|233:247|162:275,2,151.999995941162,2|10|0,3:2|0:2|3:2,0:0:0:0:
486,224,170923,1,0,0:0:0:0:
421,283,171111,2,0,P|400:233|390:204,1,75.9999979705811,10|2,0:2|0:2,0:0:0:0:
212,311,171486,6,0,P|320:348|388:374,1,151.999995941162,2|10,3:2|0:2,0:0:0:0:
302,179,172048,1,2,0:0:0:0:
302,179,172236,2,0,P|264:192|223:208,1,75.9999979705811,2|0,3:2|0:0,0:0:0:0:
83,95,172611,2,0,P|124:135|104:199,1,113.999996955872,14|0,0:2|0:0,0:0:0:0:
114,222,172986,5,2,3:2:0:0:
238,318,173173,1,0,3:2:0:0:
238,318,173267,1,8,0:2:0:0:
238,318,173361,2,0,L|289:303,1,37.9999989852906,8|8,0:2|0:0,0:0:0:0:
342,221,173548,2,0,L|291:206,1,37.9999989852906,8|8,0:2|0:2,0:0:0:0:
226,151,173736,2,0,L|214:113,3,37.9999989852906,0|0|0|0,3:2|3:2|3:2|3:2,0:0:0:0:
287,52,174111,2,0,P|348:52|375:116,1,113.999996955872,12|0,0:2|0:0,0:0:0:0:
374,122,174486,5,2,0:2:0:0:
411,226,185736,6,0,P|371:241|334:257,1,71.9999978027344,2|2,0:0|0:0,0:0:0:0:
274,204,186298,1,2,0:0:0:0:
274,204,186486,2,0,L|256:164,1,35.9999989013672,2|2,0:0|0:0,0:0:0:0:
210,105,186861,2,0,L|228:65,1,35.9999989013672,2|2,0:0|0:0,0:0:0:0:
152,187,187236,6,0,P|115:205|78:225,2,71.9999978027344,2|2|2,0:0|0:0|0:0,0:0:0:0:
222,133,188361,6,0,L|205:88,6,25,2|0|0|0|0|0|0,0:0|0:0|0:0|0:0|0:0|0:0|0:0,0:0:0:0:
269,42,188736,6,0,P|342:61|443:100,1,167.999994873047,6|8,3:2|0:2,0:0:0:0:
347,261,189298,1,2,0:2:0:0:
271,149,189486,2,0,P|226:134|189:156,1,83.9999974365235,2|0,3:2|0:0,0:0:0:0:
129,318,189861,2,0,P|167:280|168:246,1,83.9999974365235,10|2,0:2|0:2,0:0:0:0:
34,148,190236,6,0,P|69:180|109:178,1,83.9999974365235,2|0,3:2|0:0,0:0:0:0:
225,25,190611,2,0,P|186:39|140:58,1,83.9999974365235,10|0,0:2|0:0,0:0:0:0:
114,63,190892,1,0,3:0:0:0:
114,63,190986,2,0,L|56:46,2,41.9999987182618,2|8|0,3:2|0:0|3:2,0:0:0:0:
272,139,191361,1,10,0:2:0:0:
88,210,191548,1,2,0:2:0:0:
210,33,191736,6,0,P|180:144|166:208,1,167.999994873047,2|8,3:2|0:2,0:0:0:0:
218,345,192298,1,2,0:2:0:0:
68,197,192486,2,0,P|85:254|99:304,1,83.9999974365235,2|2,3:2|0:2,0:0:0:0:
248,182,192861,1,10,0:2:0:0:
97,101,193048,1,2,0:2:0:0:
179,267,193236,5,2,3:2:0:0:
179,267,193329,1,8,0:2:0:0:
179,267,193423,1,0,3:2:0:0:
248,182,193611,2,0,P|294:198|349:219,1,83.9999974365235,10|0,0:2|0:0,0:0:0:0:
231,351,193986,2,0,P|185:367|130:388,1,83.9999974365235,2|8,3:2|0:0,0:0:0:0:
116,373,194267,1,8,0:0:0:0:
116,373,194361,2,0,L|99:322,1,41.9999987182618,8|0,0:2|3:0,0:0:0:0:
231,210,194548,1,8,0:0:0:0:
231,210,194642,1,8,0:0:0:0:
231,210,194736,6,0,B|280:248|280:248|236:351,1,167.999994873047,6|8,3:2|0:2,0:0:0:0:
112,220,195298,1,2,0:2:0:0:
274,128,195486,1,2,3:2:0:0:
113,51,195673,1,2,3:2:0:0:
195,232,195861,1,10,0:2:0:0:
245,36,196048,1,2,0:2:0:0:
108,173,196236,6,0,P|87:205|104:255,1,83.9999974365235,2|0,3:2|0:0,0:0:0:0:
281,152,196611,2,0,P|265:101|250:57,1,83.9999974365235,10|0,0:2|0:0,0:0:0:0:
230,54,196892,1,0,3:0:0:0:
230,54,196986,2,0,L|242:1,2,41.9999987182618,2|8|0,3:2|0:0|3:2,0:0:0:0:
381,136,197361,1,10,0:2:0:0:
218,222,197548,1,2,0:2:0:0:
329,58,197736,6,0,B|375:18|418:45|418:45|433:100|498:95,1,167.999994873047,2|8,3:2|0:2,0:0:0:0:
381,256,198298,1,2,0:2:0:0:
293,133,198486,1,2,3:2:0:0:
279,312,198673,1,2,0:0:0:0:
385,149,198861,1,14,0:2:0:0:
467,344,199048,1,2,0:2:0:0:
467,344,199142,1,8,0:0:0:0:
467,344,199236,6,0,P|418:366|365:395,1,83.9999974365235,2|8,3:2|0:0,0:0:0:0:
320,330,199517,1,8,0:0:0:0:
320,330,199611,2,0,L|300:276,1,41.9999987182618,6|0,3:2|3:0,0:0:0:0:
374,166,199798,2,0,L|359:205,1,41.9999987182618,8|8,0:0|0:0,0:0:0:0:
208,321,199986,1,2,3:2:0:0:
215,290,200079,1,0,3:2:0:0:
223,260,200173,1,0,3:2:0:0:
231,230,200267,1,0,3:2:0:0:
238,200,200361,6,0,P|292:200|317:282,1,125.999996154785,14|0,0:0|0:0,0:0:0:0:
325,287,200736,1,2,0:0:0:0:
456,218,201486,1,2,0:0:0:0:
203,99,202236,2,0,P|144:123|125:128,2,80,2|2|2,0:0|0:0|0:0,0:0:0:0:
458,75,203736,6,0,P|387:78|371:147,1,151.999995941162,4|8,3:2|0:0,0:0:0:0:
314,302,204298,1,2,0:0:0:0:
248,144,204486,1,2,3:2:0:0:
396,243,204673,1,2,0:0:0:0:
218,234,204861,1,10,0:0:0:0:
371,146,205048,1,2,0:0:0:0:
306,313,205236,6,0,P|271:338|237:335,1,75.9999979705811,2|0,3:2|0:0,0:0:0:0:
106,222,205611,2,0,P|148:206|185:192,1,75.9999979705811,10|0,0:0|0:0,0:0:0:0:
211,185,205892,1,0,3:0:0:0:
211,185,205986,2,0,L|260:200,2,37.9999989852906,2|8|0,3:2|0:0|3:2,0:0:0:0:
83,120,206361,1,10,3:2:0:0:
140,263,206548,1,2,0:0:0:0:
210,98,206736,6,0,B|243:75|286:103|267:123|304:155|347:130,1,151.999995941162,2|8,3:2|0:0,0:0:0:0:
484,185,207298,1,2,0:0:0:0:
328,244,207486,1,2,3:2:0:0:
426,106,207673,1,2,0:0:0:0:
442,279,207861,1,10,0:0:0:0:
351,147,208048,1,2,0:0:0:0:
304,340,208236,6,0,L|257:359,2,37.9999989852906,2|8|0,3:2|0:0|0:0,0:0:0:0:
458,256,208611,2,0,P|403:237|361:224,1,75.9999979705811,12|0,0:0|3:0,0:0:0:0:
347,222,208892,1,8,0:0:0:0:
347,222,208986,2,0,L|327:158,1,37.9999989852906,2|0,3:2|3:0,0:0:0:0:
266,69,209173,1,8,0:0:0:0:
266,69,209267,1,8,0:0:0:0:
266,69,209361,2,0,L|253:116,1,37.9999989852906,0|8,3:0|0:0,0:0:0:0:
199,242,209548,1,8,0:0:0:0:
199,242,209642,1,8,0:0:0:0:
199,242,209736,6,0,B|116:283|116:283|77:273|60:234,1,151.999995941162,6|8,3:2|0:0,0:0:0:0:
141,111,210298,1,2,0:0:0:0:
213,223,210486,1,2,3:2:0:0:
260,70,210673,1,2,0:0:0:0:
98,139,210861,1,10,0:0:0:0:
262,199,211048,1,2,0:0:0:0:
152,38,211236,6,0,P|173:105|180:129,1,75.9999979705811,2|0,3:2|0:0,0:0:0:0:
239,271,211611,2,0,P|250:234|261:198,1,75.9999979705811,10|0,0:0|3:0,0:0:0:0:
252,169,211892,1,0,3:0:0:0:
252,169,211986,2,0,L|206:187,2,37.9999989852906,8|8|0,0:0|0:0|0:0,0:0:0:0:
327,45,212361,1,10,0:0:0:0:
412,210,212548,1,8,0:0:0:0:
412,210,212642,1,8,0:0:0:0:
412,210,212736,6,0,P|367:227|269:276,1,151.999995941162,6|2,3:2|3:2,0:0:0:0:
136,184,213298,1,2,3:2:0:0:
136,184,213392,1,8,0:0:0:0:
136,184,213486,1,10,0:0:0:0:
187,358,213673,1,0,3:0:0:0:
187,358,213767,1,0,3:0:0:0:
187,358,213861,2,0,L|204:313,2,37.9999989852906,10|0|2,0:0|3:0|3:2,0:0:0:0:
336,123,214236,6,0,P|400:123|387:189,1,125.999996154785,4|0,3:2|0:0,0:0:0:0:
256,186,214611,6,0,P|267:129|326:136,1,125.999996154785,12|0,0:2|0:0,0:0:0:0:
405,224,214986,6,0,B|362:220|340:270|340:270|299:221|255:237,1,167.999994873047,4|0,3:2|0:0,0:0:0:0:
