osu file format v14

[General]
AudioFilename: audio.mp3
AudioLeadIn: 0
PreviewTime: 42390
Countdown: 0
SampleSet: Soft
StackLeniency: 0.7
Mode: 0
LetterboxInBreaks: 0
WidescreenStoryboard: 0

[Editor]
DistanceSpacing: 1
BeatDivisor: 4
GridSize: 16
TimelineZoom: 1

[Metadata]
Title:Kawaikute Gomen
TitleUnicode:可愛くてごめん
Artist:HoneyWorks feat. Capi
ArtistUnicode:HoneyWorks feat. かぴ
Creator:CoLouRed GlaZeE
Version:Normal
Source:
Tags:japanese pop jpop j-pop confession executive committee kokuhaku jikkou iinkai renai series koishiteru 告白実行委員会 -flying songs- 恋してる 〜恋愛シリーズ〜
BeatmapID:4002840
BeatmapSetID:1936584

[Difficulty]
HPDrainRate:4
CircleSize:3
OverallDifficulty:4
ApproachRate:5
SliderMultiplier:1
SliderTickRate:2

[Events]
//Background and Video events
0,0,"bgg.jpg",0,0
//Break Periods
//Storyboard Layer 0 (Background)
//Storyboard Layer 1 (Fail)
//Storyboard Layer 2 (Pass)
//Storyboard Layer 3 (Foreground)
//Storyboard Layer 4 (Overlay)
//Storyboard Sound Samples

[TimingPoints]
484,375,4,2,1,70,1,0
9484,-100,4,2,1,60,0,0
9577,-100,4,2,1,5,0,0
10234,-100,4,2,1,60,0,0
10984,-100,4,2,1,70,0,0
36484,-100,4,2,1,60,0,0
38734,-100,4,2,1,70,0,0
39484,-100,4,2,1,60,0,0
41734,-100,4,2,1,70,0,0
42484,-100,4,2,1,80,0,1
54390,-100,4,2,1,80,0,0
54484,-100,4,2,1,80,0,1
66484,-100,4,2,1,60,0,0
66577,-100,4,2,1,5,0,0
67234,-100,4,2,1,60,0,0
68077,-100,4,2,1,5,0,0
68359,-100,4,2,1,60,0,0
68452,-100,4,2,1,5,0,0
68734,-100,4,2,1,60,0,0
69484,375,4,2,1,70,1,1
69577,-100,4,2,1,70,0,0
81484,-100,4,2,1,60,0,0
87484,-100,4,2,1,70,0,0
105484,-100,4,2,1,60,0,0
107546,-100,4,2,1,70,0,0
108484,-100,4,2,1,60,0,0
110734,-100,4,2,1,70,0,0
111484,-100,4,2,1,80,0,1
123390,-100,4,2,1,80,0,0
123484,-100,4,2,1,80,0,1
135484,-100,4,2,1,60,0,0
135577,-100,4,2,1,5,0,0
136234,-100,4,2,1,60,0,0
137077,-100,4,2,1,5,0,0
137359,-100,4,2,1,60,0,0
137452,-100,4,2,1,5,0,0
137734,-100,4,2,1,60,0,0
138484,375,4,2,1,60,1,0
160984,-100,4,2,1,60,0,0
162484,-100,4,2,1,80,0,1
162577,-100,4,2,1,80,0,0
168484,-100,4,2,1,80,0,1
168577,-100,4,2,1,80,0,0
174484,-125,4,2,1,60,0,0
174577,-125,4,2,1,5,0,0
175234,-125,4,2,1,60,0,0
176077,-125,4,2,1,5,0,0
176359,-125,4,2,1,60,0,0
176452,-125,4,2,1,5,0,0
176734,-125,4,2,1,60,0,0
177577,-125,4,2,1,5,0,0
178234,-125,4,2,1,60,0,0
179077,-125,4,2,1,5,0,0
179359,-125,4,2,1,60,0,0
179452,-125,4,2,1,5,0,0
179734,-125,4,2,1,60,0,0
180577,-125,4,2,1,5,0,0
181234,-125,4,2,1,60,0,0
182077,-125,4,2,1,5,0,0
182359,-125,4,2,1,60,0,0
182827,-125,4,2,1,5,0,0
185734,375,4,2,1,60,1,0
185734,-125,4,2,1,60,0,0
185827,-125,4,2,1,5,0,0
186484,-125,4,2,1,60,0,0
187327,-125,4,2,1,5,0,0
187609,-125,4,2,1,60,0,0
187702,-125,4,2,1,5,0,0
187984,-125,4,2,1,60,0,0
188734,375,4,2,1,80,1,1
200734,-100,4,2,1,60,0,0
200827,-100,4,2,1,5,0,0
201484,-100,4,2,1,60,0,0
202327,-100,4,2,1,5,0,0
202609,-100,4,2,1,60,0,0
202702,-100,4,2,1,5,0,0
202984,-100,4,2,1,60,0,0
203734,375,4,2,1,70,1,1
203827,-100,4,2,1,70,0,0

[Colours]
Combo1 : 71,199,170
Combo2 : 236,89,122
Combo3 : 62,181,202
Combo4 : 235,167,116

[HitObjects]
373,101,484,6,0,P|401:145|403:204,1,100,4|2,3:2|0:0,0:0:0:0:
389,239,1046,1,0,0:0:0:0:
353,274,1234,2,0,P|300:280|238:288,1,100,4|2,3:2|0:0,0:0:0:0:
155,268,1984,1,4,3:2:0:0:
109,179,2359,1,2,0:0:0:0:
132,81,2734,1,4,3:2:0:0:
226,47,3109,2,0,L|291:54,1,50,2|0,0:0|1:0,0:0:0:0:
322,33,3484,6,0,P|336:83|332:152,1,100,4|2,3:2|0:0,0:0:0:0:
327,180,4046,1,0,0:0:0:0:
289,212,4234,2,0,P|239:220|176:232,1,100,4|2,3:2|0:0,0:0:0:0:
111,290,4984,1,4,3:2:0:0:
189,351,5359,1,2,0:0:0:0:
287,332,5734,2,0,P|325:344|361:349,2,75,0|8|4,3:0|3:0|3:0,0:0:0:0:
268,285,6484,6,0,P|259:236|250:179,1,100,4|2,3:2|3:2,0:0:0:0:
264,138,7046,1,0,0:0:0:0:
279,90,7234,2,0,P|327:79|378:66,1,100,4|2,3:2|3:2,0:0:0:0:
467,107,7984,1,4,3:2:0:0:
450,205,8359,1,2,3:2:0:0:
357,242,8734,2,0,P|332:248|308:253,1,50,4|0,3:2|1:0,0:0:0:0:
259,243,9109,2,0,P|234:249|210:254,1,50,0|0,1:0|1:0,0:0:0:0:
161,263,9484,6,0,P|92:233|74:118,1,200,2|2,0:0|0:0,0:0:0:0:
257,39,10984,2,0,P|262:66|273:107,1,50,0|0,3:0|3:0,0:0:0:0:
286,134,11359,1,0,1:0:0:0:
383,112,11734,1,0,3:0:0:0:
400,210,12109,2,0,P|393:237|384:282,1,50,4|0,1:2|3:0,0:0:0:0:
402,307,12484,6,0,P|360:334|308:335,1,100,4|0,3:1|1:0,0:0:0:0:
263,322,13046,1,0,0:0:0:0:
219,346,13234,2,0,P|166:340|116:334,1,100,2|0,3:2|1:0,0:0:0:0:
58,255,13984,2,0,P|113:238|155:226,1,100,2|0,3:2|1:0,0:0:0:0:
202,213,14546,1,0,0:0:0:0:
249,227,14734,2,0,P|302:242|357:239,1,100,2|0,3:2|1:0,0:0:0:0:
410,163,15484,2,0,P|393:111|349:79,1,100,2|0,3:2|1:0,0:0:0:0:
310,69,16046,1,0,0:0:0:0:
260,76,16234,2,0,P|205:83|149:82,1,100,2|0,3:2|1:0,0:0:0:0:
61,67,16984,5,2,3:2:0:0:
31,162,17359,1,0,1:0:0:0:
111,221,17734,2,0,P|155:226|183:227,1,50,2|0,3:2|3:0,0:0:0:0:
210,223,18109,1,0,1:0:0:0:
282,291,18484,6,0,P|340:311|382:300,1,100,2|0,3:2|1:0,0:0:0:0:
411,266,19046,1,0,0:0:0:0:
415,216,19234,2,0,P|409:169|407:117,1,100,2|0,3:2|1:0,0:0:0:0:
335,46,19984,2,0,P|293:82|250:103,1,100,2|0,3:2|1:0,0:0:0:0:
203,105,20546,1,0,0:0:0:0:
176,147,20734,2,0,P|211:199|255:240,1,100,2|0,3:2|1:0,0:0:0:0:
302,301,21484,2,0,P|260:342|208:360,1,100,2|0,3:2|1:0,0:0:0:0:
172,361,22046,1,0,0:0:0:0:
122,351,22234,2,0,P|92:303|65:260,1,100,2|0,3:2|1:0,0:0:0:0:
45,169,22984,5,0,3:0:0:0:
125,109,23359,1,0,1:0:0:0:
224,110,23734,2,0,P|238:77|243:45,2,50,0|0|0,3:0|1:0|1:0,0:0:0:0:
228,209,24484,6,0,P|235:265|232:330,1,100,4|0,3:1|1:0,0:0:0:0:
263,348,25046,2,0,P|307:349|358:321,1,100,0|0,1:0|3:0,0:0:0:0:
381,280,25609,1,0,1:0:0:0:
398,181,25984,2,0,P|347:157|288:124,1,100,0|0,3:0|1:0,0:0:0:0:
268,106,26546,1,0,1:0:0:0:
237,66,26734,2,0,P|211:49|173:40,2,50,2|0|0,0:0|3:0|1:0,0:0:0:0:
333,38,27484,6,0,P|399:33|449:39,1,100,0|0,3:0|1:0,0:0:0:0:
470,67,28046,2,0,P|481:124|475:181,1,100,0|0,1:0|3:0,0:0:0:0:
468,215,28609,1,0,1:0:0:0:
373,248,28984,2,0,P|305:235|261:225,1,100,0|0,3:0|1:0,0:0:0:0:
226,213,29546,1,0,1:0:0:0:
178,196,29734,2,0,P|179:159|175:132,1,50,0|0,3:0|1:0,0:0:0:0:
171,96,30109,1,0,1:0:0:0:
75,124,30484,6,0,P|70:179|74:237,1,100,4|0,3:1|1:0,0:0:0:0:
84,272,31046,1,0,3:0:0:0:
122,303,31234,2,0,P|180:315|224:328,1,100,0|0,3:0|1:0,0:0:0:0:
266,342,31796,1,0,0:0:0:0:
315,345,31984,1,0,3:0:0:0:
388,277,32359,1,0,1:0:0:0:
310,214,32734,1,0,3:0:0:0:
210,220,33109,2,0,P|197:192|186:161,1,50,0|0,1:0|3:0,0:0:0:0:
167,129,33484,6,0,P|225:116|268:99,1,100,4|0,3:1|1:0,0:0:0:0:
311,90,34046,1,0,3:0:0:0:
359,75,34234,2,0,P|386:49|406:33,2,50,0|0|0,3:0|3:0|1:0,0:0:0:0:
435,139,34984,2,0,P|430:190|403:237,1,100,0|0,3:0|1:0,0:0:0:0:
370,266,35546,1,0,3:0:0:0:
329,295,35734,2,0,P|326:334|325:358,2,50,0|0|0,3:0|3:0|1:0,0:0:0:0:
230,309,36484,6,0,P|167:297|113:279,1,100,4|0,3:1|3:0,0:0:0:0:
77,203,37234,2,0,P|55:160|36:100,1,100,0|0,3:0|3:0,0:0:0:0:
113,43,37984,2,0,P|158:62|202:92,1,100,0|0,1:0|1:0,0:0:0:0:
247,107,38546,1,0,1:0:0:0:
294,123,38734,2,0,P|299:174|293:222,1,100,4|4,1:3|1:3,0:0:0:0:
273,268,39296,1,4,1:3:0:0:
252,313,39484,5,6,0:0:0:0:
345,348,39859,1,2,0:0:0:0:
437,309,40234,1,2,0:0:0:0:
465,213,40609,1,2,0:0:0:0:
426,120,40984,2,0,P|376:128|321:125,1,100,0|0,3:0|1:0,0:0:0:0:
277,115,41546,1,0,1:0:0:0:
233,89,41734,2,0,P|189:96|167:96,1,50,2|2,3:2|3:2,0:0:0:0:
133,95,42109,1,4,1:2:0:0:
45,143,42484,6,0,P|30:194|53:243,1,100,4|0,3:1|1:0,0:0:0:0:
82,270,43046,1,2,0:0:0:0:
131,278,43234,2,0,P|168:274|196:265,1,50,0|2,3:0|0:0,0:0:0:0:
223,295,43609,2,0,P|238:323|258:340,1,50,0|2,1:0|0:0,0:0:0:0:
299,348,43984,1,0,3:0:0:0:
378,287,44359,1,0,1:0:0:0:
357,189,44734,1,0,3:0:0:0:
262,157,45109,2,0,P|234:161|207:167,1,50,0|2,1:0|0:0,0:0:0:0:
165,182,45484,6,0,P|137:136|133:77,1,100,0|0,3:0|1:0,0:0:0:0:
151,45,46046,1,2,0:0:0:0:
200,35,46234,2,0,P|229:34|253:33,1,50,0|2,3:0|0:0,0:0:0:0:
299,36,46609,2,0,P|330:48|357:65,1,50,0|2,1:0|0:0,0:0:0:0:
380,90,46984,2,0,P|405:142|437:173,1,100,0|0,3:0|1:0,0:0:0:0:
475,262,47734,1,0,3:0:0:0:
384,304,48109,1,4,1:2:0:0:
287,278,48484,6,0,P|271:233|279:162,1,100,4|0,3:1|1:0,0:0:0:0:
291,134,49046,1,2,0:0:0:0:
321,94,49234,2,0,P|306:71|283:51,1,50,0|2,3:0|0:0,0:0:0:0:
241,43,49609,2,0,P|207:43|176:49,1,50,0|2,1:0|0:0,0:0:0:0:
142,58,49984,1,0,3:0:0:0:
83,139,50359,1,0,1:0:0:0:
63,237,50734,1,0,3:0:0:0:
117,320,51109,2,0,P|144:336|176:351,1,50,0|2,1:0|0:0,0:0:0:0:
210,346,51484,6,0,P|214:280|213:232,1,100,0|0,3:0|1:0,0:0:0:0:
198,198,52046,1,2,0:0:0:0:
207,148,52234,2,0,P|209:103|218:43,1,100,0|0,3:0|1:0,0:0:0:0:
265,38,52796,1,2,0:0:0:0:
313,50,52984,2,0,P|362:56|419:52,1,100,0|0,3:0|1:0,0:0:0:0:
485,122,53734,2,0,P|484:150|480:180,1,50,0|0,1:0|1:0,0:0:0:0:
455,214,54109,2,0,P|454:242|450:272,1,50,4|0,1:2|1:0,0:0:0:0:
435,311,54484,6,0,P|388:309|335:300,1,100,4|0,3:1|1:0,0:0:0:0:
288,283,55046,1,2,0:0:0:0:
239,293,55234,2,0,P|215:315|193:321,1,50,0|2,3:0|0:0,0:0:0:0:
148,320,55609,2,0,P|122:305|106:279,1,50,0|2,1:0|0:0,0:0:0:0:
92,242,55984,1,0,3:0:0:0:
100,142,56359,1,0,1:0:0:0:
191,100,56734,1,0,3:0:0:0:
268,163,57109,2,0,P|269:189|274:220,1,50,0|2,1:0|0:0,0:0:0:0:
304,251,57484,6,0,P|364:266|418:275,1,100,0|0,3:0|1:0,0:0:0:0:
440,241,58046,1,2,0:0:0:0:
447,191,58234,2,0,P|412:152|367:110,1,100,0|0,3:0|1:0,0:0:0:0:
331,98,58796,1,2,0:0:0:0:
281,88,58984,2,0,P|218:86|179:69,1,100,0|0,3:0|1:0,0:0:0:0:
89,40,59734,1,0,3:0:0:0:
37,125,60109,1,4,1:2:0:0:
95,206,60484,6,0,P|112:253|117:306,1,100,4|0,3:1|1:0,0:0:0:0:
146,342,61046,1,2,0:0:0:0:
195,351,61234,2,0,P|216:321|225:297,1,50,0|2,3:0|0:0,0:0:0:0:
234,260,61609,2,0,P|237:234|237:205,1,50,0|2,1:0|0:0,0:0:0:0:
222,162,61984,1,0,3:0:0:0:
258,69,62359,1,0,1:0:0:0:
353,39,62734,1,0,3:0:0:0:
446,75,63109,2,0,P|454:119|456:142,1,50,0|2,1:0|0:0,0:0:0:0:
448,173,63484,6,0,P|396:171|337:164,1,100,0|0,3:0|1:0,0:0:0:0:
298,159,64046,1,2,0:0:0:0:
249,145,64234,2,0,P|218:130|198:114,1,50,0|2,3:0|0:0,0:0:0:0:
172,82,64609,2,0,P|153:105|134:124,1,50,0|0,1:0|1:0,0:0:0:0:
89,124,64984,1,0,3:0:0:0:
36,209,65359,1,0,1:0:0:0:
61,305,65734,2,0,P|93:336|110:345,1,50,2|2,3:2|3:2,0:0:0:0:
147,344,66109,1,4,1:2:0:0:
246,335,66484,6,0,P|261:276|207:141,1,200,2|2,0:0|0:0,0:0:0:0:
385,43,67984,2,0,P|413:93|416:139,2,100,2|2|2,0:0|0:0|0:0,0:0:0:0:
184,36,69484,6,0,P|135:39|91:69,1,100,4|0,3:1|1:0,0:0:0:0:
61,105,70046,1,2,0:0:0:0:
48,153,70234,2,0,P|58:210|64:265,1,100,0|0,3:2|1:0,0:0:0:0:
57,301,70796,1,2,0:0:0:0:
38,347,70984,1,0,3:2:0:0:
137,348,71359,1,0,1:0:0:0:
225,301,71734,1,0,3:2:0:0:
192,206,72109,2,0,P|183:176|178:145,1,50,0|2,1:0|0:0,0:0:0:0:
174,107,72484,6,0,P|235:104|281:117,1,100,0|0,3:2|1:0,0:0:0:0:
314,140,73046,1,2,0:0:0:0:
320,189,73234,2,0,P|314:254|325:311,1,100,0|0,3:2|1:0,0:0:0:0:
352,324,73796,1,2,0:0:0:0:
401,331,73984,2,0,P|453:311|478:261,1,100,0|4,3:2|1:2,0:0:0:0:
470,174,74734,2,0,P|464:138|455:76,1,100,0|0,3:0|1:0,0:0:0:0:
360,41,75484,6,0,P|319:61|261:74,1,100,4|0,3:1|1:0,0:0:0:0:
216,71,76046,1,2,0:0:0:0:
171,48,76234,2,0,P|118:56|80:89,1,100,0|0,3:2|1:0,0:0:0:0:
64,131,76796,1,2,0:0:0:0:
71,180,76984,1,0,3:2:0:0:
170,171,77359,1,0,1:0:0:0:
260,214,77734,1,0,3:2:0:0:
301,305,78109,2,0,P|286:342|269:353,1,50,0|2,1:0|0:0,0:0:0:0:
229,339,78484,6,0,P|176:345|125:348,1,100,0|0,3:2|1:0,0:0:0:0:
81,333,79046,1,2,0:0:0:0:
61,286,79234,2,0,P|56:237|55:170,1,100,0|0,3:2|1:0,0:0:0:0:
60,136,79796,1,0,1:0:0:0:
90,96,79984,2,0,P|143:91|206:78,1,100,4|0,3:1|1:0,0:0:0:0:
287,64,80734,1,4,3:0:0:0:
384,39,81109,1,0,3:0:0:0:
463,99,81484,6,0,P|482:148|466:212,2,100,4|2|0,3:2|3:2|3:0,0:0:0:0:
382,158,82609,1,2,3:2:0:0:
296,210,82984,2,0,P|235:204|196:197,2,100,0|2|0,3:0|3:2|3:0,0:0:0:0:
380,263,84109,1,2,3:2:0:0:
457,326,84484,2,0,P|477:285|467:214,2,100,0|2|0,3:0|3:2|3:0,0:0:0:0:
359,348,85609,1,2,3:2:0:0:
259,338,85984,2,0,P|208:316|165:274,1,100,2|2,3:2|3:2,0:0:0:0:
137,194,86734,2,0,P|101:197|69:197,1,50,8|4,3:0|3:0,0:0:0:0:
37,189,87109,1,0,1:0:0:0:
32,89,87484,6,0,P|88:86|143:86,1,100,4|0,3:1|1:0,0:0:0:0:
181,88,88046,1,0,0:0:0:0:
231,88,88234,2,0,P|284:79|302:73,1,50,0|2,3:0|0:0,0:0:0:0:
324,56,88609,1,0,1:0:0:0:
410,105,88984,2,0,P|393:153|380:209,1,100,0|0,3:0|1:0,0:0:0:0:
385,250,89546,1,0,0:0:0:0:
374,298,89734,2,0,P|345:318|315:324,1,50,0|2,3:0|0:0,0:0:0:0:
281,328,90109,1,0,1:0:0:0:
254,231,90484,6,0,P|266:182|249:116,1,100,0|0,3:0|1:0,0:0:0:0:
226,95,91046,1,0,0:0:0:0:
182,70,91234,2,0,P|138:65|116:59,1,50,0|2,3:0|0:0,0:0:0:0:
84,48,91609,1,0,1:0:0:0:
36,136,91984,2,0,P|31:161|30:194,1,50,0|0,3:0|0:0,0:0:0:0:
33,235,92359,2,0,P|39:266|48:295,1,50,4|0,1:2|0:0,0:0:0:0:
83,314,92734,2,0,P|130:320|187:323,1,100,0|0,3:0|1:0,0:0:0:0:
277,291,93484,6,0,P|338:269|384:261,1,100,4|0,3:1|1:0,0:0:0:0:
422,261,94046,2,0,P|447:205|441:156,1,100,0|0,1:0|3:0,0:0:0:0:
424,121,94609,1,0,1:0:0:0:
332,81,94984,2,0,P|281:104|233:140,1,100,0|0,3:0|1:0,0:0:0:0:
218,171,95546,1,0,1:0:0:0:
186,210,95734,2,0,P|154:227|124:240,2,50,2|0|0,0:0|3:0|1:0,0:0:0:0:
255,282,96484,6,0,P|315:297|360:287,1,100,0|0,3:0|1:0,0:0:0:0:
390,258,97046,2,0,P|380:204|384:145,1,100,0|0,1:0|3:0,0:0:0:0:
401,112,97609,1,0,1:0:0:0:
324,47,97984,2,0,P|263:56|215:56,1,100,0|0,3:0|1:0,0:0:0:0:
175,46,98546,1,0,1:0:0:0:
125,40,98734,2,0,P|80:45|58:51,1,50,0|0,3:0|1:0,0:0:0:0:
29,65,99109,1,0,1:0:0:0:
64,159,99484,6,0,P|119:192|141:232,1,100,4|0,3:1|1:0,0:0:0:0:
130,271,100046,1,0,3:0:0:0:
106,315,100234,2,0,P|163:332|208:340,1,100,0|0,3:0|1:0,0:0:0:0:
252,340,100796,1,0,0:0:0:0:
301,331,100984,1,0,3:0:0:0:
321,233,101359,2,0,P|292:226|258:216,1,50,0|0,1:0|3:0,0:0:0:0:
228,197,101734,1,0,3:0:0:0:
262,103,102109,2,0,P|297:91|320:82,1,50,0|0,1:0|3:0,0:0:0:0:
347,53,102484,6,0,P|395:78|445:88,1,100,4|0,3:1|1:0,0:0:0:0:
473,124,103046,1,0,3:0:0:0:
477,173,103234,2,0,P|484:214|483:235,2,50,0|0|0,3:0|3:0|1:0,0:0:0:0:
376,177,103984,2,0,P|323:162|279:157,1,100,0|0,3:0|1:0,0:0:0:0:
232,136,104546,1,0,3:0:0:0:
192,105,104734,2,0,P|182:69|172:44,2,50,0|0|0,3:0|3:0|1:0,0:0:0:0:
104,153,105484,6,0,P|76:200|68:249,1,100,4|0,1:0|3:0,0:0:0:0:
154,295,106234,2,0,P|197:334|242:351,1,100,0|4,3:0|3:0,0:0:0:0:
331,320,106984,2,0,P|370:288|390:236,1,100,0|0,1:0|1:0,0:0:0:0:
398,194,107546,1,4,1:3:0:0:
399,143,107734,2,0,P|349:110|291:100,1,100,4|0,1:3|1:0,0:0:0:0:
265,122,108296,1,0,1:0:0:0:
227,156,108484,5,4,1:2:0:0:
205,253,108859,1,2,0:0:0:0:
109,281,109234,1,2,0:0:0:0:
38,209,109609,1,2,0:0:0:0:
59,111,109984,6,0,P|96:119|123:122,1,50,0|0,3:0|1:0,0:0:0:0:
146,88,110359,2,0,P|183:96|210:99,1,50,0|0,3:0|1:0,0:0:0:0:
242,81,110734,2,0,P|279:89|306:92,1,50,0|4,3:0|3:0,0:0:0:0:
338,75,111109,1,4,1:2:0:0:
426,122,111484,6,0,P|428:162|421:224,1,100,4|0,3:1|1:0,0:0:0:0:
393,263,112046,1,2,0:0:0:0:
351,290,112234,2,0,P|317:296|293:296,1,50,0|2,3:0|0:0,0:0:0:0:
256,318,112609,2,0,P|221:338|199:346,1,50,0|2,1:0|0:0,0:0:0:0:
161,341,112984,1,0,3:0:0:0:
61,335,113359,1,0,1:0:0:0:
39,237,113734,1,0,3:0:0:0:
121,179,114109,2,0,P|162:194|181:197,1,50,0|2,1:0|0:0,0:0:0:0:
217,189,114484,6,0,P|271:198|318:221,1,100,0|0,3:0|1:0,0:0:0:0:
353,244,115046,1,2,0:0:0:0:
391,276,115234,2,0,P|438:260|475:226,1,100,0|0,3:0|1:0,0:0:0:0:
476,176,115796,1,2,0:0:0:0:
458,128,115984,2,0,P|419:102|352:88,1,100,0|0,3:0|1:0,0:0:0:0:
268,79,116734,1,0,3:0:0:0:
176,38,117109,1,4,1:2:0:0:
76,43,117484,6,0,P|51:88|45:147,1,100,4|0,3:1|1:0,0:0:0:0:
59,182,118046,1,2,0:0:0:0:
103,204,118234,2,0,P|134:210|205:206,1,100,0|0,3:0|1:0,0:0:0:0:
246,184,118796,1,2,0:0:0:0:
295,177,118984,1,0,3:0:0:0:
387,215,119359,1,0,1:0:0:0:
435,302,119734,1,0,3:0:0:0:
344,344,120109,2,0,P|304:335|275:332,1,50,0|2,1:0|0:0,0:0:0:0:
245,337,120484,6,0,P|210:347|144:340,1,100,0|0,3:0|1:0,0:0:0:0:
105,314,121046,1,2,0:0:0:0:
90,266,121234,2,0,P|134:251|178:205,1,100,0|0,3:0|1:0,0:0:0:0:
187,166,121796,1,0,3:0:0:0:
197,117,121984,2,0,P|219:91|281:63,1,100,0|4,1:0|3:0,0:0:0:0:
377,51,122734,2,0,P|395:81|402:112,1,50,0|0,1:0|1:0,0:0:0:0:
440,124,123109,2,0,P|442:162|439:188,1,50,4|4,1:2|1:3,0:0:0:0:
459,220,123484,6,0,P|409:225|354:227,1,100,4|0,3:1|1:0,0:0:0:0:
309,223,124046,1,2,0:0:0:0:
274,186,124234,2,0,P|253:153|231:135,1,50,0|2,3:0|0:0,0:0:0:0:
205,114,124609,2,0,P|176:99|136:94,1,50,0|2,1:0|0:0,0:0:0:0:
109,92,124984,1,0,3:0:0:0:
37,162,125359,1,0,1:0:0:0:
79,252,125734,1,0,3:0:0:0:
163,305,126109,2,0,P|189:284|204:263,1,50,0|2,1:0|0:0,0:0:0:0:
228,230,126484,6,0,P|266:262|296:306,1,100,0|0,3:0|1:0,0:0:0:0:
325,342,127046,1,2,0:0:0:0:
375,344,127234,2,0,P|410:333|429:317,1,50,0|2,3:0|0:0,0:0:0:0:
448,284,127609,2,0,P|462:254|462:224,1,50,0|2,1:0|0:0,0:0:0:0:
471,187,127984,2,0,P|460:146|422:105,1,100,0|0,3:0|1:0,0:0:0:0:
329,65,128734,1,0,3:0:0:0:
313,163,129109,1,4,3:2:0:0:
243,235,129484,5,4,3:1:0:0:
146,262,129859,2,0,P|110:254|86:240,1,50,0|2,1:0|0:0,0:0:0:0:
73,204,130234,2,0,P|61:167|74:95,1,100,0|0,3:0|1:0,0:0:0:0:
102,70,130796,1,2,0:0:0:0:
149,52,130984,1,0,3:0:0:0:
232,106,131359,1,0,1:0:0:0:
319,57,131734,1,0,3:0:0:0:
410,96,132109,2,0,P|413:130|416:156,1,50,0|2,1:0|0:0,0:0:0:0:
447,183,132484,6,0,P|453:226|416:283,1,100,0|0,3:0|1:0,0:0:0:0:
384,300,133046,1,2,0:0:0:0:
333,303,133234,2,0,P|292:288|276:268,1,50,0|2,3:0|0:0,0:0:0:0:
263,240,133609,2,0,P|252:210|253:177,1,50,0|2,1:0|0:0,0:0:0:0:
266,144,133984,1,4,3:1:0:0:
292,47,134359,1,0,1:0:0:0:
192,34,134734,2,0,P|161:54|150:69,1,50,2|2,3:2|3:2,0:0:0:0:
119,100,135109,1,4,1:2:0:0:
90,195,135484,6,0,P|132:238|271:276,1,200,2|2,0:0|0:0,0:0:0:0:
437,178,136984,2,0,P|448:126|438:61,2,100,2|2|2,0:0|0:0|0:0,0:0:0:0:
323,342,138484,6,0,P|266:335|220:312,1,100,4|0,3:2|1:0,0:0:0:0:
181,297,139046,2,0,P|145:320|78:332,1,100,0|0,1:0|3:0,0:0:0:0:
39,328,139609,1,0,1:0:0:0:
48,228,139984,2,0,P|75:192|95:140,1,100,0|0,3:0|1:0,0:0:0:0:
101,91,140546,2,0,P|152:123|208:135,1,100,0|0,1:0|3:0,0:0:0:0:
240,133,141109,1,0,1:0:0:0:
329,88,141484,6,0,P|344:169|343:207,1,100,0|0,3:0|1:0,0:0:0:0:
336,235,142046,1,0,1:0:0:0:
303,272,142234,2,0,P|261:280|197:283,1,100,0|0,3:0|1:0,0:0:0:0:
110,246,142984,2,0,P|75:259|48:265,2,50,0|0|0,3:0|0:0|1:0,0:0:0:0:
126,198,143546,2,0,P|149:156|196:128,1,100,0|0,1:0|3:0,0:0:0:0:
242,120,144109,1,0,1:0:0:0:
305,42,144484,6,0,P|358:65|405:75,1,100,4|0,3:2|1:0,0:0:0:0:
448,72,145046,2,0,P|439:130|440:181,1,100,0|0,1:0|3:0,0:0:0:0:
450,220,145609,1,0,1:0:0:0:
436,319,145984,2,0,P|386:307|341:284,1,100,0|0,3:0|1:0,0:0:0:0:
314,243,146546,2,0,P|298:184|277:145,1,100,0|0,1:0|3:0,0:0:0:0:
243,115,147109,1,0,1:0:0:0:
156,64,147484,6,0,P|119:92|95:149,1,100,0|0,3:0|1:0,0:0:0:0:
85,188,148046,1,0,1:0:0:0:
91,237,148234,2,0,P|136:276|191:300,1,100,0|0,3:0|1:0,0:0:0:0:
272,297,148984,2,0,P|268:322|268:352,2,50,0|0|0,3:0|3:0|1:0,0:0:0:0:
282,247,149546,1,0,1:0:0:0:
269,198,149734,1,0,3:0:0:0:
182,147,150109,1,8,3:0:0:0:
204,49,150484,6,0,P|155:40|91:45,1,100,4|0,3:1|3:0,0:0:0:0:
44,121,151234,2,0,P|35:170|40:234,1,100,0|0,3:0|3:0,0:0:0:0:
95,301,151984,2,0,P|144:310|208:305,1,100,0|0,3:0|3:0,0:0:0:0:
286,269,152734,2,0,P|335:266|384:275,1,100,0|0,3:0|3:0,0:0:0:0:
470,223,153484,6,0,P|460:162|448:112,1,100,0|0,3:0|3:0,0:0:0:0:
370,65,154234,2,0,P|320:53|259:44,1,100,0|0,3:0|3:0,0:0:0:0:
172,49,154984,1,2,3:2:0:0:
129,139,155359,1,2,3:2:0:0:
173,228,155734,1,2,3:2:0:0:
263,270,156109,1,2,3:2:0:0:
362,274,156484,6,0,P|410:255|464:243,1,100,6|2,3:2|3:2,0:0:0:0:
432,146,157234,2,0,P|380:142|326:132,1,100,2|2,3:2|3:2,0:0:0:0:
240,94,157984,2,0,P|236:57|229:28,2,50,0|2|0,3:0|0:0|3:0,0:0:0:0:
155,148,158734,2,0,P|133:192|112:246,1,100,0|0,3:0|3:0,0:0:0:0:
133,337,159484,5,4,3:1:0:0:
232,346,159859,2,0,P|256:335|283:318,1,50,0|0,3:0|3:0,0:0:0:0:
316,293,160234,2,0,P|343:299|373:316,2,50,0|4|4,3:0|3:0|3:0,0:0:0:0:
249,217,160984,2,0,P|207:222|178:222,2,50,4|0|0,3:0|1:0|1:0,0:0:0:0:
292,192,161546,1,0,1:0:0:0:
340,178,161734,2,0,P|381:182|410:191,1,50,0|0,1:0|1:0,0:0:0:0:
435,203,162109,1,4,1:3:0:0:
454,104,162484,6,0,P|474:77|482:58,2,50,4|2|0,3:1|0:0|1:0,0:0:0:0:
408,84,163046,2,0,P|363:67|304:64,1,100,2|2,0:0|0:0,0:0:0:0:
262,72,163609,1,0,1:0:0:0:
165,45,163984,2,0,P|170:94|179:151,1,100,0|0,3:0|1:0,0:0:0:0:
184,193,164546,1,2,0:0:0:0:
227,217,164734,2,0,P|266:221|295:220,2,50,0|2|0,3:0|3:2|1:0,0:0:0:0:
182,306,165484,6,0,P|123:310|80:292,1,100,0|0,3:0|1:0,0:0:0:0:
60,252,166046,2,0,P|54:201|47:150,1,100,2|2,0:0|0:0,0:0:0:0:
110,74,166796,2,0,P|160:68|212:61,1,100,2|2,0:0|0:0,0:0:0:0:
257,47,167359,1,0,1:0:0:0:
306,44,167546,1,2,3:2:0:0:
355,50,167734,2,0,P|402:72|454:83,1,100,0|0,3:0|1:0,0:0:0:0:
478,177,168484,6,0,P|445:192|371:204,1,100,4|0,3:1|1:0,0:0:0:0:
332,203,169046,1,2,0:0:0:0:
286,181,169234,2,0,P|260:168|234:167,1,50,0|2,3:0|0:0,0:0:0:0:
189,173,169609,2,0,P|161:181|133:204,1,50,0|2,1:0|0:0,0:0:0:0:
114,234,169984,1,0,3:0:0:0:
74,325,170359,1,0,1:0:0:0:
171,347,170734,1,0,3:0:0:0:
268,326,171109,2,0,P|276:285|280:262,1,50,0|2,1:0|0:0,0:0:0:0:
287,227,171484,5,0,3:0:0:0:
384,247,171859,1,0,1:0:0:0:
409,150,172234,1,0,3:0:0:0:
312,125,172609,1,0,1:0:0:0:
213,144,172984,2,0,P|156:165|106:173,1,100,0|0,3:0|1:0,0:0:0:0:
67,166,173546,1,0,3:0:0:0:
33,129,173734,2,0,P|27:90|30:72,1,50,2|2,3:2|3:2,0:0:0:0:
53,36,174109,1,4,1:2:0:0:
148,38,174484,6,0,P|229:57|310:56,1,160,2|2,0:0|0:0,0:0:0:0:
474,148,175984,2,0,P|481:94|471:56,2,80,2|2|2,0:0|0:0|0:0,0:0:0:0:
377,313,177484,2,0,P|314:310|216:333,1,160,2|2,0:0|0:0,0:0:0:0:
49,242,178984,2,0,P|37:288|36:334,2,80,2|2|2,0:0|0:0|0:0,0:0:0:0:
138,71,180484,2,0,P|217:62|301:59,1,160,2|2,0:0|0:0,0:0:0:0:
465,153,181984,2,0,P|467:205|460:248,1,80,2|2,0:0|0:0,0:0:0:0:
405,309,182734,2,0,P|333:337|143:206,1,320,2|0,0:0|0:0,0:0:0:0:
145,217,185734,2,0,P|218:220|316:236,1,160,2|2,0:0|0:0,0:0:0:0:
459,121,187234,2,0,P|466:76|480:31,2,80,2|2|2,0:0|0:0|0:0,0:0:0:0:
440,320,188734,6,0,P|398:334|327:337,1,100,4|0,3:1|1:0,0:0:0:0:
294,326,189296,1,2,0:0:0:0:
251,299,189484,2,0,P|234:272|227:248,1,50,0|2,3:0|0:0,0:0:0:0:
224,204,189859,2,0,P|222:170|229:136,1,50,0|2,1:0|0:0,0:0:0:0:
242,107,190234,1,0,3:0:0:0:
167,39,190609,1,0,1:0:0:0:
71,67,190984,1,0,3:0:0:0:
35,160,191359,2,0,P|36:188|42:224,1,50,0|2,1:0|0:0,0:0:0:0:
53,257,191734,6,0,P|101:286|157:304,1,100,0|0,3:0|1:0,0:0:0:0:
189,315,192296,1,2,0:0:0:0:
239,312,192484,2,0,P|293:295|336:290,1,100,0|0,3:0|1:0,0:0:0:0:
385,284,193046,1,2,0:0:0:0:
434,288,193234,1,0,3:0:0:0:
452,189,193609,1,4,1:0:0:0:
377,122,193984,2,0,P|350:137|320:150,1,50,0|0,3:0|1:0,0:0:0:0:
282,145,194359,2,0,P|255:160|225:173,1,50,4|0,1:2|1:0,0:0:0:0:
189,152,194734,6,0,P|130:169|98:210,1,100,4|0,3:1|1:0,0:0:0:0:
89,244,195296,1,2,0:0:0:0:
95,293,195484,2,0,P|115:324|136:346,1,50,0|2,3:0|0:0,0:0:0:0:
172,342,195859,2,0,P|217:347|236:345,1,50,0|2,1:0|0:0,0:0:0:0:
271,343,196234,1,0,3:0:0:0:
359,296,196609,1,0,1:0:0:0:
306,210,196984,1,0,3:0:0:0:
401,179,197359,2,0,P|408:145|411:126,1,50,0|2,1:0|0:0,0:0:0:0:
418,80,197734,6,0,P|363:75|302:58,1,100,0|0,3:0|1:0,0:0:0:0:
273,46,198296,1,2,0:0:0:0:
223,39,198484,2,0,P|189:58|166:61,1,50,0|2,3:0|0:0,0:0:0:0:
129,71,198859,2,0,P|128:100|122:133,1,50,4|0,1:0|3:0,0:0:0:0:
108,168,199234,2,0,P|96:220|94:280,1,100,0|0,3:0|1:0,0:0:0:0:
159,342,199984,2,0,P|192:351|219:351,1,50,2|2,3:2|3:2,0:0:0:0:
257,344,200359,1,4,1:2:0:0:
344,294,200734,6,0,P|374:236|336:104,1,200,2|2,0:0|0:0,0:0:0:0:
145,144,202234,2,0,P|141:201|136:251,2,100,2|2|2,0:0|0:0|0:0,0:0:0:0:
314,37,203734,6,0,P|369:43|410:62,1,100,4|0,3:1|1:0,0:0:0:0:
439,101,204296,1,2,0:0:0:0:
455,148,204484,2,0,P|461:182|461:252,1,100,0|0,3:2|1:0,0:0:0:0:
453,296,205046,1,2,0:0:0:0:
428,339,205234,1,0,3:2:0:0:
328,328,205609,1,0,1:0:0:0:
307,230,205984,1,0,3:2:0:0:
221,177,206359,2,0,P|186:200|157:213,1,50,0|2,1:0|0:0,0:0:0:0:
130,216,206734,6,0,P|96:187|73:122,1,100,0|0,3:2|1:0,0:0:0:0:
75,87,207296,1,2,0:0:0:0:
103,45,207484,2,0,P|157:41|205:40,1,100,0|0,3:2|1:0,0:0:0:0:
252,43,208046,1,2,0:0:0:0:
300,56,208234,2,0,P|343:68|400:58,1,100,0|4,3:2|1:2,0:0:0:0:
463,133,208984,2,0,P|456:169|438:191,1,50,0|0,1:0|1:0,0:0:0:0:
417,218,209359,1,0,3:0:0:0:
321,189,209734,6,0,P|271:180|218:171,1,100,4|0,3:1|1:0,0:0:0:0:
176,151,210296,1,2,0:0:0:0:
126,143,210484,2,0,P|80:166|53:216,1,100,0|0,3:2|1:0,0:0:0:0:
48,255,211046,1,2,0:0:0:0:
59,303,211234,1,0,3:2:0:0:
149,345,211609,1,0,1:0:0:0:
193,255,211984,1,0,3:2:0:0:
166,158,212359,2,0,P|160:124|159:95,1,50,0|0,1:0|1:0,0:0:0:0:
176,61,212734,6,0,P|231:51|276:50,1,100,4|0,3:2|3:0,0:0:0:0:
324,54,213296,1,0,3:0:0:0:
371,69,213484,2,0,P|391:135|392:186,1,100,0|0,3:0|1:0,0:0:0:0:
390,215,214046,1,0,1:0:0:0:
371,261,214234,1,4,1:0:0:0:
273,282,214609,1,4,1:0:0:0:
240,187,214984,1,4,1:2:0:0:
