osu file format v14

[General]
AudioFilename: audio.mp3
AudioLeadIn: 0
PreviewTime: 42390
Countdown: 0
SampleSet: Soft
StackLeniency: 0.7
Mode: 0
LetterboxInBreaks: 0
WidescreenStoryboard: 0

[Editor]
DistanceSpacing: 0.8
BeatDivisor: 4
GridSize: 16
TimelineZoom: 1

[Metadata]
Title:Kawaikute Gomen
TitleUnicode:可愛くてごめん
Artist:HoneyWorks feat. Capi
ArtistUnicode:HoneyWorks feat. かぴ
Creator:CoLouRed GlaZeE
Version:Hard
Source:
Tags:japanese pop jpop j-pop confession executive committee kokuhaku jikkou iinkai renai series koishiteru 告白実行委員会 -flying songs- 恋してる 〜恋愛シリーズ〜
BeatmapID:4002838
BeatmapSetID:1936584

[Difficulty]
HPDrainRate:5
CircleSize:4
OverallDifficulty:6
ApproachRate:7
SliderMultiplier:1.4
SliderTickRate:2

[Events]
//Background and Video events
0,0,"bgg.jpg",0,0
//Break Periods
//Storyboard Layer 0 (Background)
//Storyboard Layer 1 (Fail)
//Storyboard Layer 2 (Pass)
//Storyboard Layer 3 (Foreground)
//Storyboard Layer 4 (Overlay)
//Storyboard Sound Samples

[TimingPoints]
484,375,4,2,1,70,1,0
484,-125,4,2,1,70,0,0
8359,-100,4,2,1,70,0,0
8734,-83.3333333333333,4,2,1,70,0,0
9109,-125,4,2,1,70,0,0
9484,-125,4,2,1,60,0,0
10421,-125,4,2,1,50,0,0
10609,-125,4,2,1,40,0,0
10796,-125,4,2,1,30,0,0
10984,-100,4,2,1,70,0,0
36484,-100,4,2,1,60,0,0
38734,-100,4,2,1,70,0,0
39484,-100,4,2,1,60,0,0
41734,-100,4,2,1,70,0,0
42484,-100,4,2,1,80,0,1
54390,-100,4,2,1,80,0,0
54484,-100,4,2,1,80,0,1
66484,-125,4,2,1,60,0,0
66577,-125,4,2,1,5,0,0
67046,-125,4,2,1,60,0,0
69484,375,4,2,1,70,1,1
69577,-100,4,2,1,70,0,0
81484,-125,4,2,1,60,0,0
87484,-100,4,2,1,70,0,0
105484,-100,4,2,1,60,0,0
107546,-100,4,2,1,70,0,0
108484,-100,4,2,1,60,0,0
110734,-100,4,2,1,70,0,0
111484,-100,4,2,1,80,0,1
123390,-100,4,2,1,80,0,0
123484,-100,4,2,1,80,0,1
135484,-125,4,2,1,60,0,0
135577,-125,4,2,1,5,0,0
136046,-125,4,2,1,60,0,0
138484,375,4,2,1,60,1,0
138484,-125,4,2,1,60,0,0
160984,-100,4,2,1,60,0,0
162484,-100,4,2,1,80,0,1
162577,-100,4,2,1,80,0,0
168484,-100,4,2,1,80,0,1
168577,-100,4,2,1,80,0,0
174484,-125,4,2,1,60,0,0
174577,-125,4,2,1,5,0,0
175046,-125,4,2,1,60,0,0
175327,-125,4,2,1,5,0,0
175609,-125,4,2,1,60,0,0
176077,-125,4,2,1,5,0,0
176359,-125,4,2,1,60,0,0
176452,-125,4,2,1,5,0,0
176734,-125,4,2,1,60,0,0
177577,-125,4,2,1,5,0,0
178046,-125,4,2,1,60,0,0
179077,-125,4,2,1,5,0,0
179359,-125,4,2,1,60,0,0
179452,-125,4,2,1,5,0,0
179734,-125,4,2,1,60,0,0
180577,-125,4,2,1,5,0,0
181046,-125,4,2,1,60,0,0
182077,-125,4,2,1,5,0,0
182359,-125,4,2,1,60,0,0
182827,-125,4,2,1,5,0,0
184984,-125,4,2,1,60,0,0
185734,375,4,2,1,60,1,0
185734,-125,4,2,1,60,0,0
185827,-125,4,2,1,5,0,0
186296,-125,4,2,1,60,0,0
188734,375,4,2,1,80,1,1
200734,-125,4,2,1,60,0,0
200827,-125,4,2,1,5,0,0
201296,-125,4,2,1,60,0,0
203734,375,4,2,1,70,1,1
203827,-100,4,2,1,70,0,0

[Colours]
Combo1 : 71,199,170
Combo2 : 236,89,122
Combo3 : 62,181,202
Combo4 : 235,167,116

[HitObjects]
134,312,484,6,0,P|194:320|256:325,1,112,4|2,3:2|0:0,0:0:0:0:
321,315,1046,1,0,0:0:0:0:
321,315,1234,2,0,P|325:277|330:243,1,56,4|0,3:2|0:0,0:0:0:0:
401,290,1609,2,0,P|405:252|410:218,1,56,2|0,0:0|0:0,0:0:0:0:
421,160,1984,5,4,3:2:0:0:
260,133,2359,1,2,0:0:0:0:
99,106,2734,1,4,3:2:0:0:
33,255,3109,5,2,0:0:0:0:
97,312,3296,1,0,1:0:0:0:
97,312,3390,1,0,1:0:0:0:
97,312,3484,2,0,P|115:280|90:189,1,112,4|2,3:2|0:0,0:0:0:0:
42,164,4046,1,0,0:0:0:0:
42,164,4234,2,0,P|37:124|49:88,1,56,4|0,3:2|0:0,0:0:0:0:
91,50,4609,2,0,P|131:45|167:57,1,56,2|4,0:0|0:3,0:0:0:0:
219,75,4984,6,0,P|272:87|337:65,1,112,4|2,3:2|0:0,0:0:0:0:
409,95,5546,1,0,1:0:0:0:
409,95,5640,1,0,1:0:0:0:
409,95,5734,2,0,P|449:87|494:96,2,84,0|8|4,3:0|3:0|3:0,0:0:0:0:
395,172,6484,6,0,P|391:204|385:236,1,56,4|0,3:2|0:0,0:0:0:0:
303,258,6859,2,0,P|307:226|313:194,1,56,2|0,3:2|0:0,0:0:0:0:
235,154,7234,2,0,P|231:186|225:218,1,56,4|0,3:2|0:0,0:0:0:0:
139,264,7609,2,0,P|143:232|149:200,1,56,2|0,3:2|0:0,0:0:0:0:
105,137,7984,6,0,P|73:133|41:127,1,56,4|0,3:2|0:0,0:0:0:0:
148,62,8359,6,0,P|186:66|224:73,1,70,2|0,3:2|0:0,0:0:0:0:
319,167,8734,6,0,P|276:161|234:153,1,83.9999974365235,4|0,3:2|1:0,0:0:0:0:
377,90,9109,5,0,1:0:0:0:
462,96,9296,1,0,1:0:0:0:
422,177,9484,1,2,0:0:0:0:
422,177,10046,5,2,0:0:0:0:
422,177,10234,2,0,P|453:202|466:224,1,56,2|2,0:0|0:0,0:0:0:0:
431,286,10609,2,0,P|400:261|387:239,1,56,2|2,0:0|0:0,0:0:0:0:
336,181,10984,6,0,P|336:156|336:122,2,35,0|0|0,3:0|1:0|3:0,0:0:0:0:
253,170,11359,2,0,P|217:168|172:167,1,70,0|0,1:0|3:0,0:0:0:0:
98,153,11734,1,0,3:0:0:0:
92,180,11827,1,0,3:0:0:0:
89,207,11921,1,2,1:2:0:0:
90,235,12015,1,2,1:2:0:0:
96,262,12109,2,0,P|131:263|177:264,1,70,4|0,1:2|3:0,0:0:0:0:
252,339,12484,6,0,P|253:304|254:258,1,70,4|0,3:1|0:0,0:0:0:0:
343,270,12859,2,0,P|378:271|424:272,1,70,0|0,1:0|0:0,0:0:0:0:
417,184,13234,1,2,3:2:0:0:
329,175,13421,2,0,P|294:174|248:173,1,70,0|0,0:0|1:0,0:0:0:0:
171,175,13796,1,0,0:0:0:0:
114,243,13984,6,0,P|78:261|43:270,1,70,2|0,3:2|0:0,0:0:0:0:
50,176,14359,2,0,P|32:140|23:105,1,70,0|0,1:0|0:0,0:0:0:0:
116,113,14734,1,2,3:2:0:0:
180,50,14921,2,0,P|220:46|272:43,1,70,0|0,0:0|1:0,0:0:0:0:
328,79,15296,1,0,0:0:0:0:
268,145,15484,6,0,P|239:172|218:198,1,70,2|0,3:2|0:0,0:0:0:0:
224,285,15859,2,0,P|261:296|294:301,1,70,0|0,1:0|0:0,0:0:0:0:
381,285,16234,1,2,3:2:0:0:
387,200,16421,2,0,P|391:162|389:117,1,70,0|0,0:0|1:0,0:0:0:0:
336,53,16796,1,0,0:0:0:0:
245,59,16984,6,0,P|209:51|151:35,2,70,2|0|0,3:2|0:0|1:0,0:0:0:0:
280,142,17546,1,0,0:0:0:0:
364,197,17734,1,2,3:2:0:0:
364,197,17827,1,0,1:0:0:0:
364,197,17921,2,0,P|379:250|382:275,1,70,0|0,3:0|1:0,0:0:0:0:
354,351,18296,1,0,0:0:0:0:
222,309,18484,6,0,P|207:256|204:231,1,70,2|0,3:2|0:0,0:0:0:0:
250,159,18859,2,0,P|218:130|187:110,1,70,0|0,1:0|0:0,0:0:0:0:
107,94,19234,1,2,3:2:0:0:
53,170,19421,2,0,P|32:205|6:230,1,70,0|0,0:0|1:0,0:0:0:0:
69,300,19796,1,0,0:0:0:0:
190,352,19984,6,0,P|228:335|251:308,1,70,2|0,3:2|0:0,0:0:0:0:
307,242,20359,2,0,P|326:284|346:305,1,70,0|0,1:0|0:0,0:0:0:0:
434,320,20734,1,2,3:2:0:0:
480,237,20921,2,0,P|485:199|493:152,1,70,0|0,0:0|1:0,0:0:0:0:
437,96,21296,1,0,0:0:0:0:
352,58,21484,6,0,P|322:84|298:110,1,70,2|0,3:2|0:0,0:0:0:0:
300,198,21859,2,0,P|275:223|249:246,1,70,0|0,1:0|0:0,0:0:0:0:
159,264,22234,1,2,3:2:0:0:
82,214,22421,2,0,P|63:176|50:136,1,70,0|0,0:0|1:0,0:0:0:0:
60,60,22796,5,0,0:0:0:0:
154,59,22984,2,0,P|158:38|161:20,2,35,0|0|0,3:0|1:0|3:0,0:0:0:0:
223,126,23359,2,0,P|261:137|302:145,1,70,0|0,1:0|0:0,0:0:0:0:
373,97,23734,1,0,3:0:0:0:
397,109,23827,1,0,3:0:0:0:
417,128,23921,1,0,1:0:0:0:
429,152,24015,1,0,1:0:0:0:
436,178,24109,2,0,P|429:215|420:261,1,70,0|0,1:0|3:0,0:0:0:0:
373,328,24484,6,0,P|319:309|235:310,1,140,4|0,3:1|1:0,0:0:0:0:
166,340,25046,1,0,1:0:0:0:
77,211,25421,1,0,3:0:0:0:
77,211,25608,2,0,P|68:261|53:303,1,70,0|0,1:0|0:0,0:0:0:0:
155,227,25984,6,0,P|164:177|179:135,2,70,0|0|0,3:0|0:0|1:0,0:0:0:0:
242,219,26546,1,0,1:0:0:0:
242,219,26640,1,2,0:0:0:0:
242,219,26734,2,0,P|275:228|310:233,1,70,2|0,0:0|3:0,0:0:0:0:
379,196,27109,2,0,P|388:163|393:128,1,70,0|0,1:0|0:0,0:0:0:0:
363,52,27484,6,0,P|306:71|220:60,1,140,0|0,3:0|1:0,0:0:0:0:
154,35,28046,1,0,1:0:0:0:
43,148,28421,1,0,3:0:0:0:
43,148,28609,2,0,P|53:189|50:240,1,70,0|0,1:0|0:0,0:0:0:0:
129,235,28984,6,0,P|108:268|76:294,2,70,0|2|0,3:0|0:0|1:0,0:0:0:0:
153,160,29546,1,0,1:0:0:0:
223,124,29734,1,0,3:0:0:0:
250,117,29827,1,0,3:0:0:0:
278,117,29921,1,0,1:0:0:0:
305,121,30015,1,0,1:0:0:0:
331,129,30109,2,0,P|341:91|353:51,1,70,0|0,1:0|3:0,0:0:0:0:
429,115,30484,6,0,P|411:181|390:252,1,140,4|0,3:1|1:0,0:0:0:0:
322,304,31046,1,0,3:0:0:0:
322,304,31140,1,0,1:0:0:0:
322,304,31234,2,0,P|263:283|181:292,1,140,0|0,3:0|1:0,0:0:0:0:
113,237,31796,1,0,0:0:0:0:
149,152,31984,2,0,P|208:173|290:164,1,140,0|0,3:0|1:0,0:0:0:0:
334,89,32546,2,0,L|352:48,2,35,0|0|0,3:0|1:0|3:0,0:0:0:0:
410,139,32921,2,0,L|441:116,2,35,0|0|0,1:0|1:0|1:0,0:0:0:0:
419,232,33296,5,0,3:0:0:0:
419,232,33390,1,0,3:0:0:0:
419,232,33484,2,0,P|400:278|317:318,1,140,4|0,3:1|1:0,0:0:0:0:
245,311,34046,1,0,3:0:0:0:
245,311,34140,1,0,1:0:0:0:
245,311,34234,2,0,P|210:335|186:362,2,70,0|0|0,3:0|3:0|1:0,0:0:0:0:
287,243,34796,1,0,0:0:0:0:
303,164,34984,6,0,P|299:111|221:55,1,140,0|0,3:0|1:0,0:0:0:0:
159,59,35546,1,0,3:0:0:0:
159,59,35640,1,0,1:0:0:0:
159,59,35734,2,0,P|124:50|86:29,1,70,0|0,3:0|3:0,0:0:0:0:
141,137,36109,2,0,P|176:146|214:167,1,70,0|0,1:0|0:0,0:0:0:0:
252,227,36484,6,0,P|258:274|250:315,1,70,4|0,3:1|0:0,0:0:0:0:
314,352,36859,1,0,3:0:0:0:
314,352,37046,2,0,P|361:346|402:354,1,70,0|0,3:0|3:0,0:0:0:0:
417,194,37609,2,0,P|370:200|329:192,1,70,0|4,3:0|3:0,0:0:0:0:
299,134,37984,1,0,1:0:0:0:
299,134,38171,2,0,P|301:99|295:64,1,70,0|0,1:0|1:0,0:0:0:0:
221,36,38546,5,0,1:0:0:0:
221,36,38734,2,0,P|187:42|144:50,1,70,4|4,1:3|1:3,0:0:0:0:
112,117,39109,2,0,P|78:123|35:131,1,70,4|4,1:3|1:3,0:0:0:0:
12,203,39484,5,6,0:0:0:0:
25,314,39859,1,2,0:0:0:0:
134,341,40234,1,2,0:0:0:0:
210,258,40609,1,2,0:0:0:0:
320,296,40984,6,0,P|369:313|440:319,1,105,0|0,3:0|1:0,0:0:0:0:
421,319,41359,2,0,P|430:278|439:241,1,70,0|0,1:0|1:0,0:0:0:0:
448,155,41734,1,2,3:2:0:0:
422,165,41827,1,2,3:2:0:0:
396,176,41921,1,2,3:2:0:0:
370,187,42015,1,2,3:2:0:0:
344,198,42109,2,0,P|305:189|264:174,1,70,4|0,1:2|0:0,0:0:0:0:
227,93,42484,6,0,P|185:89|118:178,1,140,4|0,3:1|1:0,0:0:0:0:
94,247,43046,1,2,0:0:0:0:
152,322,43234,2,0,P|194:311|237:289,1,70,0|2,3:0|0:0,0:0:0:0:
297,242,43609,1,0,1:0:0:0:
336,332,43796,1,2,0:0:0:0:
403,256,43984,6,0,P|445:245|488:223,1,70,0|2,3:0|0:0,0:0:0:0:
372,141,44359,2,0,P|330:152|287:174,1,70,0|2,1:0|0:0,0:0:0:0:
219,209,44734,2,0,P|203:221|184:235,2,35,0|0|2,3:0|1:0|3:2,0:0:0:0:
281,290,45109,2,0,P|279:326|264:363,1,70,0|2,1:0|0:0,0:0:0:0:
175,342,45484,6,0,P|112:329|35:311,1,140,0|0,3:0|1:0,0:0:0:0:
6,218,46046,1,2,0:0:0:0:
93,178,46234,2,0,P|104:140|103:94,1,70,0|2,3:0|0:0,0:0:0:0:
191,158,46609,1,0,1:0:0:0:
150,242,46796,1,2,0:0:0:0:
241,277,46984,6,0,P|280:284|312:281,1,70,0|2,3:0|0:0,0:0:0:0:
402,252,47359,2,0,P|415:291|437:320,1,70,0|2,1:0|0:0,0:0:0:0:
494,245,47734,2,0,P|502:219|507:201,2,35,0|0|2,3:0|1:0|3:2,0:0:0:0:
425,151,48109,2,0,P|382:135|352:131,1,70,4|0,1:2|0:0,0:0:0:0:
263,165,48484,6,0,P|219:205|125:174,1,140,4|0,3:1|1:0,0:0:0:0:
71,125,49046,1,2,0:0:0:0:
109,37,49234,2,0,P|148:47|190:56,1,70,0|2,3:0|0:0,0:0:0:0:
266,32,49609,1,0,1:0:0:0:
328,106,49796,1,2,0:0:0:0:
400,50,49984,6,0,P|439:42|491:40,1,70,0|2,3:0|0:0,0:0:0:0:
450,141,50359,2,0,P|458:180|460:232,1,70,0|2,1:0|0:0,0:0:0:0:
361,203,50734,2,0,P|343:204|326:208,2,35,0|0|2,3:0|1:0|3:2,0:0:0:0:
239,173,51109,2,0,P|201:161|168:138,1,70,0|2,1:0|0:0,0:0:0:0:
111,66,51484,6,0,P|82:108|88:197,1,140,0|0,3:0|1:0,0:0:0:0:
140,271,52046,1,2,0:0:0:0:
233,291,52234,2,0,P|296:292|394:294,1,140,0|0,3:0|1:0,0:0:0:0:
466,293,52796,1,2,0:0:0:0:
468,199,52984,2,0,P|469:179|471:160,2,35,0|0|0,3:0|1:0|3:0,0:0:0:0:
373,195,53359,2,0,P|338:194|303:193,1,70,0|0,1:0|3:0,0:0:0:0:
274,194,53640,1,0,1:0:0:0:
245,193,53734,2,0,P|210:192|175:191,1,70,0|0,1:0|1:0,0:0:0:0:
154,105,54109,5,4,1:2:0:0:
181,104,54202,1,0,1:0:0:0:
207,106,54296,1,0,1:0:0:0:
234,107,54390,1,0,1:0:0:0:
261,109,54484,2,0,P|314:107|378:43,1,140,4|0,3:1|1:0,0:0:0:0:
470,77,55046,1,2,0:0:0:0:
485,174,55234,2,0,P|477:213|453:253,1,70,0|2,3:0|0:0,0:0:0:0:
366,243,55609,2,0,P|374:204|398:164,1,70,0|2,1:0|0:0,0:0:0:0:
400,328,55984,6,0,P|360:348|325:352,1,70,0|2,3:0|0:0,0:0:0:0:
222,299,56359,2,0,P|262:279|297:275,1,70,0|2,1:0|0:0,0:0:0:0:
298,181,56734,2,0,L|287:143,2,35,0|0|2,3:0|1:0|3:2,0:0:0:0:
392,162,57109,2,0,P|426:151|458:130,1,70,0|2,1:0|0:0,0:0:0:0:
384,61,57484,6,0,P|315:37|236:63,1,140,0|0,3:0|1:0,0:0:0:0:
180,117,58046,1,2,0:0:0:0:
102,57,58234,2,0,P|83:105|116:191,1,140,0|0,3:0|1:0,0:0:0:0:
191,245,58796,1,2,0:0:0:0:
272,301,58984,6,0,P|244:329|208:343,1,70,0|2,3:0|0:0,0:0:0:0:
124,332,59359,2,0,P|89:312|64:286,1,70,0|2,1:0|0:0,0:0:0:0:
24,202,59734,2,0,P|15:184|7:159,2,35,0|0|2,3:0|1:0|3:2,0:0:0:0:
104,161,60109,5,4,1:2:0:0:
121,139,60202,1,0,3:0:0:0:
141,119,60296,1,0,1:0:0:0:
164,104,60390,1,0,1:0:0:0:
187,89,60484,2,0,P|272:103|359:114,1,140,4|0,3:1|1:0,0:0:0:0:
410,69,61046,1,2,0:0:0:0:
405,164,61234,2,0,P|399:203|392:239,1,70,0|2,3:0|0:0,0:0:0:0:
307,266,61609,1,0,1:0:0:0:
237,202,61796,1,2,0:0:0:0:
215,295,61984,6,0,P|209:334|202:370,1,70,0|2,3:0|0:0,0:0:0:0:
120,310,62359,2,0,P|126:271|133:235,1,70,0|2,1:0|0:0,0:0:0:0:
137,148,62734,2,0,P|113:144|90:138,2,35,0|0|2,3:0|1:0|3:2,0:0:0:0:
222,106,63109,2,0,P|267:136|281:142,1,70,0|2,1:0|0:0,0:0:0:0:
365,100,63484,6,0,P|379:174|373:247,1,140,0|0,3:0|1:0,0:0:0:0:
283,229,64046,1,2,0:0:0:0:
256,322,64234,2,0,P|214:310|185:293,2,70,0|2|0,3:0|0:0|1:0,0:0:0:0:
358,350,64796,1,0,1:0:0:0:
358,350,64890,1,0,1:0:0:0:
358,350,64984,2,0,P|402:342|439:335,1,70,0|0,3:0|3:0,0:0:0:0:
466,258,65359,2,0,P|426:235|387:206,1,70,0|0,1:0|1:0,0:0:0:0:
341,158,65734,5,2,3:2:0:0:
329,183,65827,1,2,3:2:0:0:
312,205,65921,1,2,3:2:0:0:
289,222,66015,1,2,3:2:0:0:
266,238,66109,2,0,P|213:252|181:264,1,70,4|0,1:2|0:0,0:0:0:0:
123,225,66484,6,0,P|103:183|149:53,1,168,2|0,0:0|0:0,0:0:0:0:
130,69,67234,1,2,0:0:0:0:
256,33,67609,2,0,P|293:44|331:51,1,56,0|0,0:0|0:0,0:0:0:0:
387,46,67984,5,2,0:0:0:0:
480,177,68359,1,2,0:0:0:0:
321,184,68734,1,2,0:0:0:0:
321,184,69484,6,0,P|368:210|397:306,1,140,4|0,3:1|1:0,0:0:0:0:
340,344,70046,1,2,0:0:0:0:
259,345,70234,2,0,P|223:325|205:301,1,70,0|2,3:2|0:0,0:0:0:0:
127,325,70609,2,0,P|97:345|35:353,1,70,0|2,1:0|0:0,0:0:0:0:
27,281,70984,6,0,P|19:248|10:210,1,70,0|2,3:2|0:0,0:0:0:0:
98,233,71359,2,0,P|96:194|95:154,1,70,0|2,1:0|0:0,0:0:0:0:
177,184,71734,2,0,P|178:159|181:136,2,35,0|0|2,3:2|1:0|3:2,0:0:0:0:
251,224,72109,2,0,P|252:262|254:303,1,70,0|2,1:0|0:0,0:0:0:0:
330,326,72484,6,0,P|388:338|448:281,1,140,0|0,3:2|1:0,0:0:0:0:
466,210,73046,1,2,0:0:0:0:
421,141,73234,2,0,P|377:152|343:158,1,70,0|2,3:2|0:0,0:0:0:0:
341,75,73609,2,0,P|297:86|263:92,1,70,0|2,1:0|0:0,0:0:0:0:
196,61,73984,2,0,L|173:29,2,35,0|0|0,3:2|1:0|3:2,0:0:0:0:
190,143,74359,2,0,P|182:178|173:229,1,70,4|0,1:2|0:0,0:0:0:0:
103,256,74734,2,0,P|81:220|66:168,1,70,0|0,3:0|3:0,0:0:0:0:
63,167,75015,1,0,3:0:0:0:
62,138,75109,1,0,1:0:0:0:
88,54,75296,5,0,1:0:0:0:
88,54,75390,1,0,1:0:0:0:
88,54,75484,2,0,P|199:67|241:71,1,140,4|0,3:1|1:0,0:0:0:0:
308,52,76046,1,2,0:0:0:0:
388,31,76234,2,0,P|423:42|457:72,1,70,0|2,3:2|0:0,0:0:0:0:
430,142,76609,2,0,P|456:172|468:216,1,70,0|2,1:0|0:0,0:0:0:0:
431,276,76984,6,0,P|384:268|334:257,1,70,0|2,3:2|0:0,0:0:0:0:
289,169,77359,2,0,P|336:177|386:188,1,70,0|2,1:0|0:0,0:0:0:0:
430,142,77734,2,0,L|465:114,2,35,0|0|2,3:2|1:0|3:2,0:0:0:0:
381,74,78109,2,0,P|343:78|307:80,1,70,0|2,1:0|0:0,0:0:0:0:
240,40,78484,6,0,P|212:91|220:190,1,140,0|0,3:2|1:0,0:0:0:0:
257,241,79046,1,2,0:0:0:0:
319,297,79234,2,0,P|298:325|262:344,2,70,0|2|0,3:2|0:0|1:0,0:0:0:0:
396,259,79796,6,0,L|427:241,2,35,0|0|4,1:0|1:0|3:1,0:0:0:0:
383,147,80171,2,0,L|367:184,2,35,0|0|0,3:0|1:0|1:0,0:0:0:0:
323,85,80546,2,0,L|326:40,2,35,0|0|4,1:0|1:0|3:0,0:0:0:0:
238,97,80921,1,0,3:0:0:0:
238,97,81015,1,0,3:0:0:0:
238,97,81109,2,0,P|202:91|162:82,1,70,0|0,3:0|3:0,0:0:0:0:
76,42,81484,6,0,P|80:96|85:154,1,112,4|2,3:2|3:2,0:0:0:0:
96,232,82046,1,0,0:0:0:0:
34,285,82234,2,0,P|77:309|147:297,1,112,0|2,3:0|3:2,0:0:0:0:
286,219,82984,2,0,P|243:195|173:207,1,112,0|2,3:0|3:2,0:0:0:0:
224,272,83546,1,0,0:0:0:0:
301,300,83734,2,0,P|343:274|367:208,1,112,0|2,3:0|3:2,0:0:0:0:
324,72,84484,2,0,P|279:35|212:37,1,112,0|2,3:0|3:2,0:0:0:0:
152,47,85046,1,0,0:0:0:0:
76,42,85234,2,0,P|80:96|85:154,1,112,0|2,3:0|3:2,0:0:0:0:
142,301,85984,6,0,P|112:306|82:309,2,56,2|2|2,3:2|0:0|3:2,0:0:0:0:
213,269,86546,1,4,0:0:0:0:
272,321,86734,2,0,P|299:318|327:313,1,56,8|4,3:0|3:0,0:0:0:0:
405,296,87109,2,0,L|439:314,2,28,0|0|0,1:0|1:0|1:0,0:0:0:0:
366,226,87484,6,0,P|367:189|366:134,1,70,4|2,3:1|0:0,0:0:0:0:
359,128,87765,1,2,0:0:0:0:
341,105,87859,2,0,P|302:100|261:95,1,70,0|0,1:0|0:0,0:0:0:0:
198,56,88234,2,0,P|192:86|186:133,1,70,0|2,3:0|0:0,0:0:0:0:
206,208,88609,2,0,P|240:212|275:216,1,70,0|0,1:0|0:0,0:0:0:0:
334,279,88984,6,0,P|314:317|290:334,1,70,0|2,3:0|0:0,0:0:0:0:
266,341,89265,1,2,0:0:0:0:
237,341,89359,2,0,P|202:336|167:332,1,70,0|0,1:0|0:0,0:0:0:0:
85,339,89734,2,0,P|76:281|74:245,1,70,0|2,3:0|0:0,0:0:0:0:
136,211,90109,2,0,P|145:166|142:119,1,70,0|0,1:0|0:0,0:0:0:0:
102,68,90484,6,0,P|144:56|178:52,1,70,0|2,3:0|0:0,0:0:0:0:
196,60,90765,1,2,0:0:0:0:
222,68,90859,2,0,P|256:77|305:85,1,70,0|0,1:0|0:0,0:0:0:0:
365,42,91234,2,0,P|368:77|377:141,1,70,0|2,3:0|0:0,0:0:0:0:
323,175,91609,2,0,P|289:165|240:158,1,70,0|0,1:0|0:0,0:0:0:0:
177,205,91984,6,0,P|153:176|144:140,2,70,0|0|4,3:0|0:0|1:2,0:0:0:0:
242,256,92546,1,0,0:0:0:0:
325,265,92734,2,0,P|369:264|417:274,1,70,0|0,3:0|3:0,0:0:0:0:
421,275,93015,1,0,3:0:0:0:
446,286,93109,2,0,L|491:308,2,35,0|0|0,1:0|1:0|1:0,0:0:0:0:
466,201,93484,6,0,P|473:146|426:72,1,140,4|0,3:1|1:0,0:0:0:0:
357,50,94046,1,0,1:0:0:0:
331,209,94421,1,0,3:0:0:0:
331,209,94609,2,0,P|289:230|266:236,1,70,0|0,1:0|0:0,0:0:0:0:
229,311,94984,6,0,P|266:320|303:337,2,70,0|0|0,3:0|0:0|1:0,0:0:0:0:
152,344,95546,1,0,1:0:0:0:
152,344,95640,1,2,0:0:0:0:
152,344,95734,2,0,P|109:331|87:313,1,70,2|0,0:0|3:0,0:0:0:0:
59,243,96109,2,0,P|52:207|58:162,1,70,0|0,1:0|0:0,0:0:0:0:
94,105,96484,6,0,P|145:135|224:128,1,140,0|0,3:0|1:0,0:0:0:0:
284,81,97046,1,0,1:0:0:0:
439,37,97421,1,0,3:0:0:0:
439,37,97609,2,0,P|435:70|430:117,1,70,0|0,1:0|0:0,0:0:0:0:
405,184,97984,6,0,P|398:221|402:262,2,70,0|2|0,3:0|0:0|1:0,0:0:0:0:
349,126,98546,1,0,1:0:0:0:
272,149,98734,1,0,3:0:0:0:
245,142,98827,1,0,3:0:0:0:
218,133,98921,1,0,1:0:0:0:
191,123,99015,1,0,1:0:0:0:
167,108,99109,2,0,P|127:122|74:133,1,70,0|0,1:0|3:0,0:0:0:0:
22,166,99484,6,0,P|50:195|155:230,1,140,4|0,3:1|1:0,0:0:0:0:
224,273,100046,1,0,3:0:0:0:
224,273,100140,1,0,1:0:0:0:
224,273,100234,2,0,P|276:241|352:245,1,140,0|0,3:0|1:0,0:0:0:0:
425,287,100796,1,0,0:0:0:0:
471,216,100984,2,0,P|464:143|456:68,1,140,0|0,3:0|1:0,0:0:0:0:
377,57,101546,1,0,3:0:0:0:
377,57,101640,1,0,1:0:0:0:
377,57,101734,2,0,L|335:45,4,35,0|0|0|0|0,3:0|3:0|3:0|1:0|1:0,0:0:0:0:
370,146,102296,5,0,3:0:0:0:
370,146,102390,1,0,3:0:0:0:
370,146,102484,2,0,P|318:166|221:178,1,140,4|0,3:1|1:0,0:0:0:0:
158,156,103046,1,0,3:0:0:0:
158,156,103140,1,0,1:0:0:0:
158,156,103234,2,0,P|133:122|126:92,2,70,0|0|0,3:0|3:0|1:0,0:0:0:0:
172,235,103796,1,0,0:0:0:0:
234,283,103984,6,0,P|286:302|378:282,1,140,0|0,3:0|1:0,0:0:0:0:
438,245,104546,1,0,3:0:0:0:
438,245,104640,1,0,1:0:0:0:
438,245,104734,2,0,P|474:218|508:201,2,70,0|0|0,3:0|3:0|1:0,0:0:0:0:
361,215,105296,5,0,3:0:0:0:
361,215,105390,1,0,3:0:0:0:
361,215,105484,2,0,P|324:204|293:198,1,70,4|0,1:0|3:0,0:0:0:0:
217,186,105859,2,0,P|192:159|159:129,2,70,0|0|0,3:0|3:0|3:0,0:0:0:0:
262,118,106421,1,0,3:0:0:0:
344,107,106609,2,0,P|387:94|420:90,1,70,4|4,3:0|3:0,0:0:0:0:
475,150,106984,2,0,P|488:186|492:223,1,70,0|0,1:0|1:0,0:0:0:0:
429,280,107359,2,0,P|386:293|353:297,1,70,0|4,1:0|1:3,0:0:0:0:
275,283,107734,1,4,1:3:0:0:
225,210,107921,5,0,1:0:0:0:
225,210,108015,1,0,1:0:0:0:
225,210,108109,2,0,L|193:233,4,35,0|0|0|0|4,1:0|3:0|1:0|1:0|1:2,0:0:0:0:
228,89,108859,1,2,0:0:0:0:
126,28,109234,1,2,0:0:0:0:
22,86,109609,1,2,0:0:0:0:
22,206,109984,6,0,L|8:248,2,35,0|0|0,3:0|3:0|1:0,0:0:0:0:
89,263,110359,2,0,L|75:305,2,35,0|0|0,3:0|3:0|1:0,0:0:0:0:
169,306,110734,1,0,3:0:0:0:
196,304,110827,1,8,3:0:0:0:
223,301,110921,1,4,3:0:0:0:
250,297,111015,1,4,3:0:0:0:
277,293,111109,2,0,P|313:282|356:271,1,70,4|0,1:2|0:0,0:0:0:0:
418,203,111484,6,0,P|338:188|247:177,1,140,4|0,3:1|1:0,0:0:0:0:
192,219,112046,1,2,0:0:0:0:
107,171,112234,2,0,P|90:139|92:94,1,70,0|2,3:0|0:0,0:0:0:0:
161,41,112609,1,0,1:0:0:0:
200,126,112796,1,2,0:0:0:0:
277,63,112984,6,0,P|320:54|363:40,1,70,0|2,3:0|0:0,0:0:0:0:
419,107,113359,2,0,P|390:139|363:157,1,70,0|2,1:0|0:0,0:0:0:0:
292,220,113734,2,0,L|284:255,2,35,0|0|2,3:0|1:0|3:2,0:0:0:0:
378,276,114109,2,0,P|421:289|458:290,1,70,0|2,1:0|0:0,0:0:0:0:
307,342,114484,6,0,P|260:359|146:343,1,140,0|0,3:0|1:0,0:0:0:0:
145,264,115046,1,2,0:0:0:0:
71,328,115234,2,0,P|42:288|32:186,1,140,0|0,3:0|1:0,0:0:0:0:
53,108,115796,1,2,0:0:0:0:
128,53,115984,6,0,P|148:92|163:115,1,70,0|2,3:0|0:0,0:0:0:0:
240,172,116359,2,0,P|237:216|227:258,1,70,0|2,1:0|0:0,0:0:0:0:
293,318,116734,2,0,L|306:354,2,35,0|0|2,3:0|1:0|3:2,0:0:0:0:
385,297,117109,2,0,P|422:286|459:281,1,70,4|2,1:2|0:0,0:0:0:0:
482,189,117484,6,0,P|436:172|325:136,1,140,4|0,3:1|1:0,0:0:0:0:
313,56,118046,1,2,0:0:0:0:
240,121,118234,2,0,P|249:189|258:261,1,140,0|0,3:0|1:0,0:0:0:0:
333,325,118796,1,2,0:0:0:0:
244,354,118984,6,0,P|201:346|176:341,1,70,0|2,3:0|0:0,0:0:0:0:
88,289,119359,2,0,P|90:325|94:368,1,70,0|2,1:0|0:0,0:0:0:0:
168,235,119734,2,0,L|179:198,2,35,0|0|2,3:0|1:0|3:2,0:0:0:0:
78,192,120109,2,0,P|75:157|72:122,1,70,0|2,1:0|0:0,0:0:0:0:
109,37,120484,6,0,P|156:37|215:103,1,140,0|0,3:0|1:0,0:0:0:0:
276,175,121046,1,2,0:0:0:0:
212,248,121234,2,0,P|252:266|346:243,1,140,0|0,3:0|1:0,0:0:0:0:
398,166,121796,5,0,3:0:0:0:
398,166,121890,1,0,1:0:0:0:
398,166,121984,2,0,P|414:127|427:98,2,70,0|8|4,1:0|3:0|3:0,0:0:0:0:
457,244,122546,2,0,L|481:274,2,35,0|0|0,3:0|1:0|1:0,0:0:0:0:
401,320,122921,2,0,L|398:362,2,35,0|0|4,1:0|1:0|1:2,0:0:0:0:
310,323,123296,5,4,1:3:0:0:
310,323,123390,1,4,1:3:0:0:
310,323,123484,2,0,P|255:331|172:289,1,140,4|0,3:1|1:0,0:0:0:0:
163,201,124046,1,2,0:0:0:0:
256,210,124234,2,0,P|288:185|305:149,1,70,0|2,3:0|0:0,0:0:0:0:
318,63,124609,1,0,1:0:0:0:
391,130,124796,1,2,0:0:0:0:
360,227,124984,6,0,P|400:252|433:261,1,70,0|2,3:0|0:0,0:0:0:0:
490,179,125359,2,0,P|485:141|467:107,1,70,0|2,1:0|0:0,0:0:0:0:
393,56,125734,2,0,L|406:15,2,35,0|0|2,3:0|1:0|3:2,0:0:0:0:
298,83,126109,2,0,P|263:91|225:96,1,70,0|2,1:0|0:0,0:0:0:0:
288,178,126484,6,0,P|220:193|146:203,1,140,0|0,3:0|1:0,0:0:0:0:
57,203,127046,1,2,0:0:0:0:
110,118,127234,2,0,P|109:74|103:40,1,70,0|2,3:0|0:0,0:0:0:0:
18,114,127609,1,0,1:0:0:0:
57,203,127796,1,2,0:0:0:0:
85,294,127984,6,0,P|59:327|36:345,2,70,0|2|0,3:0|0:0|1:0,0:0:0:0:
168,248,128546,2,0,P|170:227|175:208,2,35,0|0|0,3:0|1:0|3:0,0:0:0:0:
221,324,128921,2,0,P|225:343|235:366,2,35,0|0|4,3:0|1:0|3:2,0:0:0:0:
301,281,129296,5,0,3:0:0:0:
301,281,129390,1,0,1:0:0:0:
301,281,129484,2,0,P|344:265|372:256,1,70,4|2,3:1|0:0,0:0:0:0:
431,191,129859,1,0,1:0:0:0:
347,144,130046,1,2,0:0:0:0:
258,183,130234,2,0,P|230:218|136:202,1,140,0|0,3:0|1:0,0:0:0:0:
185,123,130796,1,2,0:0:0:0:
250,55,130984,6,0,P|290:45|345:16,1,70,0|2,3:0|0:0,0:0:0:0:
392,85,131359,2,0,P|433:103|468:130,1,70,0|2,1:0|0:0,0:0:0:0:
459,218,131734,2,0,L|483:249,2,35,0|0|2,3:0|1:0|3:2,0:0:0:0:
368,186,132109,2,0,P|330:199|290:207,1,70,0|2,1:0|0:0,0:0:0:0:
232,146,132484,6,0,P|156:110|96:141,1,140,0|0,3:0|1:0,0:0:0:0:
44,199,133046,1,2,0:0:0:0:
104,271,133234,2,0,P|72:301|27:317,1,70,0|2,3:0|0:0,0:0:0:0:
161,202,133609,1,0,1:0:0:0:
189,295,133796,1,2,0:0:0:0:
272,254,133984,6,0,P|305:274|348:299,1,70,4|0,3:1|3:0,0:0:0:0:
359,296,134265,1,0,1:0:0:0:
386,302,134359,2,0,L|443:316,2,35,0|0|0,1:0|3:0|3:0,0:0:0:0:
433,221,134734,1,2,3:2:0:0:
422,195,134827,1,2,3:2:0:0:
411,168,134921,1,2,3:2:0:0:
400,141,135015,1,2,3:2:0:0:
389,114,135109,2,0,P|401:65|407:33,1,70,4|0,1:2|0:0,0:0:0:0:
319,55,135484,6,0,P|278:73|150:49,1,168,2|0,0:0|0:0,0:0:0:0:
159,55,136234,1,2,0:0:0:0:
40,97,136609,2,0,P|42:124|48:154,1,56,0|0,0:0|0:0,0:0:0:0:
69,226,136984,5,2,0:0:0:0:
228,224,137359,1,2,0:0:0:0:
134,90,137734,1,2,0:0:0:0:
287,37,138296,5,0,0:0:0:0:
287,37,138484,2,0,P|349:45|411:57,1,112,4|0,3:2|1:0,0:0:0:0:
473,68,139046,2,0,P|465:130|453:192,1,112,0|0,1:0|3:0,0:0:0:0:
437,253,139609,1,0,1:0:0:0:
289,302,139984,6,0,P|227:294|165:282,1,112,0|0,3:0|1:0,0:0:0:0:
103,271,140546,2,0,P|111:209|123:147,1,112,0|0,1:0|3:0,0:0:0:0:
139,86,141109,2,0,P|166:91|194:94,1,56,0|0,1:0|0:0,0:0:0:0:
266,60,141484,6,0,P|322:53|390:93,1,112,0|0,3:0|1:0,0:0:0:0:
420,135,142046,1,0,1:0:0:0:
360,187,142234,2,0,P|304:194|236:154,1,112,0|0,3:0|1:0,0:0:0:0:
100,190,142984,2,0,P|74:179|47:182,2,56,0|0|0,3:0|0:0|1:0,0:0:0:0:
134,262,143546,2,0,P|184:283|239:276,1,112,0|0,1:0|3:0,0:0:0:0:
262,200,144109,2,0,P|266:171|273:144,1,56,0|0,1:0|0:0,0:0:0:0:
327,89,144484,6,0,P|368:80|455:67,1,112,4|0,3:2|1:0,0:0:0:0:
482,137,145046,2,0,P|441:146|354:159,1,112,0|0,1:0|3:0,0:0:0:0:
296,160,145609,1,0,1:0:0:0:
214,295,145984,6,0,P|173:304|86:317,1,112,0|0,3:0|1:0,0:0:0:0:
59,247,146546,2,0,P|100:238|187:225,1,112,0|0,1:0|3:0,0:0:0:0:
245,224,147109,2,0,P|300:240|356:252,1,112,0|0,1:0|3:0,0:0:0:0:
392,101,147859,2,0,P|364:93|336:87,2,56,0|0|0,1:0|1:0|0:0,0:0:0:0:
439,169,148421,1,0,3:0:0:0:
439,169,148609,2,0,P|431:196|425:224,1,56,0|0,1:0|0:0,0:0:0:0:
416,300,148984,6,0,P|389:324|311:315,1,112,0|0,3:0|1:0,0:0:0:0:
240,309,149546,1,0,1:0:0:0:
168,276,149734,2,0,P|130:280|106:292,1,56,0|0,3:0|3:0,0:0:0:0:
58,231,150109,2,0,P|84:209|95:177,1,56,8|4,3:0|3:0,0:0:0:0:
99,111,150484,6,0,P|166:104|235:93,1,112,4|0,3:1|3:0,0:0:0:0:
349,178,151234,2,0,P|416:171|485:160,1,112,0|0,3:0|3:0,0:0:0:0:
409,313,151984,2,0,P|353:321|297:326,1,112,0|0,3:0|3:0,0:0:0:0:
136,330,152734,2,0,P|80:338|24:343,1,112,0|0,3:0|3:0,0:0:0:0:
57,195,153484,6,0,P|62:137|38:83,1,112,0|0,3:0|3:0,0:0:0:0:
204,121,154234,2,0,P|199:179|223:233,1,112,0|0,3:0|3:0,0:0:0:0:
376,261,154984,1,2,3:2:0:0:
410,104,155359,1,2,3:2:0:0:
259,58,155734,1,2,3:2:0:0:
120,132,156109,1,2,3:2:0:0:
133,295,156484,6,0,P|137:318|134:345,5,37.3333333333333,6|2|0|2|2|0,3:2|0:0|0:0|3:2|0:0|0:0,0:0:0:0:
163,227,157234,6,0,P|183:240|199:261,5,37.3333333333333,2|2|0|2|2|0,3:2|0:0|0:0|3:2|0:0|0:0,0:0:0:0:
93,201,157984,6,0,P|55:209|18:215,1,56,0|2,3:0|0:0,0:0:0:0:
24,136,158359,2,0,P|62:128|99:122,1,56,0|2,3:0|0:0,0:0:0:0:
152,150,158734,2,0,P|208:139|264:127,1,112,0|0,3:0|3:0,0:0:0:0:
340,107,159296,1,0,0:0:0:0:
340,107,159484,1,4,3:1:0:0:
453,180,159859,6,0,P|457:208|461:243,1,56,0|0,3:0|3:0,0:0:0:0:
388,282,160234,2,0,P|384:254|380:226,1,56,0|4,3:0|3:0,0:0:0:0:
298,190,160609,2,0,P|302:218|306:253,1,56,4|4,3:0|3:0,0:0:0:0:
235,296,160984,6,0,P|203:300|166:304,1,70,4|0,3:0|1:0,0:0:0:0:
141,289,161265,1,0,3:0:0:0:
117,273,161359,2,0,L|68:278,3,35,0|0|0|0,1:0|1:0|1:0|3:0,0:0:0:0:
60,258,161734,2,0,L|11:263,2,35,0|0|0,1:0|1:0|3:0,0:0:0:0:
64,171,162109,5,4,1:3:0:0:
91,168,162202,1,4,1:3:0:0:
119,165,162296,1,4,1:3:0:0:
147,161,162390,1,4,1:3:0:0:
175,158,162484,2,0,P|192:119|198:83,2,70,4|2|0,3:1|0:0|1:0,0:0:0:0:
244,225,163046,2,0,P|254:266|273:303,1,70,2|0,0:0|3:0,0:0:0:0:
344,312,163421,1,2,0:0:0:0:
401,251,163609,2,0,P|391:210|372:173,1,70,0|2,1:0|0:0,0:0:0:0:
331,114,163984,6,0,P|260:107|187:98,1,140,0|0,3:0|1:0,0:0:0:0:
111,83,164546,1,2,0:0:0:0:
54,144,164734,2,0,L|12:163,2,35,0|0|2,3:0|1:0|3:2,0:0:0:0:
128,182,165109,2,0,P|162:186|197:189,1,70,0|2,1:0|0:0,0:0:0:0:
276,230,165484,6,0,P|250:282|276:358,1,140,0|0,3:0|1:0,0:0:0:0:
357,344,166046,2,0,P|389:334|426:324,1,70,2|0,0:0|3:0,0:0:0:0:
446,239,166421,2,0,P|412:249|378:258,1,70,2|0,0:0|1:0,0:0:0:0:
339,185,166796,2,0,P|371:175|408:165,1,70,2|0,0:0|3:0,0:0:0:0:
438,91,167171,2,0,P|386:84|348:76,1,70,2|0,0:0|1:0,0:0:0:0:
289,56,167546,2,0,L|266:28,2,35,2|0|0,3:2|1:0|3:0,0:0:0:0:
268,140,167921,2,0,L|291:168,2,35,0|0|0,3:0|3:0|1:0,0:0:0:0:
199,94,168296,5,0,1:0:0:0:
199,94,168390,1,0,1:0:0:0:
199,94,168484,2,0,P|149:85|69:136,1,140,4|0,3:1|1:0,0:0:0:0:
43,203,169046,1,2,0:0:0:0:
96,266,169234,2,0,P|128:246|153:223,1,70,0|2,3:0|0:0,0:0:0:0:
218,172,169609,1,0,1:0:0:0:
239,253,169796,1,2,0:0:0:0:
305,197,169984,6,0,P|300:161|290:114,1,70,0|2,3:0|0:0,0:0:0:0:
389,178,170359,2,0,P|394:214|404:261,1,70,0|2,1:0|0:0,0:0:0:0:
469,301,170734,2,0,L|503:326,2,35,0|0|2,3:0|1:0|3:2,0:0:0:0:
398,347,171109,2,0,P|354:344|322:340,1,70,0|2,1:0|0:0,0:0:0:0:
249,312,171484,6,0,P|242:277|237:243,1,70,0|2,3:0|0:0,0:0:0:0:
145,180,171859,2,0,P|151:214|156:248,1,70,0|2,1:0|0:0,0:0:0:0:
102,314,172234,2,0,P|67:320|33:325,1,70,0|2,3:0|0:0,0:0:0:0:
12,242,172609,2,0,P|5:207|0:173,1,70,0|2,1:0|0:0,0:0:0:0:
44,96,172984,6,0,P|78:89|112:84,1,70,0|0,3:0|3:0,0:0:0:0:
139,94,173265,1,0,1:0:0:0:
165,102,173359,2,0,P|199:97|233:90,1,70,0|0,1:0|3:0,0:0:0:0:
319,77,173734,1,2,3:2:0:0:
314,104,173827,1,2,3:2:0:0:
309,131,173921,1,2,3:2:0:0:
304,158,174015,1,2,3:2:0:0:
299,185,174109,2,0,P|264:192|230:197,1,70,4|0,1:2|0:0,0:0:0:0:
150,210,174484,6,0,P|123:286|173:353,1,168,2|0,0:0|0:0,0:0:0:0:
245,340,175234,2,0,P|282:346|359:311,1,112,2|0,0:0|0:0,0:0:0:0:
394,258,175796,1,0,0:0:0:0:
394,258,175984,2,0,P|404:200|415:141,2,112,2|2|2,0:0|0:0|0:0,0:0:0:0:
282,221,177109,2,0,P|287:190|293:159,1,56,0|0,0:0|0:0,0:0:0:0:
217,148,177484,6,0,P|201:230|187:313,1,168,2|0,0:0|0:0,0:0:0:0:
124,353,178234,2,0,P|85:355|44:344,1,56,2|0,0:0|0:0,0:0:0:0:
97,281,178609,2,0,P|68:254|46:218,1,56,0|0,0:0|0:0,0:0:0:0:
129,213,178984,2,0,P|139:155|150:96,2,112,2|2|2,0:0|0:0|0:0,0:0:0:0:
228,344,180484,6,0,P|273:352|347:267,1,168,2|0,0:0|0:0,0:0:0:0:
333,193,181234,2,0,P|366:188|397:182,1,56,2|0,0:0|0:0,0:0:0:0:
276,245,181609,2,0,P|248:250|220:254,1,56,0|0,0:0|0:0,0:0:0:0:
143,252,181984,2,0,P|109:246|58:190,1,112,2|2,0:0|0:0,0:0:0:0:
32,71,182734,2,0,P|255:52|481:31,1,448,2|0,0:0|0:0,0:0:0:0:
469,111,185359,6,0,P|463:149|459:182,1,56,0|0,0:0|0:0,0:0:0:0:
452,243,185734,2,0,P|411:251|285:189,1,168,2|0,0:0|0:0,0:0:0:0:
234,163,186484,2,0,P|203:168|175:183,1,56,2|0,0:0|0:0,0:0:0:0:
227,240,186859,2,0,P|209:264|199:295,1,56,0|0,0:0|0:0,0:0:0:0:
277,299,187234,5,2,0:0:0:0:
388,168,187609,1,2,0:0:0:0:
421,336,187984,1,2,0:0:0:0:
196,328,188734,6,0,P|135:338|26:351,1,140,4|0,3:1|1:0,0:0:0:0:
19,262,189296,1,2,0:0:0:0:
49,172,189484,2,0,P|90:183|133:215,1,70,0|2,3:0|0:0,0:0:0:0:
194,246,189859,1,0,1:0:0:0:
201,145,190046,1,2,0:0:0:0:
278,213,190234,6,0,P|291:252|296:289,1,70,0|2,3:0|0:0,0:0:0:0:
405,273,190609,2,0,P|392:234|387:197,1,70,0|2,1:0|0:0,0:0:0:0:
418,111,190984,2,0,L|468:85,2,35,0|0|2,3:0|1:0|3:2,0:0:0:0:
322,71,191359,2,0,P|277:59|230:39,1,70,0|2,1:0|0:0,0:0:0:0:
162,70,191734,6,0,P|95:89|23:111,1,140,0|0,3:0|1:0,0:0:0:0:
26,211,192296,1,2,0:0:0:0:
77,298,192484,2,0,P|122:251|105:154,1,140,0|0,3:0|1:0,0:0:0:0:
212,146,193046,1,2,0:0:0:0:
281,214,193234,6,0,P|288:232|295:248,2,35,0|0|2,3:0|1:0|3:2,0:0:0:0:
349,142,193609,2,0,P|382:132|416:122,1,70,4|2,1:0|0:0,0:0:0:0:
482,202,193984,2,0,P|473:241|465:271,1,70,0|0,3:0|1:0,0:0:0:0:
458,297,194265,1,0,1:0:0:0:
451,324,194359,1,4,1:2:0:0:
358,345,194546,5,0,1:0:0:0:
358,345,194640,1,0,1:0:0:0:
358,345,194734,2,0,P|300:332|254:270,1,140,4|0,3:1|1:0,0:0:0:0:
281,172,195296,1,2,0:0:0:0:
186,142,195484,2,0,P|144:148|119:163,1,70,0|2,3:0|0:0,0:0:0:0:
107,261,195859,1,0,1:0:0:0:
22,211,196046,1,2,0:0:0:0:
41,110,196234,6,0,P|48:69|50:39,1,70,0|2,3:0|0:0,0:0:0:0:
149,44,196609,2,0,P|192:35|229:24,1,70,0|2,1:0|0:0,0:0:0:0:
304,82,196984,2,0,L|343:93,2,35,0|0|2,3:0|1:0|3:2,0:0:0:0:
233,152,197359,2,0,P|212:179|197:213,1,70,0|2,1:0|0:0,0:0:0:0:
234,303,197734,6,0,P|305:307|359:350,1,140,0|0,3:0|1:0,0:0:0:0:
449,319,198296,1,2,0:0:0:0:
383,252,198484,2,0,P|370:213|363:181,1,70,0|2,3:0|0:0,0:0:0:0:
446,135,198859,1,4,1:0:0:0:
372,73,199046,6,0,L|381:32,2,35,0|0|0,3:0|1:0|3:0,0:0:0:0:
291,119,199421,1,0,3:0:0:0:
291,119,199515,1,0,1:0:0:0:
291,119,199609,2,0,P|244:123|213:128,1,70,0|0,3:0|1:0,0:0:0:0:
121,116,199984,1,2,3:2:0:0:
128,142,200077,1,2,3:2:0:0:
135,169,200171,1,2,3:2:0:0:
142,196,200265,1,2,3:2:0:0:
149,223,200359,2,0,P|196:219|227:214,1,70,4|0,1:2|0:0,0:0:0:0:
311,222,200734,6,0,P|362:252|455:194,1,168,2|0,0:0|0:0,0:0:0:0:
450,205,201484,1,2,0:0:0:0:
440,70,201859,2,0,P|410:75|369:77,1,56,0|0,0:0|0:0,0:0:0:0:
309,62,202234,5,2,0:0:0:0:
148,34,202609,1,2,0:0:0:0:
195,186,202984,1,2,0:0:0:0:
400,205,203734,6,0,P|391:277|379:361,1,140,4|0,3:1|1:0,0:0:0:0:
302,317,204296,1,2,0:0:0:0:
225,350,204484,2,0,P|191:358|155:351,1,70,0|2,3:2|0:0,0:0:0:0:
107,285,204859,2,0,P|99:251|102:212,1,70,0|2,1:0|0:0,0:0:0:0:
184,205,205234,6,0,P|219:213|256:224,1,70,0|2,3:2|0:0,0:0:0:0:
138,129,205609,2,0,P|174:108|207:89,1,70,0|2,1:0|0:0,0:0:0:0:
283,98,205984,2,0,L|294:61,2,35,0|0|2,3:2|1:0|3:2,0:0:0:0:
325,171,206359,2,0,P|362:161|397:150,1,70,0|2,1:0|0:0,0:0:0:0:
445,217,206734,6,0,P|423:253|316:252,1,140,0|0,3:2|1:0,0:0:0:0:
263,220,207296,1,2,0:0:0:0:
189,182,207484,2,0,P|144:171|113:173,1,70,0|2,3:2|0:0,0:0:0:0:
42,196,207859,2,0,P|39:230|52:268,1,70,0|2,1:0|0:0,0:0:0:0:
95,332,208234,2,0,L|105:365,2,35,0|0|0,3:2|1:0|3:2,0:0:0:0:
176,317,208609,2,0,P|208:291|240:268,1,70,4|0,1:2|3:0,0:0:0:0:
256,261,208890,1,0,1:0:0:0:
281,249,208984,1,0,1:0:0:0:
357,286,209171,2,0,L|367:319,2,35,0|0|0,1:0|1:0|3:0,0:0:0:0:
417,226,209546,5,0,1:0:0:0:
417,226,209640,1,0,1:0:0:0:
417,226,209734,2,0,P|427:165|439:84,1,140,4|0,3:1|1:0,0:0:0:0:
375,34,210296,1,2,0:0:0:0:
307,80,210484,2,0,P|270:94|234:101,1,70,0|2,3:2|0:0,0:0:0:0:
161,123,210859,2,0,P|131:101|108:70,1,70,0|2,1:0|0:0,0:0:0:0:
220,182,211234,6,0,P|203:232|195:269,1,70,0|2,3:2|0:0,0:0:0:0:
190,332,211609,2,0,P|151:341|112:343,1,70,0|2,1:0|0:0,0:0:0:0:
42,316,211984,2,0,P|35:333|28:361,2,35,0|0|2,3:2|1:0|3:2,0:0:0:0:
71,238,212359,1,0,1:0:0:0:
39,161,212546,5,0,1:0:0:0:
39,161,212640,1,0,1:0:0:0:
39,161,212734,2,0,P|69:121|156:121,1,140,4|0,3:2|3:0,0:0:0:0:
230,154,213296,2,0,P|243:166|259:183,2,35,0|0|0,3:0|1:0|3:0,0:0:0:0:
294,102,213671,2,0,P|304:88|315:70,2,35,0|0|0,3:0|3:0|1:0,0:0:0:0:
361,150,214046,1,0,1:0:0:0:
439,119,214234,5,4,1:0:0:0:
426,284,214609,1,4,1:0:0:0:
284,203,214984,1,4,1:2:0:0:
