osu file format v14

[General]
AudioFilename: audio.mp3
AudioLeadIn: 0
PreviewTime: 42390
Countdown: 0
SampleSet: Soft
StackLeniency: 0.7
Mode: 0
LetterboxInBreaks: 0
WidescreenStoryboard: 0

[Editor]
DistanceSpacing: 1
BeatDivisor: 4
GridSize: 16
TimelineZoom: 1

[Metadata]
Title:Kawaikute Gomen
TitleUnicode:可愛くてごめん
Artist:HoneyWorks feat. Capi
ArtistUnicode:HoneyWorks feat. かぴ
Creator:CoLouRed GlaZeE
Version:Extra
Source:
Tags:japanese pop jpop j-pop confession executive committee kokuhaku jikkou iinkai renai series koishiteru 告白実行委員会 -flying songs- 恋してる 〜恋愛シリーズ〜
BeatmapID:4002837
BeatmapSetID:1936584

[Difficulty]
HPDrainRate:7
CircleSize:4
OverallDifficulty:9
ApproachRate:9
SliderMultiplier:1.8
SliderTickRate:2

[Events]
//Background and Video events
0,0,"bgg.jpg",0,0
//Break Periods
//Storyboard Layer 0 (Background)
//Storyboard Layer 1 (Fail)
//Storyboard Layer 2 (Pass)
//Storyboard Layer 3 (Foreground)
//Storyboard Layer 4 (Overlay)
//Storyboard Sound Samples

[TimingPoints]
484,375,4,2,1,70,1,0
484,-125,4,2,1,70,0,0
5921,-125,4,2,1,5,0,0
6015,-125,4,2,1,70,0,0
6202,-125,4,2,1,5,0,0
6296,-125,4,2,1,70,0,0
6390,-125,4,2,1,5,0,0
6484,-125,4,2,1,70,0,0
8359,-100,4,2,1,70,0,0
8734,-83.3333333333333,4,2,1,70,0,0
9109,-125,4,2,1,70,0,0
9484,-125,4,2,1,60,0,0
10421,-125,4,2,1,50,0,0
10609,-125,4,2,1,40,0,0
10796,-125,4,2,1,30,0,0
10984,-100,4,2,1,70,0,0
36484,-100,4,2,1,60,0,0
38734,-100,4,2,1,70,0,0
39484,-125,4,2,1,60,0,0
40984,-100,4,2,1,60,0,0
41734,-100,4,2,1,70,0,0
42484,-100,4,2,1,80,0,1
54390,-100,4,2,1,80,0,0
54484,-100,4,2,1,80,0,1
66484,-125,4,2,1,60,0,0
66577,-125,4,2,1,5,0,0
66859,-125,4,2,1,60,0,0
67327,-125,4,2,1,5,0,0
67609,-125,4,2,1,60,0,0
69484,375,4,2,1,70,1,1
69577,-100,4,2,1,70,0,0
74452,-100,4,2,1,5,0,0
74546,-100,4,2,1,70,0,0
74640,-100,4,2,1,5,0,0
74734,-100,4,2,1,70,0,0
81484,-125,4,2,1,60,0,0
86640,-125,4,2,1,5,0,0
86734,-100,4,2,1,60,0,0
86827,-100,4,2,1,5,0,0
86921,-100,4,2,1,60,0,0
87015,-100,4,2,1,5,0,0
87109,-100,4,2,1,60,0,0
87484,-100,4,2,1,70,0,0
105484,-100,4,2,1,60,0,0
107546,-100,4,2,1,70,0,0
108484,-100,4,2,1,60,0,0
110734,-100,4,2,1,70,0,0
111484,-100,4,2,1,80,0,1
123390,-100,4,2,1,80,0,0
123484,-100,4,2,1,80,0,1
135484,-125,4,2,1,60,0,0
135577,-125,4,2,1,5,0,0
135859,-125,4,2,1,60,0,0
136327,-125,4,2,1,5,0,0
136609,-125,4,2,1,60,0,0
138484,375,4,2,1,60,1,0
138484,-125,4,2,1,60,0,0
155734,-100,4,2,1,60,0,0
156484,-125,4,2,1,60,0,0
160984,-100,4,2,1,60,0,0
162484,-100,4,2,1,80,0,1
162577,-100,4,2,1,80,0,0
168484,-100,4,2,1,80,0,1
168577,-100,4,2,1,80,0,0
174484,-125,4,2,1,60,0,0
174577,-125,4,2,1,5,0,0
175046,-125,4,2,1,60,0,0
175327,-125,4,2,1,5,0,0
175609,-125,4,2,1,60,0,0
176077,-125,4,2,1,5,0,0
176359,-125,4,2,1,60,0,0
176452,-125,4,2,1,5,0,0
176734,-125,4,2,1,60,0,0
177577,-125,4,2,1,5,0,0
178046,-125,4,2,1,60,0,0
179077,-125,4,2,1,5,0,0
179359,-125,4,2,1,60,0,0
179452,-125,4,2,1,5,0,0
179734,-125,4,2,1,60,0,0
179921,-125,4,2,1,40,0,0
180109,-125,4,2,1,35,0,0
180296,-125,4,2,1,30,0,0
180484,-125,4,2,1,60,0,0
180671,-125,4,2,1,30,0,0
181234,-125,4,2,1,60,0,0
181421,-125,4,2,1,30,0,0
181984,-125,4,2,1,60,0,0
182827,-125,4,2,1,5,0,0
184984,-125,4,2,1,60,0,0
185734,375,4,2,1,60,1,0
185734,-125,4,2,1,60,0,0
185827,-125,4,2,1,5,0,0
186296,-125,4,2,1,60,0,0
188452,-125,4,2,1,55,0,0
188546,-125,4,2,1,50,0,0
188640,-125,4,2,1,35,0,0
188734,375,4,2,1,80,1,1
193796,-66.6666666666667,4,2,1,80,0,1
194171,-100,4,2,1,80,0,1
197171,-55.5555555555556,4,2,1,80,0,1
197265,-55.5555555555556,4,2,1,5,0,1
197359,-71.4285714285714,4,2,1,80,0,1
197452,-71.4285714285714,4,2,1,5,0,1
197546,-83.3333333333333,4,2,1,80,0,1
197640,-83.3333333333333,4,2,1,5,0,1
197734,-100,4,2,1,80,0,1
199609,-83.3333333333333,4,2,1,80,0,1
199984,-100,4,2,1,80,0,1
200734,-125,4,2,1,60,0,0
200827,-125,4,2,1,5,0,0
201109,-125,4,2,1,60,0,0
201577,-125,4,2,1,5,0,0
201859,-125,4,2,1,60,0,0
203734,375,4,2,1,70,1,1
203827,-100,4,2,1,70,0,0
214421,-100,4,2,1,5,0,0
214609,-100,4,2,1,70,0,0
214796,-100,4,2,1,5,0,0
214984,-100,4,2,1,70,0,0
215077,-100,4,2,1,5,0,0
215359,-100,4,2,1,50,0,0

[Colours]
Combo1 : 71,199,170
Combo2 : 236,89,122
Combo3 : 62,181,202
Combo4 : 235,167,116

[HitObjects]
95,112,484,6,0,P|181:120|258:128,1,144,4|2,3:2|0:0,0:0:0:0:
383,203,1046,1,0,0:0:0:0:
273,169,1234,1,4,3:2:0:0:
444,140,1421,1,0,0:0:0:0:
331,178,1609,1,2,0:0:0:0:
469,90,1796,1,0,0:0:0:0:
455,284,1984,6,0,P|453:329|452:361,1,72,4|0,3:2|0:0,0:0:0:0:
328,250,2359,2,0,P|330:205|331:173,1,72,2|0,0:0|0:0,0:0:0:0:
205,72,2734,2,0,P|204:108|203:144,1,72,4|0,3:2|0:0,0:0:0:0:
198,239,3109,1,2,0:0:0:0:
69,325,3296,5,0,1:0:0:0:
69,325,3390,1,0,1:0:0:0:
69,325,3484,2,0,P|37:279|58:186,1,144,4|2,3:2|0:0,0:0:0:0:
123,139,4046,1,0,0:0:0:0:
125,251,4234,1,4,3:2:0:0:
238,308,4421,1,0,0:0:0:0:
238,308,4515,1,8,0:3:0:0:
238,308,4609,1,2,0:0:0:0:
125,251,4796,1,4,0:3:0:0:
394,279,4984,6,0,P|437:301|467:321,1,72,4|0,3:2|0:0,0:0:0:0:
321,332,5359,1,2,0:0:0:0:
377,149,5546,1,0,1:0:0:0:
377,149,5640,1,0,1:0:0:0:
377,149,5734,2,0,P|442:121|463:107,1,72,0|0,3:0|0:0,0:0:0:0:
471,75,6015,2,0,P|410:113|392:130,1,72,8|0,3:0|0:0,0:0:0:0:
377,149,6296,2,0,L|346:199,1,36,4|0,3:0|0:0,0:0:0:0:
258,118,6484,2,0,P|204:103|174:93,1,72,4|0,3:2|0:0,0:0:0:0:
93,283,6859,5,2,3:2:0:0:
143,215,7046,1,0,0:0:0:0:
143,215,7140,1,0,0:0:0:0:
143,215,7234,1,4,3:2:0:0:
180,308,7421,1,0,0:0:0:0:
188,130,7609,1,2,3:2:0:0:
307,322,7796,1,0,0:0:0:0:
480,185,7984,6,0,P|470:249|464:287,1,72,4|0,3:2|0:0,0:0:0:0:
414,132,8359,6,0,P|361:170|330:192,1,90,2|0,3:2|0:0,0:0:0:0:
404,47,8734,6,0,P|337:36|297:30,1,107.999996704102,4|0,3:2|1:0,0:0:0:0:
119,169,9109,5,0,1:0:0:0:
253,259,9296,1,0,1:0:0:0:
111,251,9484,5,2,0:0:0:0:
111,251,10046,1,2,0:0:0:0:
259,178,10234,1,2,0:0:0:0:
259,178,10421,1,2,0:0:0:0:
179,291,10609,5,2,0:0:0:0:
189,136,10797,1,2,0:0:0:0:
345,350,10984,5,0,3:0:0:0:
345,350,11077,1,0,1:0:0:0:
345,350,11171,1,0,3:0:0:0:
186,215,11359,1,0,1:0:0:0:
405,83,11546,5,0,3:0:0:0:
373,101,11640,1,0,3:0:0:0:
341,119,11734,1,0,3:0:0:0:
302,97,11827,1,0,3:0:0:0:
257,87,11921,1,2,1:2:0:0:
212,94,12015,1,2,1:2:0:0:
172,116,12109,1,4,1:2:0:0:
288,229,12296,1,0,3:0:0:0:
475,133,12484,6,0,P|486:84|478:31,1,90,4|0,3:1|0:0,0:0:0:0:
363,257,12859,1,0,1:0:0:0:
383,149,13046,1,0,0:0:0:0:
463,289,13234,1,2,3:2:0:0:
308,344,13421,2,0,P|259:338|215:321,1,90,0|0,0:0|1:0,0:0:0:0:
106,235,13796,5,0,0:0:0:0:
218,154,13984,2,0,P|264:145|318:132,1,90,2|0,3:2|0:0,0:0:0:0:
384,227,14359,1,0,1:0:0:0:
333,38,14546,1,0,0:0:0:0:
221,241,14734,1,2,3:2:0:0:
305,135,14921,2,0,P|259:126|205:113,1,90,0|0,0:0|1:0,0:0:0:0:
433,104,15296,5,0,0:0:0:0:
352,312,15484,1,2,3:2:0:0:
384,227,15671,1,0,0:0:0:0:
157,289,15859,1,0,1:0:0:0:
246,250,16046,1,0,0:0:0:0:
218,350,16234,1,2,3:2:0:0:
77,251,16421,2,0,P|59:208|53:166,1,90,0|0,0:0|1:0,0:0:0:0:
255,157,16796,5,0,0:0:0:0:
135,74,16984,1,2,3:2:0:0:
190,247,17171,1,0,0:0:0:0:
397,147,17359,1,0,1:0:0:0:
331,268,17546,1,0,0:0:0:0:
280,88,17734,5,2,3:2:0:0:
280,88,17827,1,0,1:0:0:0:
280,88,17921,1,0,3:0:0:0:
110,165,18109,2,0,P|67:186|24:198,1,90,0|0,1:0|0:0,0:0:0:0:
229,303,18484,5,2,3:2:0:0:
110,165,18671,1,0,0:0:0:0:
300,175,18859,1,0,1:0:0:0:
158,337,19046,1,0,0:0:0:0:
226,220,19234,1,2,3:2:0:0:
42,121,19421,2,0,P|39:55|34:23,1,90,0|0,0:0|1:0,0:0:0:0:
308,263,19796,5,0,0:0:0:0:
26,204,19984,2,0,P|44:245|57:289,1,90,2|0,3:2|0:0,0:0:0:0:
221,349,20359,1,0,1:0:0:0:
134,256,20546,1,0,0:0:0:0:
343,177,20734,1,2,3:2:0:0:
240,197,20921,2,0,P|187:184|147:168,1,90,0|0,0:0|1:0,0:0:0:0:
243,91,21296,5,0,0:0:0:0:
275,305,21484,1,2,3:2:0:0:
240,197,21671,1,0,0:0:0:0:
173,322,21859,1,0,1:0:0:0:
331,231,22046,1,0,0:0:0:0:
331,231,22140,1,2,0:0:0:0:
331,231,22234,1,2,3:2:0:0:
152,117,22421,2,0,P|197:103|239:87,1,90,0|0,0:0|1:0,0:0:0:0:
477,147,22796,5,0,0:0:0:0:
330,55,22984,1,0,3:0:0:0:
330,55,23077,1,0,1:0:0:0:
330,55,23171,1,0,3:0:0:0:
218,199,23359,2,0,L|237:248,1,45,0|0,1:0|0:0,0:0:0:0:
364,272,23546,2,0,L|327:314,1,45,0|0,1:0|0:0,0:0:0:0:
229,342,23734,5,0,3:0:0:0:
188,324,23827,1,0,3:0:0:0:
143,314,23921,1,0,1:0:0:0:
111,282,24015,1,0,1:0:0:0:
67,271,24109,1,0,1:0:0:0:
26,182,24296,1,0,3:0:0:0:
230,98,24484,6,0,P|272:72|295:36,1,90,4|0,3:1|0:0,0:0:0:0:
85,115,24859,1,0,1:0:0:0:
266,251,25046,2,0,P|323:259|369:253,1,90,0|0,1:0|0:0,0:0:0:0:
67,271,25421,5,0,3:0:0:0:
143,216,25609,1,0,1:0:0:0:
111,344,25796,1,0,0:0:0:0:
270,128,25984,6,0,P|251:183|230:216,2,90,0|0|0,3:0|0:0|1:0,0:0:0:0:
367,61,26546,1,0,1:0:0:0:
367,61,26640,1,2,0:0:0:0:
367,61,26734,1,2,0:0:0:0:
415,145,26921,1,0,3:0:0:0:
157,148,27109,1,0,1:0:0:0:
129,242,27296,1,0,0:0:0:0:
280,344,27484,5,0,3:0:0:0:
280,344,27671,2,0,P|276:298|272:244,1,90,0|0,0:0|1:0,0:0:0:0:
255,47,28046,1,0,1:0:0:0:
353,225,28234,1,0,0:0:0:0:
219,123,28421,1,0,3:0:0:0:
184,317,28609,2,0,P|140:292|123:254,1,90,0|0,1:0|0:0,0:0:0:0:
35,141,28984,5,0,3:0:0:0:
109,115,29171,1,2,0:0:0:0:
159,180,29359,1,0,1:0:0:0:
300,146,29546,1,0,1:0:0:0:
445,61,29734,5,0,3:0:0:0:
448,105,29827,1,0,3:0:0:0:
442,149,29921,1,0,1:0:0:0:
440,194,30015,1,0,1:0:0:0:
444,238,30109,1,0,1:0:0:0:
460,333,30296,1,0,3:0:0:0:
240,293,30484,6,0,P|301:307|342:307,1,90,4|0,3:1|0:0,0:0:0:0:
160,155,30859,2,0,P|100:163|53:183,1,90,0|0,1:0|3:0,0:0:0:0:
72,173,31140,1,0,1:0:0:0:
72,173,31234,1,0,3:0:0:0:
240,293,31421,1,0,0:0:0:0:
193,75,31609,1,0,1:0:0:0:
304,181,31796,1,0,0:0:0:0:
18,329,31984,6,0,P|106:309|203:289,1,180,0|0,3:0|1:0,0:0:0:0:
333,352,32546,2,0,L|356:308,1,45,0|0,3:0|1:0,0:0:0:0:
278,106,32734,1,0,3:0:0:0:
343,209,32921,2,0,L|352:163,1,45,0|0,1:0|1:0,0:0:0:0:
458,45,33109,1,0,1:0:0:0:
444,262,33296,5,0,3:0:0:0:
444,262,33390,1,0,3:0:0:0:
444,262,33484,2,0,P|354:253|242:240,1,180,4|0,3:1|1:0,0:0:0:0:
100,289,34046,1,0,3:0:0:0:
100,289,34140,1,0,1:0:0:0:
100,289,34234,1,0,3:0:0:0:
180,205,34421,1,0,3:0:0:0:
34,153,34609,1,0,1:0:0:0:
208,333,34796,5,0,0:0:0:0:
265,242,34984,2,0,P|290:178|305:135,1,90,0|0,3:0|0:0,0:0:0:0:
346,290,35359,5,0,1:0:0:0:
186,150,35546,1,0,3:0:0:0:
186,150,35640,1,0,1:0:0:0:
186,150,35734,2,0,P|160:91|138:50,1,90,0|0,3:0|3:0,0:0:0:0:
185,244,36109,5,0,1:0:0:0:
384,163,36296,1,0,0:0:0:0:
228,341,36484,5,4,3:1:0:0:
228,341,36671,1,0,3:0:0:0:
112,275,36859,1,0,3:0:0:0:
107,280,37046,1,0,3:0:0:0:
64,117,37234,1,0,3:0:0:0:
54,112,37421,1,0,3:0:0:0:
205,66,37609,5,4,3:0:0:0:
320,221,37796,1,4,3:0:0:0:
459,80,37984,5,0,1:0:0:0:
380,46,38171,1,0,1:0:0:0:
370,293,38359,1,0,1:0:0:0:
451,192,38546,1,0,1:0:0:0:
454,315,38734,1,4,1:3:0:0:
217,176,38921,1,4,1:3:0:0:
271,273,39109,5,4,1:3:0:0:
59,115,39296,1,4,1:3:0:0:
174,96,39484,6,0,P|257:69|315:26,1,144,6|2,0:0|0:0,0:0:0:0:
303,37,40234,2,0,P|289:92|237:179,1,144,2|2,0:0|0:0,0:0:0:0:
230,192,40984,6,0,L|211:236,2,45,0|0|0,3:0|3:0|3:0,0:0:0:0:
304,251,41265,1,0,1:0:0:0:
314,267,41359,2,0,L|358:300,1,45,0|0,1:0|0:0,0:0:0:0:
157,326,41546,2,0,L|119:360,1,45,0|0,1:0|0:0,0:0:0:0:
31,130,41734,5,2,3:2:0:0:
64,159,41827,1,2,3:2:0:0:
109,158,41921,1,2,3:2:0:0:
152,170,42015,1,2,3:2:0:0:
184,138,42109,2,0,P|234:131|278:127,1,90,4|0,1:2|0:0,0:0:0:0:
477,343,42484,6,0,P|397:339|306:329,1,135,4|2,3:1|0:0,0:0:0:0:
410,242,42859,2,0,P|352:257|300:262,1,90,0|2,1:0|0:0,0:0:0:0:
349,134,43234,1,0,3:0:0:0:
201,326,43421,1,2,0:0:0:0:
138,132,43609,1,0,1:0:0:0:
234,227,43796,1,2,0:0:0:0:
260,97,43984,6,0,P|220:55|193:19,1,90,0|2,3:0|0:0,0:0:0:0:
118,260,44359,2,0,P|100:312|76:348,1,90,0|2,1:0|0:0,0:0:0:0:
338,285,44734,1,0,3:0:0:0:
381,275,44827,1,0,1:0:0:0:
426,271,44921,1,2,3:2:0:0:
193,179,45109,5,0,1:0:0:0:
313,202,45296,1,2,0:0:0:0:
57,114,45484,6,0,P|143:98|216:15,1,180,0|0,3:0|1:0,0:0:0:0:
90,204,46046,1,2,0:0:0:0:
273,349,46234,1,0,3:0:0:0:
155,284,46421,1,2,0:0:0:0:
422,186,46609,1,0,1:0:0:0:
361,336,46796,1,2,0:0:0:0:
288,125,46984,6,0,P|301:188|313:227,1,90,0|2,3:0|0:0,0:0:0:0:
479,39,47359,2,0,P|444:79|408:108,1,90,0|2,1:0|0:0,0:0:0:0:
455,328,47734,1,0,3:0:0:0:
444,284,47827,1,0,1:0:0:0:
416,247,47921,1,2,3:2:0:0:
235,329,48109,1,4,1:2:0:0:
334,226,48296,1,2,0:0:0:0:
59,161,48484,6,0,P|50:222|64:297,1,135,4|2,3:1|0:0,0:0:0:0:
138,225,48859,2,0,P|140:175|132:124,1,90,0|2,1:0|0:0,0:0:0:0:
59,161,49234,1,0,3:0:0:0:
210,356,49421,1,2,0:0:0:0:
138,225,49609,1,0,1:0:0:0:
361,142,49796,1,2,0:0:0:0:
471,340,49984,6,0,P|415:321|367:283,1,90,0|2,3:0|0:0,0:0:0:0:
182,120,50359,2,0,P|222:175|233:205,1,90,0|2,1:0|0:0,0:0:0:0:
29,352,50734,1,0,3:0:0:0:
71,337,50827,1,0,1:0:0:0:
104,307,50921,1,2,3:2:0:0:
57,219,51109,5,0,1:0:0:0:
223,346,51296,1,2,0:0:0:0:
357,258,51484,2,0,P|293:249|209:136,1,180,0|0,3:0|1:0,0:0:0:0:
481,77,52046,1,2,0:0:0:0:
393,107,52234,2,0,P|341:134|303:147,1,90,0|2,3:0|0:0,0:0:0:0:
445,339,52609,1,0,1:0:0:0:
272,238,52796,1,2,0:0:0:0:
458,219,52984,5,0,3:0:0:0:
458,219,53077,1,0,1:0:0:0:
458,219,53171,1,0,3:0:0:0:
295,344,53359,1,0,1:0:0:0:
117,184,53546,1,0,3:0:0:0:
117,184,53640,1,0,1:0:0:0:
117,184,53734,2,0,L|65:171,1,45,0|0,1:0|0:0,0:0:0:0:
193,65,53921,2,0,L|175:132,1,45,0|0,1:0|0:0,0:0:0:0:
166,282,54109,2,0,L|122:302,1,45,4|0,1:2|0:0,0:0:0:0:
297,205,54296,5,0,1:0:0:0:
297,205,54390,1,0,1:0:0:0:
297,205,54484,2,0,P|383:220|441:237,1,135,4|2,3:1|0:0,0:0:0:0:
462,302,54859,2,0,P|410:269|380:233,1,90,0|2,1:0|0:0,0:0:0:0:
290,318,55234,1,0,3:0:0:0:
465,68,55421,2,0,P|445:114|409:154,1,90,2|0,0:0|1:0,0:0:0:0:
181,90,55796,1,2,0:0:0:0:
156,354,55984,6,0,P|177:295|194:259,1,90,0|2,3:0|0:0,0:0:0:0:
323,56,56359,2,0,P|323:122|317:173,1,90,0|2,1:0|0:0,0:0:0:0:
352,345,56734,1,0,3:0:0:0:
322,311,56827,1,0,1:0:0:0:
300,271,56921,1,2,3:2:0:0:
406,242,57109,5,0,1:0:0:0:
211,181,57296,1,2,0:0:0:0:
474,47,57484,2,0,P|443:100|294:116,1,180,0|0,3:0|1:0,0:0:0:0:
183,80,58046,1,2,0:0:0:0:
120,348,58234,2,0,P|145:262|105:188,1,135,0|2,3:0|0:0,0:0:0:0:
66,165,58609,1,0,1:0:0:0:
229,306,58796,1,2,0:0:0:0:
409,123,58984,6,0,P|394:175|383:215,1,90,0|2,3:0|0:0,0:0:0:0:
135,49,59359,2,0,P|147:100|157:148,1,90,0|2,1:0|0:0,0:0:0:0:
229,306,59734,1,0,3:0:0:0:
258,272,59827,1,0,1:0:0:0:
274,230,59921,1,2,3:2:0:0:
433,348,60109,5,4,1:2:0:0:
450,307,60202,1,0,3:0:0:0:
426,268,60296,1,0,1:0:0:0:
411,225,60390,1,0,1:0:0:0:
409,179,60484,2,0,P|428:105|480:53,1,135,4|2,3:1|0:0,0:0:0:0:
342,106,60859,2,0,P|387:87|423:59,1,90,0|2,1:0|0:0,0:0:0:0:
178,73,61234,5,0,3:0:0:0:
327,188,61421,1,2,0:0:0:0:
86,347,61609,1,0,1:0:0:0:
287,305,61796,1,2,0:0:0:0:
126,259,61984,6,0,P|164:235|206:218,1,90,0|2,3:0|0:0,0:0:0:0:
341,35,62359,2,0,P|317:79|305:122,1,90,0|2,1:0|0:0,0:0:0:0:
72,102,62734,1,0,3:0:0:0:
114,115,62827,1,0,1:0:0:0:
151,139,62921,1,2,3:2:0:0:
231,74,63109,5,0,1:0:0:0:
272,299,63296,1,2,0:0:0:0:
42,295,63484,2,0,P|129:280|200:198,1,180,0|0,3:0|1:0,0:0:0:0:
287,159,64046,1,2,0:0:0:0:
430,349,64234,1,0,3:0:0:0:
324,278,64421,1,2,0:0:0:0:
473,229,64609,1,0,1:0:0:0:
369,69,64796,5,0,1:0:0:0:
394,78,64890,1,0,1:0:0:0:
419,87,64984,1,0,3:0:0:0:
216,238,65171,1,0,3:0:0:0:
250,226,65265,1,0,1:0:0:0:
284,215,65359,2,0,L|316:151,1,45,0|0,1:0|0:0,0:0:0:0:
105,74,65546,2,0,L|135:133,1,45,0|0,1:0|0:0,0:0:0:0:
90,328,65734,5,2,3:2:0:0:
133,337,65827,1,2,3:2:0:0:
177,330,65921,1,2,3:2:0:0:
220,342,66015,1,2,3:2:0:0:
264,335,66109,2,0,L|376:314,1,90,4|0,1:2|0:0,0:0:0:0:
73,220,66484,6,0,P|139:214|213:176,1,144,2|0,0:0|0:0,0:0:0:0:
207,179,67046,1,0,0:0:0:0:
439,164,67234,2,0,P|373:170|299:208,1,144,2|0,0:0|0:0,0:0:0:0:
248,267,67796,1,0,0:0:0:0:
219,68,67984,5,2,0:0:0:0:
268,359,68359,1,2,0:0:0:0:
241,30,68734,1,2,0:0:0:0:
474,282,69484,6,0,P|464:193|452:84,1,180,4|0,3:1|1:0,0:0:0:0:
338,241,70046,1,2,0:0:0:0:
376,144,70234,1,0,3:2:0:0:
347,325,70421,1,2,0:0:0:0:
183,146,70609,1,0,1:0:0:0:
261,267,70796,1,2,0:0:0:0:
283,77,70984,6,0,P|272:135|267:181,1,90,0|2,3:2|0:0,0:0:0:0:
193,318,71359,2,0,P|138:305|91:296,1,90,0|2,1:0|0:0,0:0:0:0:
38,195,71734,1,0,3:2:0:0:
38,195,71827,1,0,1:0:0:0:
38,195,71921,1,2,3:2:0:0:
163,184,72109,5,0,1:0:0:0:
193,318,72296,1,2,0:0:0:0:
342,246,72484,2,0,P|368:205|370:150,1,90,0|2,3:2|0:0,0:0:0:0:
140,75,72859,1,0,1:0:0:0:
261,254,73046,5,2,0:0:0:0:
215,130,73234,1,0,3:2:0:0:
342,246,73421,1,2,0:0:0:0:
282,342,73609,1,0,1:0:0:0:
372,164,73796,1,2,0:0:0:0:
176,212,73984,1,0,3:2:0:0:
176,212,74077,1,0,1:0:0:0:
176,212,74171,1,0,3:2:0:0:
28,107,74359,6,0,P|53:61|69:42,1,45,4|0,1:2|0:0,0:0:0:0:
66,222,74546,2,0,P|56:194|36:161,1,45,8|12,3:0|0:0,0:0:0:0:
50,304,74734,1,4,3:0:0:0:
238,294,74921,5,0,3:0:0:0:
202,300,75015,1,0,3:0:0:0:
172,321,75109,1,0,1:0:0:0:
388,172,75296,5,0,1:0:0:0:
350,147,75390,1,0,1:0:0:0:
304,149,75484,2,0,P|211:128|126:106,1,180,4|0,3:1|1:0,0:0:0:0:
180,213,76046,1,2,0:0:0:0:
84,35,76234,1,0,3:2:0:0:
227,102,76421,1,2,0:0:0:0:
95,201,76609,1,0,1:0:0:0:
247,269,76796,1,2,0:0:0:0:
125,322,76984,6,0,P|78:330|32:344,1,90,0|2,3:2|0:0,0:0:0:0:
366,259,77359,2,0,P|413:251|459:237,1,90,0|2,1:0|0:0,0:0:0:0:
233,143,77734,1,0,3:2:0:0:
233,143,77827,1,0,1:0:0:0:
233,143,77921,1,2,3:2:0:0:
252,235,78109,5,0,1:0:0:0:
209,51,78296,1,2,0:0:0:0:
252,235,78484,2,0,P|189:234|108:140,1,180,0|0,3:2|1:0,0:0:0:0:
226,325,79046,1,2,0:0:0:0:
396,166,79234,1,0,3:2:0:0:
340,267,79421,1,2,0:0:0:0:
295,70,79609,1,0,1:0:0:0:
462,112,79796,5,0,1:0:0:0:
469,128,79890,1,0,1:0:0:0:
476,144,79984,1,4,3:1:0:0:
250,188,80171,5,0,3:0:0:0:
276,192,80265,1,0,1:0:0:0:
302,196,80359,1,0,1:0:0:0:
40,76,80546,5,0,1:0:0:0:
59,116,80640,1,0,1:0:0:0:
79,156,80734,1,4,3:0:0:0:
295,70,80921,5,0,3:0:0:0:
295,70,81015,1,0,3:0:0:0:
295,70,81109,1,0,3:0:0:0:
203,110,81296,1,0,3:0:0:0:
168,203,81484,1,4,3:2:0:0:
197,299,81671,2,0,P|206:322|203:345,2,36,0|2|2,0:0|0:0|3:2,0:0:0:0:
303,323,82046,5,0,0:0:0:0:
197,299,82234,1,0,3:0:0:0:
168,203,82421,2,0,P|122:192|88:178,1,72,0|2,0:0|3:2,0:0:0:0:
272,113,82796,5,0,0:0:0:0:
168,203,82984,1,0,3:0:0:0:
290,250,83171,2,0,P|283:272|283:289,2,36,0|2|2,0:0|0:0|3:2,0:0:0:0:
379,192,83546,5,0,0:0:0:0:
290,250,83734,1,0,3:0:0:0:
272,113,83921,2,0,P|263:65|251:25,1,72,0|2,0:0|3:2,0:0:0:0:
162,98,84296,5,0,0:0:0:0:
272,113,84484,1,0,3:0:0:0:
376,71,84671,2,0,P|379:43|390:24,2,36,0|2|2,0:0|0:0|3:2,0:0:0:0:
358,197,85046,5,0,0:0:0:0:
272,233,85234,1,0,3:0:0:0:
219,307,85421,2,0,P|182:331|154:343,1,72,0|2,0:0|3:2,0:0:0:0:
117,210,85796,5,0,0:0:0:0:
13,169,85984,1,2,3:2:0:0:
117,210,86171,1,2,0:0:0:0:
224,226,86359,1,2,3:2:0:0:
331,216,86546,2,0,P|344:199|369:188,1,36,4|0,0:0|0:0,0:0:0:0:
405,172,86734,6,0,P|421:130|421:103,1,45,8|0,3:0|0:0,0:0:0:0:
469,282,86921,2,0,P|453:262|444:239,1,45,4|0,3:0|0:0,0:0:0:0:
390,329,87109,1,0,1:0:0:0:
366,355,87202,1,0,1:0:0:0:
329,352,87296,1,0,1:0:0:0:
315,318,87390,1,0,3:0:0:0:
335,288,87484,1,4,3:1:0:0:
151,197,87671,5,2,0:0:0:0:
150,233,87765,1,2,0:0:0:0:
135,265,87859,1,0,1:0:0:0:
234,144,88046,1,0,0:0:0:0:
57,212,88234,1,0,3:0:0:0:
120,70,88421,2,0,P|65:85|19:91,1,90,2|0,0:0|1:0,0:0:0:0:
135,265,88796,1,0,0:0:0:0:
277,58,88984,5,0,3:0:0:0:
357,251,89171,1,2,0:0:0:0:
325,232,89265,1,2,0:0:0:0:
289,229,89359,1,0,1:0:0:0:
417,161,89546,1,0,0:0:0:0:
222,288,89734,1,0,3:0:0:0:
200,150,89921,2,0,P|250:146|299:134,1,90,2|0,0:0|1:0,0:0:0:0:
398,80,90296,5,0,0:0:0:0:
277,58,90484,1,0,3:0:0:0:
267,294,90671,1,2,0:0:0:0:
288,265,90765,1,2,0:0:0:0:
289,229,90859,1,0,1:0:0:0:
381,313,91046,1,0,0:0:0:0:
405,181,91234,1,0,3:0:0:0:
381,313,91421,2,0,P|443:333|467:335,1,90,2|0,0:0|1:0,0:0:0:0:
249,129,91796,5,0,3:0:0:0:
249,129,91890,1,0,3:0:0:0:
249,129,91984,2,0,P|223:137|185:142,1,45,0|0,3:0|0:0,0:0:0:0:
335,77,92171,2,0,L|349:29,1,45,0|0,3:0|0:0,0:0:0:0:
289,229,92359,2,0,L|276:272,1,45,4|0,1:2|0:0,0:0:0:0:
140,187,92546,2,0,P|115:174|85:150,1,45,0|0,3:0|0:0,0:0:0:0:
39,96,92734,5,0,3:0:0:0:
30,130,92827,1,0,3:0:0:0:
24,165,92921,1,0,3:0:0:0:
28,200,93015,1,0,3:0:0:0:
20,235,93109,5,2,1:2:0:0:
63,244,93202,1,2,1:2:0:0:
89,280,93296,1,2,1:2:0:0:
133,275,93390,1,2,3:2:0:0:
174,292,93484,6,0,P|257:309|362:323,1,180,4|0,3:1|1:0,0:0:0:0:
440,245,94046,1,0,1:0:0:0:
346,310,94234,1,0,0:0:0:0:
279,194,94421,1,0,3:0:0:0:
353,300,94609,1,0,1:0:0:0:
373,142,94796,1,0,0:0:0:0:
202,153,94984,2,0,P|158:120|137:76,1,90,0|0,3:0|0:0,0:0:0:0:
141,90,95359,1,0,1:0:0:0:
230,284,95546,5,0,1:0:0:0:
230,284,95640,1,2,0:0:0:0:
230,284,95734,1,2,0:0:0:0:
308,196,95921,1,0,3:0:0:0:
230,284,96109,1,0,1:0:0:0:
152,168,96296,1,0,0:0:0:0:
286,102,96484,6,0,P|338:97|380:90,1,90,0|0,3:0|0:0,0:0:0:0:
220,209,96859,1,0,1:0:0:0:
286,102,97046,1,0,1:0:0:0:
220,209,97234,2,0,P|168:214|126:221,1,90,0|0,0:0|3:0,0:0:0:0:
322,310,97609,2,0,P|352:272|360:231,1,90,0|0,1:0|0:0,0:0:0:0:
375,90,97984,5,0,3:0:0:0:
437,158,98171,1,2,0:0:0:0:
233,47,98359,5,0,1:0:0:0:
283,242,98546,1,0,1:0:0:0:
61,79,98734,5,0,3:0:0:0:
53,123,98827,1,0,3:0:0:0:
55,168,98921,1,0,1:0:0:0:
55,213,99015,1,0,1:0:0:0:
47,257,99109,1,0,1:0:0:0:
31,350,99296,1,0,3:0:0:0:
208,149,99484,6,0,P|196:208|196:256,1,90,4|0,3:1|0:0,0:0:0:0:
319,350,99859,1,0,1:0:0:0:
288,202,100046,1,0,3:0:0:0:
288,202,100140,1,0,1:0:0:0:
288,202,100234,1,0,3:0:0:0:
429,148,100421,1,0,0:0:0:0:
346,270,100609,1,0,1:0:0:0:
195,237,100796,1,0,0:0:0:0:
250,46,100984,6,0,P|317:54|358:56,1,90,0|0,3:0|0:0,0:0:0:0:
462,35,101359,1,0,1:0:0:0:
366,187,101546,1,0,3:0:0:0:
366,187,101640,1,0,1:0:0:0:
366,187,101734,1,0,3:0:0:0:
145,115,101921,5,0,3:0:0:0:
145,115,102015,1,0,1:0:0:0:
145,115,102109,2,0,L|161:157,1,45,0|0,1:0|3:0,0:0:0:0:
96,253,102296,2,0,L|141:279,1,45,0|0,3:0|3:0,0:0:0:0:
230,359,102484,2,0,P|294:356|349:241,1,180,4|0,3:1|1:0,0:0:0:0:
250,134,103046,5,0,3:0:0:0:
250,134,103140,1,0,1:0:0:0:
250,134,103234,1,0,3:0:0:0:
367,71,103421,1,0,3:0:0:0:
154,121,103609,1,0,1:0:0:0:
266,278,103796,1,0,0:0:0:0:
367,71,103984,5,0,3:0:0:0:
250,134,104171,1,0,0:0:0:0:
266,278,104359,1,0,1:0:0:0:
391,205,104546,1,0,3:0:0:0:
391,205,104640,1,0,1:0:0:0:
391,205,104734,2,0,P|453:220|494:221,1,90,0|0,3:0|3:0,0:0:0:0:
325,349,105109,1,0,1:0:0:0:
182,274,105296,5,0,3:0:0:0:
182,274,105390,1,0,3:0:0:0:
182,274,105484,2,0,P|168:220|174:158,1,90,4|0,1:0|3:0,0:0:0:0:
212,106,105859,1,0,3:0:0:0:
427,297,106046,6,0,P|372:300|319:308,1,90,0|0,3:0|3:0,0:0:0:0:
241,336,106421,1,0,3:0:0:0:
378,185,106609,1,4,3:0:0:0:
134,78,106796,1,4,3:0:0:0:
474,129,106984,5,0,1:0:0:0:
364,97,107171,2,0,P|378:151|372:213,1,90,0|0,1:0|1:0,0:0:0:0:
113,350,107546,5,4,1:3:0:0:
337,304,107734,1,4,1:3:0:0:
44,176,107921,5,0,1:0:0:0:
88,184,108015,1,0,1:0:0:0:
117,218,108109,5,0,1:0:0:0:
161,223,108202,1,0,3:0:0:0:
193,192,108296,5,0,1:0:0:0:
204,148,108390,1,0,1:0:0:0:
243,125,108484,5,4,1:2:0:0:
193,192,108859,5,2,0:0:0:0:
117,218,109234,5,2,0:0:0:0:
44,176,109609,5,2,0:0:0:0:
125,63,109984,5,0,3:0:0:0:
156,80,110077,1,0,3:0:0:0:
179,107,110171,2,0,P|195:129|201:156,1,45,0|0,1:0|0:0,0:0:0:0:
387,321,110359,5,0,3:0:0:0:
356,304,110452,1,0,3:0:0:0:
333,277,110546,2,0,P|317:255|311:228,1,45,0|0,1:0|0:0,0:0:0:0:
200,284,110734,5,0,3:0:0:0:
221,234,110827,1,8,3:0:0:0:
256,192,110921,1,4,3:0:0:0:
291,150,111015,1,4,3:0:0:0:
312,100,111109,2,0,P|365:98|412:95,1,90,4|0,1:2|0:0,0:0:0:0:
200,284,111484,6,0,P|127:290|47:205,1,180,4|0,3:1|1:0,0:0:0:0:
28,87,112046,1,2,0:0:0:0:
233,192,112234,1,0,3:0:0:0:
120,157,112421,1,2,0:0:0:0:
240,83,112609,1,0,1:0:0:0:
269,325,112796,1,2,0:0:0:0:
463,197,112984,6,0,P|414:173|373:116,1,90,0|2,3:0|0:0,0:0:0:0:
127,340,113359,2,0,P|173:305|193:260,1,90,0|2,1:0|0:0,0:0:0:0:
162,34,113734,1,0,3:0:0:0:
175,76,113827,1,0,1:0:0:0:
211,102,113921,1,2,3:2:0:0:
94,195,114109,5,0,1:0:0:0:
313,266,114296,1,2,0:0:0:0:
359,40,114484,2,0,P|326:78|315:131,1,90,0|2,3:0|0:0,0:0:0:0:
188,277,114859,1,0,1:0:0:0:
418,125,115046,1,2,0:0:0:0:
178,100,115234,2,0,P|99:91|60:26,1,135,0|2,3:0|0:0,0:0:0:0:
22,126,115609,1,0,1:0:0:0:
94,351,115796,1,2,0:0:0:0:
328,242,115984,5,0,3:0:0:0:
213,201,116171,1,2,0:0:0:0:
304,344,116359,1,0,1:0:0:0:
418,125,116546,1,2,0:0:0:0:
131,229,116734,1,0,3:0:0:0:
177,227,116828,1,0,1:0:0:0:
213,201,116921,1,2,3:2:0:0:
359,40,117109,2,0,P|326:78|315:131,1,90,4|2,1:2|0:0,0:0:0:0:
475,348,117484,6,0,P|382:327|318:313,1,135,4|2,3:1|0:0,0:0:0:0:
245,349,117859,1,0,1:0:0:0:
432,239,118046,1,2,0:0:0:0:
137,324,118234,2,0,P|91:303|70:246,1,90,0|2,3:0|0:0,0:0:0:0:
269,165,118609,1,0,1:0:0:0:
52,65,118796,1,2,0:0:0:0:
349,270,118984,6,0,P|398:244|451:240,1,90,0|2,3:0|0:0,0:0:0:0:
136,64,119359,2,0,P|118:113|84:145,1,90,0|2,1:0|0:0,0:0:0:0:
202,351,119734,1,0,3:0:0:0:
216,308,119827,1,0,1:0:0:0:
204,264,119921,1,2,3:2:0:0:
319,109,120109,5,0,1:0:0:0:
437,318,120296,1,2,0:0:0:0:
396,52,120484,2,0,P|408:98|407:151,1,90,0|2,3:0|0:0,0:0:0:0:
299,333,120859,2,0,P|328:289|375:258,1,90,0|2,1:0|0:0,0:0:0:0:
123,109,121234,2,0,P|182:136|229:142,1,90,0|2,3:0|0:0,0:0:0:0:
94,348,121609,1,0,1:0:0:0:
174,282,121796,5,0,3:0:0:0:
141,250,121890,1,0,1:0:0:0:
96,244,121984,1,0,1:0:0:0:
220,358,122171,1,8,3:0:0:0:
284,151,122359,1,4,3:0:0:0:
443,309,122546,1,0,3:0:0:0:
397,306,122640,1,0,1:0:0:0:
360,331,122734,1,0,1:0:0:0:
431,34,122921,5,0,1:0:0:0:
442,77,123015,1,0,1:0:0:0:
472,110,123109,1,4,1:2:0:0:
419,120,123202,1,0,1:0:0:0:
374,150,123296,1,4,1:3:0:0:
346,196,123390,1,4,1:3:0:0:
344,250,123484,2,0,P|412:252|467:186,1,135,4|2,3:1|0:0,0:0:0:0:
357,75,123859,2,0,P|301:62|245:42,1,90,0|2,1:0|0:0,0:0:0:0:
150,199,124234,5,0,3:0:0:0:
262,169,124421,1,2,0:0:0:0:
29,308,124609,1,0,1:0:0:0:
184,104,124796,1,2,0:0:0:0:
386,340,124984,6,0,P|400:290|416:248,1,90,0|2,3:0|0:0,0:0:0:0:
70,193,125359,2,0,P|61:143|54:92,1,90,0|2,1:0|0:0,0:0:0:0:
351,120,125734,1,0,3:0:0:0:
357,75,125827,1,0,1:0:0:0:
376,34,125921,1,2,3:2:0:0:
166,123,126109,5,0,1:0:0:0:
343,221,126296,1,2,0:0:0:0:
140,359,126484,2,0,P|75:332|49:257,1,135,0|2,3:0|0:0,0:0:0:0:
70,193,126859,1,0,1:0:0:0:
335,324,127046,5,2,0:0:0:0:
216,229,127234,1,0,3:0:0:0:
256,354,127421,1,2,0:0:0:0:
339,197,127609,1,0,1:0:0:0:
131,128,127796,1,2,0:0:0:0:
388,67,127984,6,0,P|452:53|494:25,1,90,0|2,3:0|0:0,0:0:0:0:
393,264,128359,1,0,1:0:0:0:
131,128,128546,1,0,3:0:0:0:
168,152,128640,1,0,1:0:0:0:
191,190,128734,1,0,3:0:0:0:
393,149,128921,5,0,3:0:0:0:
352,169,129015,1,0,1:0:0:0:
320,200,129109,1,4,3:2:0:0:
312,252,129202,1,0,3:0:0:0:
275,292,129296,1,0,3:0:0:0:
225,313,129390,1,0,1:0:0:0:
170,311,129484,2,0,P|120:295|75:286,1,90,4|2,3:1|0:0,0:0:0:0:
400,301,129859,5,0,1:0:0:0:
225,169,130046,1,2,0:0:0:0:
11,208,130234,2,0,P|74:173|88:99,1,135,0|2,3:0|0:0,0:0:0:0:
251,84,130609,1,0,1:0:0:0:
36,35,130796,1,2,0:0:0:0:
164,255,130984,6,0,P|218:241|258:215,1,90,0|2,3:0|0:0,0:0:0:0:
481,354,131359,2,0,P|498:301|497:247,1,90,0|2,1:0|0:0,0:0:0:0:
375,36,131734,1,0,3:0:0:0:
382,80,131827,1,0,1:0:0:0:
411,114,131921,1,2,3:2:0:0:
218,126,132109,5,0,1:0:0:0:
374,265,132296,1,2,0:0:0:0:
156,349,132484,2,0,P|90:308|92:187,1,180,0|0,3:0|1:0,0:0:0:0:
146,67,133046,5,2,0:0:0:0:
208,258,133234,1,0,3:0:0:0:
218,126,133421,1,2,0:0:0:0:
78,212,133609,1,0,1:0:0:0:
304,337,133796,1,2,0:0:0:0:
462,133,133984,1,4,3:1:0:0:
208,258,134171,5,0,3:0:0:0:
241,227,134265,1,0,1:0:0:0:
286,224,134359,1,0,1:0:0:0:
62,77,134546,5,0,3:0:0:0:
106,83,134640,1,0,1:0:0:0:
141,110,134734,1,2,3:2:0:0:
176,69,134827,1,2,3:2:0:0:
228,54,134921,1,2,3:2:0:0:
281,62,135015,1,2,3:2:0:0:
320,98,135109,2,0,P|366:145|413:178,1,90,4|0,1:2|0:0,0:0:0:0:
225,346,135484,6,0,P|297:347|370:312,1,144,2|0,0:0|0:0,0:0:0:0:
361,318,136046,1,0,0:0:0:0:
151,196,136234,2,0,P|202:238|285:253,1,144,2|0,0:0|0:0,0:0:0:0:
360,237,136796,1,0,0:0:0:0:
151,196,136984,5,2,0:0:0:0:
443,207,137359,1,2,0:0:0:0:
73,146,137734,1,2,0:0:0:0:
402,80,138296,5,0,0:0:0:0:
402,80,138484,2,0,P|324:87|240:94,1,144,4|0,3:2|1:0,0:0:0:0:
73,146,139046,2,0,P|122:136|145:119,1,72,0|0,1:0|0:0,0:0:0:0:
184,51,139421,1,0,3:0:0:0:
140,124,139609,2,0,P|181:151|210:155,1,72,0|0,1:0|0:0,0:0:0:0:
266,213,139984,5,0,3:0:0:0:
352,225,140171,1,0,0:0:0:0:
430,185,140359,1,0,1:0:0:0:
437,271,140546,1,0,1:0:0:0:
487,342,140734,2,0,P|505:311|513:274,1,72,0|0,0:0|3:0,0:0:0:0:
366,302,141109,2,0,P|348:333|340:370,1,72,0|0,1:0|0:0,0:0:0:0:
215,296,141484,6,0,P|203:238|162:174,1,108,0|0,3:0|0:0,0:0:0:0:
146,176,141859,1,0,1:0:0:0:
281,230,142046,1,0,1:0:0:0:
347,170,142234,2,0,P|374:146|407:130,1,72,0|0,0:0|3:0,0:0:0:0:
215,296,142609,2,0,P|188:320|155:336,1,72,0|0,1:0|0:0,0:0:0:0:
65,317,142984,5,0,3:0:0:0:
124,252,143171,1,0,0:0:0:0:
47,207,143359,1,0,1:0:0:0:
222,126,143546,1,0,1:0:0:0:
222,126,143921,1,0,3:0:0:0:
139,158,144109,2,0,P|102:142|55:106,1,72,0|0,1:0|0:0,0:0:0:0:
342,69,144484,6,0,P|327:102|313:139,1,72,4|0,3:2|0:0,0:0:0:0:
393,192,144859,1,0,1:0:0:0:
342,69,145046,1,0,1:0:0:0:
308,224,145234,2,0,P|328:264|339:302,2,72,0|0|0,0:0|3:0|1:0,0:0:0:0:
229,176,145796,2,0,P|181:168|136:151,1,72,0|0,0:0|3:0,0:0:0:0:
222,304,146171,5,0,0:0:0:0:
308,224,146359,1,0,1:0:0:0:
229,176,146546,1,0,1:0:0:0:
222,304,146734,1,0,0:0:0:0:
308,224,146921,1,0,3:0:0:0:
155,242,147109,2,0,P|107:234|62:217,1,72,0|0,1:0|0:0,0:0:0:0:
229,176,147484,6,0,P|280:148|333:119,1,108,0|0,3:0|0:0,0:0:0:0:
352,103,147859,1,0,1:0:0:0:
243,57,148046,1,0,1:0:0:0:
378,187,148234,2,0,P|433:201|464:205,1,72,0|0,0:0|3:0,0:0:0:0:
312,261,148609,2,0,P|271:276|228:283,1,72,0|0,1:0|0:0,0:0:0:0:
243,281,148890,1,0,0:0:0:0:
243,281,148984,1,0,3:0:0:0:
146,206,149171,5,0,3:0:0:0:
114,305,149359,1,0,1:0:0:0:
229,207,149546,1,0,1:0:0:0:
64,157,149734,1,0,3:0:0:0:
200,61,149921,1,0,3:0:0:0:
200,61,150015,1,0,3:0:0:0:
200,61,150109,1,8,3:0:0:0:
357,167,150296,5,4,3:0:0:0:
357,167,150390,1,0,3:0:0:0:
357,167,150484,2,0,P|409:161|437:153,1,72,4|0,3:1|0:0,0:0:0:0:
314,270,150859,2,0,P|262:276|234:284,1,72,0|0,3:0|0:0,0:0:0:0:
428,156,151234,6,0,P|459:122|486:99,1,72,0|0,3:0|0:0,0:0:0:0:
244,281,151609,2,0,P|213:315|186:338,1,72,0|0,3:0|0:0,0:0:0:0:
409,253,151984,5,0,3:0:0:0:
284,197,152171,1,0,0:0:0:0:
357,167,152359,5,0,3:0:0:0:
232,111,152546,1,0,0:0:0:0:
104,161,152734,2,0,P|81:216|112:291,1,144,0|0,3:0|3:0,0:0:0:0:
166,222,153296,1,0,0:0:0:0:
58,92,153484,5,0,3:0:0:0:
152,61,153671,2,0,P|185:48|219:31,1,72,0|0,0:0|3:0,0:0:0:0:
340,208,154046,5,0,0:0:0:0:
303,113,154234,1,0,3:0:0:0:
245,230,154421,1,0,0:0:0:0:
340,208,154609,1,0,3:0:0:0:
387,299,154796,1,0,0:0:0:0:
290,324,154984,6,0,P|249:316|216:312,1,72,2|0,3:2|0:0,0:0:0:0:
222,60,155359,2,0,P|263:68|296:72,1,72,2|0,3:2|0:0,0:0:0:0:
97,232,155734,6,0,P|107:183|111:144,1,90,2|0,3:2|0:0,0:0:0:0:
414,151,156109,2,0,P|404:200|400:240,1,90,2|0,3:2|0:0,0:0:0:0:
219,312,156484,5,6,3:2:0:0:
219,312,156609,2,0,P|185:295|178:264,1,48,2|0,0:0|0:0,0:0:0:0:
50,232,156859,5,2,3:2:0:0:
50,232,156984,2,0,P|77:228|114:243,1,48,2|0,0:0|0:0,0:0:0:0:
302,274,157234,5,2,3:2:0:0:
302,274,157359,2,0,P|262:283|246:301,1,48,2|0,0:0|0:0,0:0:0:0:
106,195,157609,5,2,3:2:0:0:
106,195,157734,2,0,P|89:175|84:145,1,48,2|0,0:0|0:0,0:0:0:0:
201,121,157984,6,0,P|245:116|293:105,1,72,0|2,3:0|0:0,0:0:0:0:
393,79,158359,1,0,3:0:0:0:
225,31,158546,1,2,0:0:0:0:
247,204,158734,2,0,P|251:250|260:298,1,72,0|0,3:0|0:0,0:0:0:0:
422,307,159109,2,0,P|418:261|409:213,1,72,0|0,3:0|0:0,0:0:0:0:
179,340,159484,6,0,P|126:323|82:230,1,144,4|0,3:1|3:0,0:0:0:0:
57,151,160046,1,0,3:0:0:0:
171,212,160234,1,0,3:0:0:0:
363,77,160421,1,4,3:0:0:0:
231,121,160609,1,4,3:0:0:0:
338,291,160796,1,4,3:0:0:0:
452,153,160984,1,4,3:0:0:0:
304,188,161171,5,0,1:0:0:0:
268,196,161265,1,0,3:0:0:0:
237,215,161359,1,0,1:0:0:0:
203,202,161452,1,0,1:0:0:0:
167,194,161546,1,0,1:0:0:0:
131,191,161640,1,0,3:0:0:0:
96,199,161734,5,0,1:0:0:0:
64,215,161827,2,0,P|75:175|93:108,1,90,0|0,1:0|3:0,0:0:0:0:
132,53,162109,5,4,1:3:0:0:
182,34,162202,1,4,1:3:0:0:
235,38,162296,1,4,1:3:0:0:
282,63,162390,1,4,1:3:0:0:
328,37,162484,1,4,3:1:0:0:
370,287,162671,5,2,0:0:0:0:
413,120,162859,1,0,1:0:0:0:
285,326,163046,2,0,P|237:338|182:335,1,90,2|0,0:0|3:0,0:0:0:0:
173,122,163421,5,2,0:0:0:0:
285,225,163609,1,0,1:0:0:0:
250,38,163796,1,2,0:0:0:0:
105,270,163984,1,0,3:0:0:0:
257,136,164171,2,0,P|310:142|363:150,1,90,2|0,0:0|1:0,0:0:0:0:
445,65,164546,1,2,0:0:0:0:
416,321,164734,5,0,3:0:0:0:
416,321,164827,1,0,1:0:0:0:
416,321,164921,1,2,3:2:0:0:
165,209,165109,1,0,1:0:0:0:
445,65,165296,1,2,3:2:0:0:
461,96,165390,1,0,3:0:0:0:
457,131,165484,2,0,P|412:124|367:119,1,90,0|2,3:0|0:0,0:0:0:0:
224,271,165859,5,0,1:0:0:0:
76,103,166046,2,0,P|127:60|142:10,1,90,2|0,0:0|3:0,0:0:0:0:
339,263,166421,2,0,P|349:314|383:349,1,90,2|0,0:0|1:0,0:0:0:0:
37,345,166796,2,0,P|69:302|102:266,1,90,2|0,0:0|3:0,0:0:0:0:
277,134,167171,1,2,0:0:0:0:
194,229,167359,1,0,1:0:0:0:
391,74,167546,1,2,3:2:0:0:
391,74,167640,1,0,1:0:0:0:
391,74,167734,1,0,3:0:0:0:
104,61,167921,5,0,3:0:0:0:
91,94,168015,1,0,3:0:0:0:
99,129,168109,1,0,1:0:0:0:
143,130,168202,1,0,3:0:0:0:
186,143,168296,1,0,1:0:0:0:
180,187,168390,1,0,1:0:0:0:
194,229,168484,2,0,P|282:216|372:205,1,180,4|0,3:1|1:0,0:0:0:0:
311,316,169046,5,2,0:0:0:0:
431,110,169234,1,0,3:0:0:0:
424,285,169421,1,2,0:0:0:0:
250,65,169609,1,0,1:0:0:0:
372,205,169796,1,2,0:0:0:0:
80,345,169984,6,0,P|66:301|34:247,1,90,0|2,3:0|0:0,0:0:0:0:
292,235,170359,2,0,P|289:194|274:139,1,90,0|2,1:0|0:0,0:0:0:0:
478,42,170734,1,0,3:0:0:0:
478,42,170827,1,0,1:0:0:0:
478,42,170921,1,2,3:2:0:0:
250,65,171109,5,0,1:0:0:0:
372,195,171296,1,2,0:0:0:0:
51,205,171484,6,0,P|100:196|155:186,1,90,0|2,3:0|0:0,0:0:0:0:
461,179,171859,2,0,P|412:188|357:198,1,90,0|2,1:0|0:0,0:0:0:0:
173,351,172234,2,0,P|181:301|190:246,1,90,0|2,3:0|0:0,0:0:0:0:
339,33,172609,2,0,P|330:82|321:137,1,90,0|2,1:0|0:0,0:0:0:0:
366,313,172984,5,0,3:0:0:0:
206,143,173171,1,0,3:0:0:0:
243,168,173265,1,0,1:0:0:0:
264,207,173359,1,0,1:0:0:0:
51,93,173546,1,0,3:0:0:0:
339,33,173734,5,2,3:2:0:0:
299,54,173827,1,2,3:2:0:0:
255,67,173921,1,2,3:2:0:0:
229,104,174015,1,2,3:2:0:0:
206,143,174109,2,0,P|147:180|97:198,1,90,4|0,1:2|0:0,0:0:0:0:
329,245,174484,6,0,P|403:254|471:133,1,216,2|0,0:0|0:0,0:0:0:0:
440,78,175234,2,0,P|369:65|285:52,1,144,2|0,0:0|0:0,0:0:0:0:
233,95,175796,1,0,0:0:0:0:
119,158,175984,2,0,P|87:102|135:10,2,144,2|2|2,0:0|0:0|0:0,0:0:0:0:
215,193,177109,5,0,0:0:0:0:
119,158,177296,1,0,0:0:0:0:
99,259,177484,2,0,P|144:330|269:327,1,216,2|0,0:0|0:0,0:0:0:0:
336,296,178234,2,0,P|380:286|426:281,1,72,2|0,0:0|0:0,0:0:0:0:
481,280,178609,1,0,0:0:0:0:
368,213,178796,1,0,0:0:0:0:
417,97,178984,2,0,P|470:117|486:203,2,144,2|2|2,0:0|0:0|0:0,0:0:0:0:
343,109,179921,5,2,0:0:0:0:
272,134,180109,1,2,0:0:0:0:
202,111,180296,1,2,0:0:0:0:
128,106,180484,6,0,P|110:139|111:187,1,72,2|0,0:0|0:0,0:0:0:0:
272,134,180859,1,2,0:0:0:0:
202,111,181046,1,2,0:0:0:0:
128,105,181234,6,0,P|103:131|70:144,1,72,2|0,0:0|0:0,0:0:0:0:
272,134,181609,1,2,0:0:0:0:
202,111,181796,1,2,0:0:0:0:
128,105,181984,5,2,0:0:0:0:
384,105,182359,1,2,0:0:0:0:
128,105,182734,6,0,B|55:351|55:351|87:244|159:235|193:299|140:337|171:378|242:383|264:256,1,576,2|0,0:0|0:0,0:0:0:0:
257,285,185359,5,0,0:0:0:0:
227,212,185546,1,0,0:0:0:0:
280,152,185734,2,0,P|359:164|441:178,1,144,2|0,0:0|0:0,0:0:0:0:
480,106,186296,5,0,0:0:0:0:
388,132,186484,1,2,0:0:0:0:
483,258,186671,1,0,0:0:0:0:
363,310,186859,1,0,0:0:0:0:
404,214,187046,1,0,0:0:0:0:
447,350,187234,5,2,0:0:0:0:
447,34,187609,1,2,0:0:0:0:
447,350,187984,1,2,0:0:0:0:
360,154,188359,5,2,0:0:0:0:
326,166,188452,1,2,0:0:0:0:
312,191,188546,1,2,0:0:0:0:
291,197,188640,1,2,0:0:0:0:
277,209,188734,2,0,P|181:176|162:127,1,135,4|2,3:1|0:0,0:0:0:0:
303,42,189109,1,0,1:0:0:0:
348,297,189296,1,2,0:0:0:0:
83,208,189484,2,0,P|69:154|80:98,1,90,0|2,3:0|0:0,0:0:0:0:
415,123,189859,5,0,1:0:0:0:
168,152,190046,1,2,0:0:0:0:
430,219,190234,5,0,3:0:0:0:
402,355,190421,1,2,0:0:0:0:
303,60,190609,1,0,1:0:0:0:
348,297,190796,1,2,0:0:0:0:
98,105,190984,1,0,3:0:0:0:
140,117,191077,1,0,1:0:0:0:
168,152,191171,1,2,3:2:0:0:
400,150,191359,5,0,1:0:0:0:
112,234,191546,1,2,0:0:0:0:
348,297,191734,1,0,3:0:0:0:
287,90,191921,1,2,0:0:0:0:
482,190,192109,1,0,1:0:0:0:
260,246,192296,1,2,0:0:0:0:
80,63,192484,2,0,P|141:93|167:179,1,135,0|2,3:0|0:0,0:0:0:0:
112,234,192859,5,0,1:0:0:0:
287,90,193046,1,2,0:0:0:0:
408,358,193234,1,0,3:0:0:0:
367,339,193327,1,0,1:0:0:0:
348,297,193421,2,0,L|349:240,1,45,2|0,3:2|0:0,0:0:0:0:
446,157,193609,2,0,L|428:88,1,45,4|0,1:0|0:0,0:0:0:0:
287,90,193796,6,0,P|303:60|320:29,1,67.5000025749208,4|0,3:0|0:0,0:0:0:0:
480,231,193984,2,0,P|463:261|446:290,1,67.5000025749208,4|0,3:0|0:0,0:0:0:0:
225,340,194171,5,0,1:0:0:0:
256,295,194265,1,0,1:0:0:0:
243,242,194359,1,4,1:2:0:0:
190,233,194452,1,4,3:0:0:0:
143,204,194546,1,0,1:0:0:0:
174,159,194640,1,0,1:0:0:0:
161,106,194734,2,0,P|101:90|21:62,1,135,4|2,3:1|0:0,0:0:0:0:
316,126,195109,5,0,1:0:0:0:
207,30,195296,1,2,0:0:0:0:
225,340,195484,1,0,3:0:0:0:
366,214,195671,1,2,0:0:0:0:
32,66,195859,1,0,1:0:0:0:
89,331,196046,1,2,0:0:0:0:
436,56,196234,5,0,3:0:0:0:
274,65,196421,1,2,0:0:0:0:
424,141,196609,5,0,1:0:0:0:
93,174,196796,1,2,0:0:0:0:
439,307,196984,5,0,3:0:0:0:
366,304,197077,1,0,1:0:0:0:
295,318,197171,2,0,P|259:319|210:319,1,80.9999975280763,2|0,3:2|0:0,0:0:0:0:
328,173,197359,6,0,P|297:173|254:174,1,62.9999980773926,0|0,1:0|0:0,0:0:0:0:
163,248,197546,6,0,P|132:248|89:249,1,53.9999983520508,2|0,3:2|0:0,0:0:0:0:
274,65,197734,6,0,P|206:67|139:68,1,135,0|2,3:0|0:0,0:0:0:0:
44,66,198109,1,0,1:0:0:0:
163,248,198296,1,2,0:0:0:0:
436,56,198484,1,0,3:0:0:0:
274,65,198671,1,2,0:0:0:0:
286,341,198859,1,4,1:0:0:0:
285,167,199046,5,0,3:0:0:0:
285,167,199140,1,0,1:0:0:0:
285,167,199234,2,0,P|332:166|380:165,1,90,0|0,3:0|3:0,0:0:0:0:
429,164,199515,1,0,1:0:0:0:
483,162,199609,2,0,P|488:190|483:229,1,53.9999983520508,4|0,3:0|0:0,0:0:0:0:
410,294,199796,2,0,P|378:294|347:295,1,53.9999983520508,4|0,1:3|0:0,0:0:0:0:
159,190,199984,5,2,3:2:0:0:
89,204,200077,1,2,3:2:0:0:
82,276,200171,1,2,3:2:0:0:
147,305,200265,1,2,3:2:0:0:
196,252,200359,2,0,P|243:251|291:250,1,90,4|0,1:2|0:0,0:0:0:0:
429,164,200734,6,0,P|348:165|267:167,1,144,2|0,0:0|0:0,0:0:0:0:
285,167,201296,1,0,0:0:0:0:
355,81,201484,2,0,P|274:82|193:84,1,144,2|0,0:0|0:0,0:0:0:0:
137,85,202046,1,0,0:0:0:0:
256,288,202234,5,2,0:0:0:0:
256,288,202609,1,2,0:0:0:0:
256,288,202984,1,2,0:0:0:0:
256,288,203734,6,0,P|195:284|117:194,1,180,4|0,3:1|1:0,0:0:0:0:
207,151,204296,1,2,0:0:0:0:
176,359,204484,1,0,3:2:0:0:
37,269,204671,1,2,0:0:0:0:
272,209,204859,1,0,1:0:0:0:
338,348,205046,1,2,0:0:0:0:
119,201,205234,6,0,P|102:153|74:109,1,90,0|2,3:2|0:0,0:0:0:0:
368,35,205609,2,0,P|346:81|346:139,1,90,0|2,1:0|0:0,0:0:0:0:
472,306,205984,1,0,3:2:0:0:
472,306,206077,1,0,1:0:0:0:
472,306,206171,1,2,3:2:0:0:
445,104,206359,5,0,1:0:0:0:
357,268,206546,1,2,0:0:0:0:
165,147,206734,2,0,P|227:138|343:119,1,180,0|0,3:2|1:0,0:0:0:0:
486,219,207296,1,2,0:0:0:0:
272,46,207484,1,0,3:2:0:0:
445,104,207671,1,2,0:0:0:0:
256,276,207859,2,0,P|204:262|170:225,1,90,0|2,1:0|0:0,0:0:0:0:
87,98,208234,5,0,3:2:0:0:
87,98,208327,1,0,1:0:0:0:
87,98,208421,1,0,3:2:0:0:
292,166,208609,2,0,P|358:181|397:193,1,90,4|0,1:2|3:0,0:0:0:0:
412,173,208890,1,0,1:0:0:0:
445,159,208984,1,0,1:0:0:0:
381,340,209171,5,0,1:0:0:0:
337,329,209265,1,0,1:0:0:0:
308,294,209359,1,0,3:0:0:0:
280,329,209452,1,0,3:0:0:0:
237,343,209546,1,0,1:0:0:0:
226,299,209640,1,0,1:0:0:0:
191,270,209734,2,0,P|101:280|3:295,1,180,4|0,3:1|1:0,0:0:0:0:
275,199,210296,5,2,0:0:0:0:
133,129,210484,1,0,3:2:0:0:
372,110,210671,1,2,0:0:0:0:
324,348,210859,1,0,1:0:0:0:
178,213,211046,1,2,0:0:0:0:
483,105,211234,6,0,P|447:153|438:192,1,90,0|2,3:2|0:0,0:0:0:0:
233,351,211609,2,0,P|198:319|155:299,1,90,0|2,1:0|0:0,0:0:0:0:
39,149,211984,1,0,3:2:0:0:
39,149,212077,1,0,1:0:0:0:
39,149,212171,1,2,3:2:0:0:
314,206,212359,1,0,1:0:0:0:
150,41,212546,5,0,1:0:0:0:
150,41,212640,1,0,1:0:0:0:
150,41,212734,2,0,P|152:94|156:143,1,90,4|0,3:2|0:0,0:0:0:0:
169,229,213109,1,0,3:0:0:0:
403,136,213296,5,0,3:0:0:0:
381,108,213390,1,0,1:0:0:0:
347,97,213484,1,0,3:0:0:0:
321,321,213671,5,0,3:0:0:0:
365,314,213765,1,0,3:0:0:0:
398,285,213859,2,0,P|370:271|344:256,1,45,0|0,1:0|0:0,0:0:0:0:
256,192,214046,6,0,P|231:176|202:163,1,45,0|0,1:0|0:0,0:0:0:0:
113,98,214234,6,0,P|73:79|34:56,1,90,4|0,1:0|0:0,0:0:0:0:
213,271,214609,6,0,P|236:232|256:192,1,90,4|0,1:0|0:0,0:0:0:0:
481,126,214984,6,0,P|436:203|398:285,1,180,4|0,1:2|0:0,0:0:0:0:
