osu file format v14

[General]
AudioFilename: audio.mp3
AudioLeadIn: 0
PreviewTime: 69396
Countdown: 0
SampleSet: Soft
StackLeniency: 0.7
Mode: 0
LetterboxInBreaks: 0
WidescreenStoryboard: 0

[Editor]
DistanceSpacing: 1
BeatDivisor: 4
GridSize: 8
TimelineZoom: 1

[Metadata]
Title:Ima Suki ni Naru.
TitleUnicode:今好きになる。
Artist:HoneyWorks feat. Capi
ArtistUnicode:HoneyWorks feat. かぴ
Creator:CoLouRed GlaZeE
Version:Normal
Source:今好きになる。ショートストーリー
Tags:japanese jpop rock ハニワ 告白実行委員会〜恋愛シリーズ〜 kokuhaku jikkou iinkai renai series confession executive committee love 好きになるその瞬間を。 suki ni naru sono shunkan o. 初音ミク hatsune miku
BeatmapID:2751375
BeatmapSetID:1327918

[Difficulty]
HPDrainRate:3
CircleSize:3
OverallDifficulty:4
ApproachRate:5
SliderMultiplier:1.2
SliderTickRate:1

[Events]
//Background and Video events
0,0,"bg.png",0,0
//Break Periods
2,95185,105079
2,171420,181314
2,195420,196844
//Storyboard Layer 0 (Background)
//Storyboard Layer 1 (Fail)
//Storyboard Layer 2 (Pass)
//Storyboard Layer 3 (Foreground)
//Storyboard Layer 4 (Overlay)
//Storyboard Sound Samples

[TimingPoints]
397,352.941176470588,4,2,1,60,1,0
14514,-100,4,2,1,70,0,0
30044,-100,4,2,1,50,0,0
38514,-100,4,2,1,60,0,0
39926,-100,4,2,1,70,0,0
52632,-100,4,2,1,60,0,0
63926,-100,4,2,1,50,0,0
66749,-100,4,2,1,60,0,0
68867,-100,4,2,1,30,0,0
69573,-100,4,2,1,80,0,1
90749,-100,4,2,1,70,0,1
92161,-100,4,2,1,60,0,0
93573,-100,4,2,1,80,0,0
94985,-100,4,2,1,80,0,1
95073,-100,4,2,1,60,0,0
111926,-100,4,2,1,60,0,0
114749,-100,4,2,1,40,0,0
116161,-100,4,2,1,60,0,0
117573,-100,4,2,1,70,0,0
128867,-100,4,2,1,60,0,0
140161,-100,4,2,1,50,0,0
142985,-100,4,2,1,60,0,0
145102,-100,4,2,1,40,0,0
145808,-100,4,2,1,80,0,1
166985,-100,4,2,1,70,0,1
168396,-100,4,2,1,60,0,0
169808,-100,4,2,1,70,0,0
171220,-100,4,2,1,70,0,1
171573,-100,4,2,1,70,0,0
192485,-100,4,2,1,50,0,0
202279,-100,4,2,1,60,0,0
209338,-100,4,2,1,50,0,0
212161,-100,4,2,1,60,0,0
213573,-100,4,2,1,70,0,0
214808,-100,4,2,1,80,0,0
214985,-100,4,2,1,80,0,1
236073,-100,4,2,1,80,0,0
236161,-100,4,2,1,70,0,1
247279,-100,4,2,1,50,0,1
247455,-100,4,2,1,50,0,1
247544,-100,4,2,1,5,0,1
248867,-100,4,2,1,70,0,0
250279,-100,4,2,1,60,0,0
251691,-100,4,2,1,50,0,0
253102,-100,4,2,1,40,0,0
254426,-100,4,2,1,5,0,0

[Colours]
Combo1 : 71,199,170
Combo2 : 236,89,122
Combo3 : 62,181,202
Combo4 : 235,167,116

[HitObjects]
160,305,1808,6,0,P|219:297|279:284,1,120,0|0,3:0|3:0,0:0:0:0:
387,333,2514,1,0,3:0:0:0:
419,217,2867,1,0,3:0:0:0:
319,150,3220,2,0,P|259:157|200:171,1,120,0|0,3:0|3:0,0:0:0:0:
90,217,3926,2,0,P|75:156|79:91,1,120,0|0,3:0|3:0,0:0:0:0:
179,35,4632,6,0,L|305:45,1,120,0|0,3:0|3:0,0:0:0:0:
418,39,5338,2,0,P|439:101|428:173,1,120,0|0,3:0|3:0,0:0:0:0:
394,199,5867,1,0,0:0:0:0:
394,199,6044,2,0,P|392:273|412:319,1,120,0|0,3:0|3:0,0:0:0:0:
289,324,6749,2,0,P|220:349|164:348,1,120,0|0,3:0|3:0,0:0:0:0:
82,271,7455,6,0,P|59:214|73:157,1,120,4|0,3:2|1:0,0:0:0:0:
124,126,7985,1,0,1:0:0:0:
124,126,8161,2,0,P|133:89|128:68,2,60,0|0|0,3:0|1:0|1:0,0:0:0:0:
222,195,8867,2,0,P|286:201|363:221,1,120,4|0,1:2|1:0,0:0:0:0:
440,280,9573,1,0,3:0:0:0:
477,166,9926,1,0,1:0:0:0:
409,66,10279,6,0,P|323:58|284:37,1,120,2|0,0:0|0:0,0:0:0:0:
191,107,10985,2,0,P|105:99|66:78,1,120,2|0,0:0|0:0,0:0:0:0:
42,200,11691,2,0,P|142:269|278:267,1,240,0|0,0:0|1:0,0:0:0:0:
362,216,12749,1,0,1:0:0:0:
281,126,13102,6,0,P|178:50|53:51,2,240,0|0|0,3:0|0:0|3:0,0:0:0:0:
362,216,14867,1,0,3:0:0:0:
305,322,15220,1,0,1:0:0:0:
185,319,15573,1,0,1:0:0:0:
115,221,15926,6,0,P|98:181|86:165,2,60,4|2|0,3:2|0:0|1:0,0:0:0:0:
230,187,16632,1,0,3:0:0:0:
311,274,16985,1,0,1:0:0:0:
425,236,17338,2,0,P|427:169|418:109,1,120,0|0,3:0|1:0,0:0:0:0:
326,40,18044,2,0,P|287:46|249:50,1,60,0|2,3:0|0:0,0:0:0:0:
207,40,18396,1,0,1:0:0:0:
234,156,18749,6,0,L|251:221,2,60,0|2|0,3:0|0:0|1:0,0:0:0:0:
114,139,19455,1,0,3:0:0:0:
43,236,19808,1,0,1:0:0:0:
106,337,20161,2,0,P|181:354|233:353,1,120,0|0,3:0|1:0,0:0:0:0:
329,297,20867,2,0,P|360:327|379:348,1,60,0|2,3:0|0:0,0:0:0:0:
431,345,21220,2,0,P|477:317|500:300,1,60,0|2,1:0|0:0,0:0:0:0:
480,253,21573,6,0,P|489:210|496:182,2,60,4|2|0,3:2|0:0|1:0,0:0:0:0:
367,210,22279,1,0,3:0:0:0:
252,244,22632,1,0,1:0:0:0:
142,194,22985,2,0,P|90:209|17:210,1,120,0|0,3:0|1:0,0:0:0:0:
14,90,23691,2,0,P|56:71|89:66,1,60,0|2,3:0|0:0,0:0:0:0:
129,60,24044,1,0,1:0:0:0:
243,96,24396,6,0,P|247:59|246:30,2,60,0|2|0,3:0|0:0|1:0,0:0:0:0:
159,182,25102,1,0,3:0:0:0:
211,290,25455,1,0,1:0:0:0:
328,313,25808,2,0,P|391:313|458:333,1,120,0|0,3:0|1:0,0:0:0:0:
489,215,26514,2,0,P|475:183|464:154,1,60,0|2,3:0|0:0,0:0:0:0:
416,125,26867,2,0,P|370:112|353:102,1,60,0|2,1:0|0:0,0:0:0:0:
312,69,27220,6,0,P|238:53|173:61,1,120,4|0,3:2|1:0,0:0:0:0:
137,74,27749,1,0,3:0:0:0:
137,74,27926,2,0,P|128:136|133:198,1,120,0|0,3:0|1:0,0:0:0:0:
249,218,28632,2,0,P|318:208|386:215,1,120,0|0,3:0|1:0,0:0:0:0:
428,235,29161,1,0,3:0:0:0:
428,235,29338,1,0,1:0:0:0:
391,349,29691,1,0,1:0:0:0:
271,346,30044,6,0,P|198:354|144:345,2,120,4|0|0,1:2|3:0|3:0,0:0:0:0:
211,241,31102,1,0,3:0:0:0:
327,210,31455,2,0,P|400:218|454:209,2,120,0|0|0,3:0|3:0|3:0,0:0:0:0:
387,105,32513,1,0,3:0:0:0:
285,40,32867,6,0,P|256:83|199:127,1,120,0|0,3:0|3:0,0:0:0:0:
96,68,33573,2,0,P|95:139|73:199,1,120,0|0,3:0|3:0,0:0:0:0:
35,296,34279,2,0,P|96:322|152:328,1,120,0|0,3:0|3:0,0:0:0:0:
211,319,34808,1,0,0:0:0:0:
211,319,34985,2,0,L|230:200,1,120,0|0,3:0|3:0,0:0:0:0:
251,82,35691,5,0,0:0:0:0:
489,103,36396,1,2,0:0:0:0:
468,341,37102,1,0,0:0:0:0:
230,320,37808,1,2,0:0:0:0:
33,182,38514,6,0,P|92:176|158:180,1,120,0|0,3:0|3:0,0:0:0:0:
216,172,39044,1,0,3:0:0:0:
216,172,39220,2,0,P|288:179|337:177,1,120,0|0,1:0|1:0,0:0:0:0:
435,109,39926,2,0,P|445:175|442:242,1,120,0|0,1:0|1:0,0:0:0:0:
425,288,40455,1,0,1:0:0:0:
425,288,40632,2,0,P|376:315|356:319,1,60,2|2,1:2|1:2,0:0:0:0:
312,317,40985,1,2,1:2:0:0:
196,284,41338,6,0,P|129:308|82:349,1,120,4|0,1:2|1:0,0:0:0:0:
38,230,42044,1,0,3:0:0:0:
128,151,42396,1,0,1:0:0:0:
65,55,42749,1,0,3:0:0:0:
65,55,42926,2,0,P|146:48|201:28,1,120,0|0,1:0|1:0,0:0:0:0:
242,37,43455,1,0,3:0:0:0:
291,146,43808,1,0,1:0:0:0:
210,235,44161,6,0,P|222:310|218:360,1,120,0|0,3:0|1:0,0:0:0:0:
339,359,44867,2,0,P|327:284|331:234,1,120,0|0,3:0|1:0,0:0:0:0:
450,241,45573,2,0,P|461:179|454:110,1,120,0|0,3:0|1:0,0:0:0:0:
452,66,46102,1,0,3:0:0:0:
452,66,46279,2,0,P|405:64|378:64,1,60,0|0,3:0|1:0,0:0:0:0:
332,69,46632,1,0,1:0:0:0:
254,160,46985,6,0,P|177:175|127:168,1,120,4|0,3:2|1:0,0:0:0:0:
86,148,47514,1,0,0:0:0:0:
86,148,47691,2,0,P|87:217|78:270,1,120,0|0,3:0|1:0,0:0:0:0:
188,315,48396,2,0,P|252:342|307:341,1,120,0|0,3:0|1:0,0:0:0:0:
326,289,48926,1,0,0:0:0:0:
326,289,49102,2,0,P|402:310|443:344,1,120,0|0,3:0|1:0,0:0:0:0:
476,221,49808,5,0,3:0:0:0:
406,123,50161,1,0,1:0:0:0:
298,177,50514,1,0,3:0:0:0:
270,60,50867,1,0,1:0:0:0:
168,124,51220,2,0,P|154:195|158:247,1,120,0|0,3:0|1:0,0:0:0:0:
201,290,51749,1,0,3:0:0:0:
201,290,51926,2,0,P|182:339|161:358,1,60,0|0,3:0|1:0,0:0:0:0:
119,361,52279,1,0,1:0:0:0:
35,275,52632,6,0,P|26:221|24:144,1,120,4|0,3:2|3:0,0:0:0:0:
76,47,53338,1,0,3:0:0:0:
182,103,53691,1,0,3:0:0:0:
152,219,54044,2,0,P|229:226|278:239,1,120,0|0,1:0|1:0,0:0:0:0:
326,257,54573,2,0,P|331:220|342:182,2,60,4|0|0,0:0|3:0|1:0,0:0:0:0:
484,342,55455,5,0,3:0:0:0:
493,222,55808,2,0,P|465:154|453:107,1,120,0|0,1:0|1:0,0:0:0:0:
344,58,56514,1,4,0:3:0:0:
278,158,56867,2,0,P|207:150|147:134,1,120,0|0,3:0|1:0,0:0:0:0:
43,168,57573,2,0,P|22:90|19:45,1,120,0|0,3:0|1:0,0:0:0:0:
137,27,58279,5,4,3:2:0:0:
254,50,58632,1,0,1:0:0:0:
199,157,58985,2,0,P|216:220|219:284,1,120,0|0,3:0|1:0,0:0:0:0:
123,347,59691,2,0,P|106:284|103:220,1,120,0|0,3:0|1:0,0:0:0:0:
54,203,60220,1,0,0:0:0:0:
54,203,60396,2,0,P|72:128|73:84,1,120,0|0,3:0|1:0,0:0:0:0:
193,92,61102,5,0,3:0:0:0:
300,38,61455,1,0,1:0:0:0:
354,145,61808,1,0,3:0:0:0:
247,199,62161,1,0,1:0:0:0:
301,306,62514,2,0,P|372:319|430:313,1,120,0|0,3:0|1:0,0:0:0:0:
451,265,63044,1,0,1:0:0:0:
451,265,63220,2,0,P|459:226|458:196,1,60,0|0,1:0|1:0,0:0:0:0:
449,146,63573,1,0,1:0:0:0:
367,57,63926,5,0,3:0:0:0:
129,93,64632,1,2,0:3:0:0:
165,331,65338,1,0,3:0:0:0:
403,295,66044,1,2,0:3:0:0:
367,57,66749,6,0,P|306:41|250:47,1,120,0|0,3:0|3:0,0:0:0:0:
206,88,67279,1,0,3:0:0:0:
206,88,67455,2,0,P|134:76|74:88,1,120,0|0,3:0|3:0,0:0:0:0:
82,203,68161,2,0,P|154:215|214:203,1,120,0|0,1:0|1:0,0:0:0:0:
260,190,68691,1,0,1:0:0:0:
260,190,68867,1,2,0:0:0:0:
468,71,69573,6,0,P|454:144|464:204,1,120,6|0,3:2|1:0,0:0:0:0:
479,307,70279,1,0,3:0:0:0:
363,339,70632,1,0,1:0:0:0:
274,257,70985,2,0,P|186:242|147:218,1,120,2|0,3:2|1:0,0:0:0:0:
152,107,71691,1,0,3:0:0:0:
271,119,72044,1,0,1:0:0:0:
371,184,72396,6,0,P|399:255|402:301,1,120,2|0,3:2|1:0,0:0:0:0:
351,327,72926,1,2,0:0:0:0:
351,327,73102,1,0,3:0:0:0:
231,319,73455,2,0,P|197:345|164:358,2,60,0|0|2,1:0|0:0|3:2,0:0:0:0:
272,206,74161,1,0,1:0:0:0:
152,210,74514,2,0,P|117:162|96:143,1,60,0|2,3:0|1:2,0:0:0:0:
66,129,74867,1,0,1:0:0:0:
141,36,75220,5,6,3:2:0:0:
244,96,75573,1,0,1:0:0:0:
364,96,75926,2,0,P|392:55|409:38,1,60,0|2,3:0|0:0,0:0:0:0:
456,66,76279,1,0,1:0:0:0:
441,188,76632,2,0,P|415:259|413:309,1,120,2|0,3:2|1:0,0:0:0:0:
301,349,77338,2,0,P|233:316|166:307,1,120,0|0,3:0|1:0,0:0:0:0:
69,302,78044,5,2,3:2:0:0:
29,189,78396,1,2,1:2:0:0:
149,188,78749,1,2,3:2:0:0:
187,74,79102,1,2,1:2:0:0:
292,130,79455,2,0,P|320:173|323:244,1,120,2|2,3:2|1:2,0:0:0:0:
299,297,79985,1,0,3:0:0:0:
299,297,80161,1,2,3:2:0:0:
409,344,80514,1,2,1:2:0:0:
484,250,80867,6,0,P|473:173|473:120,1,120,6|0,3:2|1:0,0:0:0:0:
396,37,81573,1,0,3:0:0:0:
331,138,81926,1,0,1:0:0:0:
226,79,82279,2,0,P|169:66|113:34,1,120,2|0,3:2|1:0,0:0:0:0:
39,129,82985,5,0,3:0:0:0:
135,200,83338,1,0,1:0:0:0:
59,293,83691,1,2,3:2:0:0:
165,348,84044,1,2,1:2:0:0:
263,280,84396,2,0,P|328:317|367:362,1,120,2|2,3:2|1:2,0:0:0:0:
423,352,84926,1,2,0:0:0:0:
423,352,85102,2,0,P|446:273|480:237,1,120,2|0,3:2|1:0,0:0:0:0:
402,145,85808,5,0,3:0:0:0:
284,168,86161,1,0,1:0:0:0:
191,244,86514,2,0,P|122:231|75:218,1,120,6|0,3:2|1:0,0:0:0:0:
33,104,87220,1,0,3:0:0:0:
131,35,87573,1,2,1:2:0:0:
243,76,87926,2,0,P|315:54|365:48,1,120,2|0,3:2|1:0,0:0:0:0:
467,100,88632,1,0,3:0:0:0:
438,216,88985,1,0,1:0:0:0:
338,282,89338,6,0,P|319:323|302:338,1,60,2|0,3:2|3:0,0:0:0:0:
250,348,89691,1,2,1:2:0:0:
178,251,90044,1,2,3:2:0:0:
98,340,90396,1,4,3:0:0:0:
25,244,90749,2,0,P|12:164|99:30,1,240,6|0,0:0|0:0,0:0:0:0:
327,79,92161,6,0,P|265:122|243:179,1,120,0|2,3:0|0:0,0:0:0:0:
267,279,92867,2,0,P|324:335|386:345,1,120,2|2,0:0|0:0,0:0:0:0:
472,299,93573,2,0,P|505:233|500:163,1,120,0|0,3:0|3:0,0:0:0:0:
494,133,94102,1,0,3:0:0:0:
494,133,94279,1,0,3:0:0:0:
376,155,94632,1,0,1:0:0:0:
351,37,94985,1,4,1:2:0:0:
139,213,106279,6,0,P|175:270|233:287,1,120,0|0,3:0|3:0,0:0:0:0:
279,261,106808,1,0,3:0:0:0:
279,261,106985,2,0,P|342:297|369:348,1,120,0|4,3:0|0:3,0:0:0:0:
454,254,107691,2,0,P|466:168|476:130,1,120,0|0,1:0|1:0,0:0:0:0:
355,151,108396,2,0,P|302:136|252:75,1,120,0|0,1:0|3:0,0:0:0:0:
146,46,109102,5,0,3:0:0:0:
162,164,109455,1,0,1:0:0:0:
44,142,109808,1,4,1:3:0:0:
60,260,110161,1,4,1:3:0:0:
165,316,110514,2,0,P|244:303|271:261,1,120,0|0,3:0|3:0,0:0:0:0:
273,218,111044,1,4,1:2:0:0:
273,218,111220,2,0,P|263:158|255:88,1,120,0|4,3:0|0:3,0:0:0:0:
372,128,111926,6,0,P|456:98|494:82,2,120,0|2|0,3:0|0:0|0:0,0:0:0:0:
256,99,112985,1,2,0:0:0:0:
179,191,113338,2,0,P|171:255|168:312,2,120,0|2|0,0:0|0:0|0:0,0:0:0:0:
256,99,114396,1,2,0:0:0:0:
143,57,114749,6,0,P|90:92|63:142,1,120,0|2,1:0|1:2,0:0:0:0:
83,259,115455,2,0,P|149:264|208:227,1,120,0|2,1:0|1:2,0:0:0:0:
295,172,116161,1,2,3:2:0:0:
29,151,117573,6,0,P|5:213|14:271,1,120,4|0,3:2|1:0,0:0:0:0:
107,337,118279,2,0,P|165:327|226:314,1,120,0|0,3:0|1:0,0:0:0:0:
314,233,118985,1,0,3:0:0:0:
314,233,119161,2,0,P|242:203|201:196,1,120,0|0,1:0|1:0,0:0:0:0:
140,200,119691,1,0,3:0:0:0:
142,79,120044,1,0,1:0:0:0:
260,61,120396,5,0,3:0:0:0:
377,87,120749,2,0,P|425:145|472:172,1,120,0|0,1:0|3:0,0:0:0:0:
489,285,121455,1,0,1:0:0:0:
369,272,121808,2,0,P|307:296|235:295,1,120,0|0,3:0|1:0,0:0:0:0:
229,248,122338,1,0,3:0:0:0:
229,248,122514,2,0,P|233:208|230:184,1,60,0|0,3:0|1:0,0:0:0:0:
213,130,122867,1,0,1:0:0:0:
110,193,123220,6,0,P|37:162|16:114,1,120,4|0,3:2|1:0,0:0:0:0:
26,72,123749,1,0,0:0:0:0:
26,72,123926,2,0,L|152:51,1,120,0|0,3:0|1:0,0:0:0:0:
264,41,124632,2,0,P|336:54|385:76,1,120,0|0,3:0|1:0,0:0:0:0:
430,113,125161,1,0,0:0:0:0:
430,113,125338,2,0,P|415:190|420:239,1,120,0|0,3:0|1:0,0:0:0:0:
298,229,126044,5,0,3:0:0:0:
328,344,126396,1,0,1:0:0:0:
208,353,126749,1,0,3:0:0:0:
178,238,127101,1,0,1:0:0:0:
298,229,127455,2,0,P|276:160|270:98,1,120,0|0,3:0|1:0,0:0:0:0:
282,57,127985,1,0,3:0:0:0:
282,57,128161,2,0,P|229:67|217:67,1,60,0|0,3:0|1:0,0:0:0:0:
164,55,128514,1,8,3:0:0:0:
76,136,128867,6,0,P|85:194|145:236,1,120,4|0,3:2|3:0,0:0:0:0:
249,224,129573,1,0,3:0:0:0:
227,342,129926,1,0,3:0:0:0:
346,327,130279,2,0,P|418:313|456:282,1,120,0|0,3:0|3:0,0:0:0:0:
476,229,130808,2,0,P|473:200|484:169,2,60,0|0|0,0:0|3:0|0:0,0:0:0:0:
298,194,131691,5,0,3:0:0:0:
245,302,132044,1,0,3:0:0:0:
166,211,132396,1,0,3:0:0:0:
113,319,132749,1,0,3:0:0:0:
35,227,133102,2,0,P|21:178|31:103,1,120,0|0,3:0|3:0,0:0:0:0:
66,63,133632,1,0,0:0:0:0:
66,63,133808,2,0,P|143:81|197:68,1,120,0|0,1:0|1:0,0:0:0:0:
302,70,134514,5,4,3:2:0:0:
281,188,134867,1,0,1:0:0:0:
161,180,135220,2,0,P|142:260|160:319,1,120,0|0,3:0|1:0,0:0:0:0:
256,350,135926,2,0,P|336:338|396:334,1,120,0|0,3:0|1:0,0:0:0:0:
439,341,136455,1,0,0:0:0:0:
439,341,136632,2,0,P|437:270|419:213,1,120,0|0,3:0|1:0,0:0:0:0:
303,227,137338,5,4,3:2:0:0:
315,107,137691,1,0,1:0:0:0:
198,136,138044,1,0,3:0:0:0:
84,98,138396,1,0,1:0:0:0:
38,208,138749,2,0,P|33:282|43:344,1,120,0|0,3:0|1:0,0:0:0:0:
102,344,139279,1,0,1:0:0:0:
102,344,139455,2,0,P|141:341|165:344,1,60,0|0,1:0|1:0,0:0:0:0:
221,349,139808,1,0,1:0:0:0:
333,307,140161,5,4,3:2:0:0:
118,199,140867,1,2,0:3:0:0:
293,34,141573,1,0,3:0:0:0:
508,142,142279,1,2,0:3:0:0:
333,307,142985,6,0,P|251:315|201:332,1,120,0|0,3:0|3:0,0:0:0:0:
103,281,143691,1,0,3:0:0:0:
122,162,144044,1,0,3:0:0:0:
241,168,144396,2,0,P|322:175|373:143,1,120,0|4,3:0|3:0,0:0:0:0:
393,113,144926,1,4,3:0:0:0:
393,113,145102,1,2,1:2:0:0:
469,340,145808,6,0,P|401:329|344:344,1,120,6|0,3:2|1:0,0:0:0:0:
231,344,146514,1,0,3:0:0:0:
140,265,146867,1,0,1:0:0:0:
26,304,147220,2,0,P|21:236|11:169,1,120,2|0,3:2|1:0,0:0:0:0:
71,79,147926,2,0,P|108:130|151:176,1,120,0|0,3:0|1:0,0:0:0:0:
252,113,148632,6,0,P|303:82|366:92,1,120,2|0,3:2|1:0,0:0:0:0:
418,121,149161,1,2,0:0:0:0:
418,121,149338,1,0,3:0:0:0:
449,236,149691,2,0,P|480:268|503:279,2,60,0|0|2,1:0|0:0|3:2,0:0:0:0:
337,279,150396,1,0,1:0:0:0:
229,226,150749,2,0,P|220:295|222:311,1,60,0|2,3:0|1:2,0:0:0:0:
217,345,151102,1,0,1:0:0:0:
99,322,151455,5,6,3:2:0:0:
106,202,151808,1,0,1:0:0:0:
4,141,152161,2,0,P|6:103|16:71,1,60,0|2,3:0|0:0,0:0:0:0:
57,42,152514,2,0,P|91:34|127:36,1,60,0|0,1:0|0:0,0:0:0:0:
173,53,152867,2,0,P|246:61|291:97,1,120,2|0,3:2|1:0,0:0:0:0:
234,198,153573,5,0,3:0:0:0:
339,256,153926,1,2,1:2:0:0:
431,179,154279,2,0,P|464:121|457:55,1,120,2|2,3:2|1:2,0:0:0:0:
345,40,154985,1,2,3:2:0:0:
250,113,155338,1,2,1:2:0:0:
154,39,155691,2,0,P|111:72|94:148,1,120,2|2,3:2|1:2,0:0:0:0:
94,197,156220,1,0,1:0:0:0:
94,197,156396,2,0,P|112:260|118:323,1,120,2|2,3:2|1:2,0:0:0:0:
237,323,157102,5,6,3:2:0:0:
244,203,157455,1,0,1:0:0:0:
359,171,157808,1,0,3:0:0:0:
424,271,158161,1,0,1:0:0:0:
498,177,158514,2,0,P|503:112|490:50,1,120,2|0,3:2|1:0,0:0:0:0:
372,52,159220,5,0,3:0:0:0:
256,83,159573,1,0,1:0:0:0:
299,194,159926,2,0,P|368:197|412:221,1,120,2|2,3:2|1:2,0:0:0:0:
364,331,160632,2,0,P|299:342|233:326,1,120,2|2,3:2|1:2,0:0:0:0:
202,300,161161,1,2,0:0:0:0:
202,300,161338,2,0,P|126:315|83:360,1,120,2|0,3:2|1:0,0:0:0:0:
38,235,162044,5,0,3:0:0:0:
141,175,162396,1,0,1:0:0:0:
257,203,162749,2,0,P|335:228|396:229,1,120,6|0,3:2|1:0,0:0:0:0:
428,123,163455,2,0,P|350:98|289:97,1,120,0|2,3:0|1:2,0:0:0:0:
199,54,164161,1,2,3:2:0:0:
106,130,164514,1,0,1:0:0:0:
148,242,164867,2,0,P|154:304|139:360,1,120,2|0,3:2|1:0,0:0:0:0:
258,342,165573,6,0,P|266:288|271:265,1,60,2|0,3:2|3:0,0:0:0:0:
313,244,165926,1,0,1:0:0:0:
378,346,166279,1,2,3:2:0:0:
455,254,166632,1,4,3:0:0:0:
400,147,166985,2,0,P|333:87|189:123,1,240,4|0,0:0|0:0,0:0:0:0:
64,316,168396,6,0,P|123:348|182:345,1,120,0|2,3:0|0:0,0:0:0:0:
265,268,169102,2,0,P|330:298|391:278,1,120,2|2,0:0|0:0,0:0:0:0:
460,202,169808,1,0,3:0:0:0:
370,121,170161,1,0,3:0:0:0:
264,178,170514,1,2,3:2:0:0:
174,97,170867,2,0,P|133:107|106:123,1,60,0|2,1:0|1:2,0:0:0:0:
68,149,171220,1,6,3:2:0:0:
218,125,182514,6,0,P|284:114|332:82,1,120,6|0,3:2|1:0,0:0:0:0:
442,122,183220,1,2,3:2:0:0:
392,231,183573,1,2,1:2:0:0:
272,226,183926,2,0,P|213:208|147:214,1,120,2|0,3:2|1:0,0:0:0:0:
92,314,184632,1,2,3:2:0:0:
209,336,184985,6,0,P|257:353|276:361,2,60,0|2|6,1:0|1:2|1:2,0:0:0:0:
92,314,185691,2,0,P|53:347|36:359,2,60,2|2|6,1:2|1:2|1:2,0:0:0:0:
156,212,186396,2,0,P|146:161|144:141,2,60,0|0|6,3:0|1:0|1:2,0:0:0:0:
274,230,187102,1,0,3:0:0:0:
366,153,187455,5,2,1:2:0:0:
464,221,187808,1,2,1:2:0:0:
375,302,188161,2,0,P|303:319|258:352,1,120,6|0,3:2|1:0,0:0:0:0:
168,273,188867,1,2,3:2:0:0:
66,336,189220,1,2,1:2:0:0:
20,225,189573,2,0,P|28:163|26:97,1,120,2|0,3:2|1:0,0:0:0:0:
146,114,190279,1,2,3:2:0:0:
264,97,190632,6,0,P|267:59|258:29,2,60,2|2|2,1:2|1:2|3:2,0:0:0:0:
378,133,191338,2,0,P|403:112|420:79,2,60,2|2|2,1:2|1:2|3:2,0:0:0:0:
447,231,192044,2,0,P|485:223|512:205,2,60,2|2|4,1:2|0:0|3:2,0:0:0:0:
256,192,192749,12,2,195220,0:0:0:0:
309,125,198044,6,0,P|360:161|366:239,1,120,0|2,3:0|0:0,0:0:0:0:
253,233,198749,2,0,P|241:296|175:323,1,120,2|2,0:3|0:0,0:0:0:0:
134,219,199455,1,0,0:0:0:0:
359,302,200161,1,2,0:3:0:0:
426,71,200867,6,0,P|366:104|310:79,1,120,0|2,0:0|0:0,0:0:0:0:
201,71,201573,2,0,P|141:38|85:63,1,120,2|2,0:3|0:0,0:0:0:0:
20,147,202279,2,0,P|76:185|128:183,1,120,0|0,3:0|3:0,0:0:0:0:
184,160,202808,1,8,0:3:0:0:
184,160,202985,2,0,P|202:233|191:286,1,120,0|0,3:0|3:0,0:0:0:0:
308,313,203691,5,4,3:2:0:0:
405,242,204044,1,0,3:0:0:0:
357,132,204396,2,0,P|293:120|240:93,1,120,0|0,3:0|3:0,0:0:0:0:
138,38,205102,2,0,P|116:107|117:166,1,120,0|0,3:0|3:0,0:0:0:0:
128,218,205632,1,0,0:0:0:0:
128,218,205808,1,0,3:0:0:0:
246,200,206161,1,0,3:0:0:0:
353,252,206514,6,0,P|326:326|289:350,1,120,0|0,3:0|3:0,0:0:0:0:
175,330,207220,1,0,3:0:0:0:
80,255,207573,1,0,3:0:0:0:
71,135,207926,2,0,P|136:115|206:129,1,120,0|0,3:0|3:0,0:0:0:0:
245,149,208455,1,0,0:0:0:0:
245,149,208632,1,0,3:0:0:0:
329,63,208985,1,0,1:0:0:0:
427,131,209338,5,4,3:2:0:0:
204,40,210044,1,2,0:3:0:0:
113,263,210749,1,0,3:0:0:0:
336,354,211455,1,2,0:3:0:0:
427,131,212161,6,0,P|369:135|306:155,1,120,0|0,3:0|3:0,0:0:0:0:
255,143,212691,1,0,3:0:0:0:
255,143,212867,2,0,P|183:140|115:121,1,120,4|4,3:0|3:0,0:0:0:0:
99,243,213573,2,0,P|174:252|233:273,1,120,0|0,1:0|1:0,0:0:0:0:
280,273,214102,1,0,1:0:0:0:
280,273,214279,2,0,P|335:265|353:258,1,60,0|0,1:0|1:0,0:0:0:0:
394,240,214632,1,0,1:0:0:0:
376,121,214985,6,0,P|302:94|241:98,1,120,6|0,3:2|1:0,0:0:0:0:
151,44,215691,1,0,3:0:0:0:
130,162,216044,1,0,1:0:0:0:
227,231,216396,2,0,P|203:306|158:341,1,120,2|0,3:2|1:0,0:0:0:0:
53,340,217102,1,0,3:0:0:0:
22,223,217455,1,0,1:0:0:0:
96,128,217808,6,0,P|173:121|228:104,1,120,2|0,3:2|1:0,0:0:0:0:
264,75,218338,1,2,0:0:0:0:
264,75,218514,1,0,3:0:0:0:
382,96,218867,2,0,P|422:86|448:85,2,60,0|0|2,1:0|0:0|3:2,0:0:0:0:
323,201,219573,1,0,1:0:0:0:
204,217,219926,2,0,P|202:265|210:301,1,60,0|2,3:0|1:2,0:0:0:0:
216,335,220279,1,0,1:0:0:0:
335,328,220632,5,6,3:2:0:0:
454,341,220985,2,0,P|458:277|447:212,1,120,0|2,1:0|3:2,0:0:0:0:
449,166,221514,1,0,3:0:0:0:
449,166,221691,2,0,P|445:115|448:88,1,60,0|0,1:0|3:0,0:0:0:0:
447,46,222044,2,0,P|377:39|314:60,1,120,2|0,3:2|1:0,0:0:0:0:
249,141,222749,5,2,3:2:0:0:
363,178,223102,1,2,1:2:0:0:
363,298,223455,1,2,3:2:0:0:
249,335,223808,1,0,1:0:0:0:
179,238,224161,1,2,3:2:0:0:
84,312,224514,1,0,1:0:0:0:
22,208,224867,2,0,P|52:157|52:90,1,120,2|0,3:2|1:0,0:0:0:0:
50,41,225396,1,2,1:2:0:0:
50,41,225573,2,0,P|110:70|168:73,1,120,2|2,3:2|1:2,0:0:0:0:
278,41,226279,5,6,3:2:0:0:
389,86,226632,2,0,P|362:133|340:146,1,60,0|2,1:0|0:0,0:0:0:0:
308,174,226985,1,2,3:2:0:0:
188,163,227338,1,2,1:2:0:0:
83,222,227691,2,0,P|64:283|88:350,1,120,2|0,3:2|1:0,0:0:0:0:
196,314,228396,5,2,3:2:0:0:
311,347,228749,1,0,1:0:0:0:
387,254,229102,1,2,3:2:0:0:
492,196,229455,1,2,1:2:0:0:
420,99,229808,2,0,P|355:82|304:52,1,120,2|2,3:2|1:2,0:0:0:0:
255,44,230338,1,2,0:0:0:0:
255,44,230514,2,0,P|192:61|128:64,1,120,2|0,3:2|1:0,0:0:0:0:
125,184,231220,5,2,3:2:0:0:
244,173,231573,1,2,1:2:0:0:
357,210,231926,2,0,P|437:221|485:247,1,120,6|2,3:2|1:2,0:0:0:0:
423,348,232632,1,0,3:0:0:0:
304,329,232985,1,2,1:2:0:0:
184,344,233338,2,0,P|117:333|57:301,1,120,2|2,3:2|1:2,0:0:0:0:
34,195,234044,5,0,3:0:0:0:
153,204,234396,1,2,1:2:0:0:
266,165,234749,2,0,P|317:148|328:139,1,60,2|0,3:2|3:0,0:0:0:0:
363,102,235102,1,2,1:2:0:0:
470,155,235455,1,2,1:2:0:0:
415,262,235808,1,2,1:2:0:0:
310,319,236161,6,0,P|322:354|341:375,2,60,4|2|0,3:2|0:0|1:0,0:0:0:0:
205,259,236867,1,0,3:0:0:0:
296,181,237220,1,0,1:0:0:0:
218,89,237573,2,0,P|149:88|110:136,1,120,0|0,3:0|1:0,0:0:0:0:
22,198,238279,2,0,P|34:244|50:260,1,60,0|2,3:0|0:0,0:0:0:0:
96,277,238632,1,0,1:0:0:0:
215,291,238985,6,0,P|231:338|224:363,2,60,0|2|0,3:0|0:0|1:0,0:0:0:0:
266,182,239691,1,0,3:0:0:0:
360,256,240044,1,0,1:0:0:0:
427,157,240396,2,0,P|404:91|344:64,1,120,0|0,3:0|1:0,0:0:0:0:
246,38,241102,2,0,P|211:59|186:63,1,60,0|2,3:0|0:0,0:0:0:0:
132,61,241455,2,0,P|120:108|121:142,1,60,0|0,1:0|1:0,0:0:0:0:
154,168,241808,6,0,P|163:206|166:241,2,60,4|2|0,3:2|0:0|1:0,0:0:0:0:
44,217,242514,1,0,3:0:0:0:
71,333,242867,1,0,1:0:0:0:
190,328,243220,2,0,P|254:344|298:307,1,120,0|0,3:0|1:0,0:0:0:0:
324,197,243926,2,0,P|380:211|404:228,1,60,0|2,3:0|0:0,0:0:0:0:
431,244,244279,1,0,1:0:0:0:
473,131,244632,6,0,P|490:84|483:52,2,60,0|2|0,3:0|0:0|1:0,0:0:0:0:
372,64,245338,1,0,3:0:0:0:
257,100,245691,1,0,1:0:0:0:
275,218,246044,2,0,P|300:269|278:334,1,120,0|0,3:0|1:0,0:0:0:0:
165,345,246749,6,0,P|117:335|87:324,1,60,0|2,3:0|0:0,0:0:0:0:
59,293,247102,2,0,P|66:250|74:216,1,60,0|0,1:0|1:0,0:0:0:0:
95,179,247455,2,0,B|131:62|309:22|393:111|393:111|378:177|299:184,1,480,0|4,1:0|3:2,0:0:0:0:
256,192,249044,12,0,254426,0:0:0:0:
