osu file format v14

[General]
AudioFilename: audio.mp3
AudioLeadIn: 0
PreviewTime: 69396
Countdown: 0
SampleSet: Soft
StackLeniency: 0.7
Mode: 0
LetterboxInBreaks: 0
WidescreenStoryboard: 0

[Editor]
DistanceSpacing: 0.6
BeatDivisor: 4
GridSize: 8
TimelineZoom: 1

[Metadata]
Title:Ima Suki ni Naru.
TitleUnicode:今好きになる。
Artist:HoneyWorks feat. Capi
ArtistUnicode:HoneyWorks feat. かぴ
Creator:CoLouRed GlaZeE
Version:Insane
Source:今好きになる。ショートストーリー
Tags:japanese jpop rock ハニワ 告白実行委員会〜恋愛シリーズ〜 kokuhaku jikkou iinkai renai series confession executive committee love 好きになるその瞬間を。 suki ni naru sono shunkan o. 初音ミク hatsune miku
BeatmapID:2751003
BeatmapSetID:1327918

[Difficulty]
HPDrainRate:6
CircleSize:4
OverallDifficulty:7
ApproachRate:8.5
SliderMultiplier:1.8
SliderTickRate:1

[Events]
//Background and Video events
0,0,"bg.png",0,0
//Break Periods
2,95185,105604
2,195420,197369
//Storyboard Layer 0 (Background)
//Storyboard Layer 1 (Fail)
//Storyboard Layer 2 (Pass)
//Storyboard Layer 3 (Foreground)
//Storyboard Layer 4 (Overlay)
//Storyboard Sound Samples

[TimingPoints]
397,352.941176470588,4,2,1,60,1,0
397,-125,4,2,1,60,0,0
14514,-100,4,2,1,70,0,0
30044,-125,4,2,1,50,0,0
38514,-100,4,2,1,60,0,0
39926,-100,4,2,1,70,0,0
52632,-100,4,2,1,60,0,0
63926,-125,4,2,1,50,0,0
66749,-100,4,2,1,60,0,0
69573,-100,4,2,1,80,0,1
90749,-125,4,2,1,70,0,1
92161,-125,4,2,1,60,0,0
93573,-100,4,2,1,80,0,0
94985,-100,4,2,1,80,0,1
95073,-100,4,2,1,60,0,0
111926,-125,4,2,1,60,0,0
114749,-125,4,2,1,40,0,0
116161,-166.666666666667,4,2,1,60,0,0
117573,-100,4,2,1,70,0,0
128867,-100,4,2,1,60,0,0
140161,-125,4,2,1,50,0,0
142985,-100,4,2,1,60,0,0
145102,-125,4,2,1,40,0,0
145808,-100,4,2,1,80,0,1
166985,-125,4,2,1,70,0,1
168396,-125,4,2,1,60,0,0
169808,-100,4,2,1,70,0,0
171220,-100,4,2,1,70,0,1
171573,-100,4,2,1,70,0,0
192485,-125,4,2,1,50,0,0
202279,-100,4,2,1,60,0,0
209338,-125,4,2,1,50,0,0
212161,-100,4,2,1,60,0,0
213573,-100,4,2,1,70,0,0
214808,-100,4,2,1,80,0,0
214985,-100,4,2,1,80,0,1
236073,-100,4,2,1,80,0,0
236161,-100,4,2,1,70,0,1
247279,-100,4,2,1,50,0,1
247455,-200,4,2,1,50,0,1
247544,-200,4,2,1,5,0,1
248867,-200,4,2,1,70,0,0
250279,-200,4,2,1,60,0,0
251691,-200,4,2,1,50,0,0
253102,-200,4,2,1,40,0,0
254426,-200,4,2,1,5,0,0

[Colours]
Combo1 : 71,199,170
Combo2 : 236,89,122
Combo3 : 62,181,202
Combo4 : 235,167,116

[HitObjects]
199,142,1808,6,0,B|206:176|208:216,1,72,0|0,3:0|0:0,0:0:0:0:
208,213,2161,2,0,B|242:206|282:203,1,72,0|0,3:0|0:0,0:0:0:0:
313,62,2514,2,0,B|301:99|317:137,1,72,0|0,3:0|0:0,0:0:0:0:
398,239,2867,2,0,B|410:202|394:164,1,72,0|0,3:0|0:0,0:0:0:0:
364,319,3220,2,0,B|277:340|216:280,1,144,0|0,3:0|3:0,0:0:0:0:
228,291,3749,1,0,0:0:0:0:
150,245,3926,2,0,B|158:292|137:343,1,72,0|0,3:0|0:0,0:0:0:0:
61,339,4279,2,0,B|53:292|74:241,1,72,0|0,3:0|0:0,0:0:0:0:
129,82,4632,6,0,B|85:78|45:101,1,72,0|0,3:0|0:0,0:0:0:0:
105,167,4985,1,0,3:0:0:0:
227,75,5161,1,0,0:0:0:0:
227,75,5338,2,0,B|242:113|239:170,1,72,0|0,3:0|0:0,0:0:0:0:
229,239,5691,2,0,B|254:277|291:287,1,72,0|0,3:0|0:0,0:0:0:0:
450,230,6044,2,0,B|426:191|354:177|313:208,2,144,0|0|0,3:0|3:0|3:0,0:0:0:0:
450,230,6926,1,0,0:0:0:0:
404,308,7102,2,0,B|444:319|484:314,1,72,0|0,3:0|0:0,0:0:0:0:
497,134,7455,2,0,B|457:123|417:128,1,72,4|0,3:2|3:0,0:0:0:0:
261,97,7808,6,0,B|265:138|264:174,1,72,0|0,1:0|1:0,0:0:0:0:
269,261,8161,2,0,B|264:317|274:356,1,72,0|0,3:0|1:0,0:0:0:0:
240,336,8426,1,0,1:0:0:0:
211,341,8514,1,0,1:0:0:0:
182,338,8602,1,0,1:0:0:0:
155,327,8691,1,0,1:0:0:0:
127,320,8779,1,0,1:0:0:0:
98,324,8867,1,4,1:2:0:0:
183,78,9220,1,0,1:0:0:0:
232,151,9396,5,0,3:0:0:0:
232,151,9573,2,0,B|268:157|302:157,2,48,0|8|4,3:0|0:3|0:3,0:0:0:0:
145,167,9926,2,0,B|109:161|75:161,2,48,0|0|0,1:0|1:0|1:0,0:0:0:0:
198,239,10279,2,0,B|239:278|220:363|160:372,1,144,2|0,0:0|0:0,0:0:0:0:
390,214,10985,2,0,B|349:175|368:90|428:81,1,144,2|0,0:0|0:0,0:0:0:0:
405,88,11514,1,0,0:0:0:0:
327,125,11691,2,0,B|283:122|242:93,2,72,0|2|0,0:0|0:0|0:0,0:0:0:0:
437,279,12396,6,0,L|511:310,2,48,0|0|0,1:0|1:0|1:0,0:0:0:0:
355,279,12749,2,0,L|377:349,2,48,0|0|0,1:0|1:0|1:0,0:0:0:0:
292,224,13102,1,0,3:0:0:0:
256,192,13191,12,0,14514,3:0:0:0:
357,108,14691,5,0,3:0:0:0:
357,108,14867,2,0,B|387:147|378:204,1,90,0|0,3:0|3:0,0:0:0:0:
155,276,15220,2,0,B|125:237|134:180,1,90,0|0,1:0|1:0,0:0:0:0:
230,135,15573,1,0,1:0:0:0:
290,288,15749,5,0,1:0:0:0:
290,288,15838,1,0,1:0:0:0:
290,288,15926,2,0,B|374:340|463:296,1,180,4|0,3:2|1:0,0:0:0:0:
486,188,16455,1,0,0:0:0:0:
414,102,16632,2,0,B|366:84|307:91,1,90,0|0,3:0|0:0,0:0:0:0:
228,141,16985,2,0,B|172:142|130:124,1,90,0|0,1:0|0:0,0:0:0:0:
62,53,17338,5,0,3:0:0:0:
32,159,17514,1,0,0:0:0:0:
102,240,17691,2,0,B|157:256|214:251,1,90,0|0,1:0|0:0,0:0:0:0:
298,225,18044,1,0,3:0:0:0:
394,281,18220,1,2,0:0:0:0:
282,313,18396,2,0,B|279:267|297:226,1,90,0|0,1:0|0:0,0:0:0:0:
370,46,18749,5,0,3:0:0:0:
470,77,18926,1,2,0:0:0:0:
443,179,19102,1,0,1:0:0:0:
339,152,19279,1,0,0:0:0:0:
339,152,19455,2,0,B|293:171|230:162,1,90,0|0,3:0|0:0,0:0:0:0:
159,333,19808,2,0,B|205:314|268:323,1,90,0|0,1:0|0:0,0:0:0:0:
482,317,20161,2,0,B|373:336|315:243,1,180,0|0,3:0|1:0,0:0:0:0:
278,154,20691,5,0,0:0:0:0:
278,154,20779,1,0,0:0:0:0:
278,154,20867,1,0,3:0:0:0:
370,95,21044,1,2,0:0:0:0:
278,154,21220,1,0,1:0:0:0:
256,39,21396,1,2,0:0:0:0:
278,154,21573,2,0,B|288:203|279:262,1,90,4|2,3:2|0:0,0:0:0:0:
180,292,21926,1,0,1:0:0:0:
169,185,22102,1,0,0:0:0:0:
365,203,22279,6,0,B|377:253|368:313,1,90,0|0,3:0|0:0,0:0:0:0:
481,330,22632,2,0,B|469:280|478:220,1,90,0|0,1:0|0:0,0:0:0:0:
487,131,22985,2,0,B|479:65|394:36|339:83,1,180,0|0,3:0|1:0,0:0:0:0:
267,144,23514,1,0,0:0:0:0:
228,58,23691,1,0,3:0:0:0:
348,148,23867,1,2,0:0:0:0:
222,226,24044,1,0,1:0:0:0:
107,132,24220,1,0,0:0:0:0:
267,144,24396,6,0,B|325:149|387:138,1,90,0|2,3:0|0:0,0:0:0:0:
203,259,24749,2,0,B|145:254|83:265,1,90,0|0,1:0|0:0,0:0:0:0:
158,163,25102,1,0,3:0:0:0:
281,286,25279,1,0,0:0:0:0:
313,76,25455,2,0,B|267:68|209:77,1,90,0|0,1:0|0:0,0:0:0:0:
343,184,25808,6,0,B|376:233|469:234|499:176,1,180,0|0,3:0|1:0,0:0:0:0:
493,66,26338,1,0,0:0:0:0:
493,66,26426,1,0,0:0:0:0:
493,66,26514,2,0,B|449:75|391:58,1,90,0|2,3:0|0:0,0:0:0:0:
254,179,26867,2,0,B|298:170|356:187,1,90,0|2,1:0|0:0,0:0:0:0:
479,311,27220,5,4,3:2:0:0:
389,350,27396,1,0,3:0:0:0:
297,299,27573,1,0,1:0:0:0:
206,343,27749,1,0,3:0:0:0:
206,343,27838,1,0,1:0:0:0:
206,343,27926,2,0,B|202:288|180:241,1,90,0|0,3:0|3:0,0:0:0:0:
148,108,28279,1,0,1:0:0:0:
232,164,28455,5,0,3:0:0:0:
232,164,28544,1,0,1:0:0:0:
232,164,28632,2,0,B|286:179|336:168,1,90,0|0,3:0|3:0,0:0:0:0:
116,207,28985,2,0,B|62:192|12:203,1,90,0|0,1:0|3:0,0:0:0:0:
26,200,29249,1,0,1:0:0:0:
26,200,29338,1,0,1:0:0:0:
80,41,29514,1,0,1:0:0:0:
178,94,29691,5,0,1:0:0:0:
213,95,29779,1,0,1:0:0:0:
248,87,29867,1,0,1:0:0:0:
277,66,29955,1,0,1:0:0:0:
297,35,30044,1,4,1:2:0:0:
407,153,30396,1,0,3:0:0:0:
407,153,30573,1,0,0:0:0:0:
354,232,30749,5,0,3:0:0:0:
354,232,31102,1,0,3:0:0:0:
354,232,31455,2,0,B|397:238|438:230,1,72,0|0,3:0|0:0,0:0:0:0:
315,148,31808,2,0,B|272:142|231:150,1,72,0|0,3:0|0:0,0:0:0:0:
132,266,32161,2,0,B|207:284|276:268,1,144,0|0,3:0|3:0,0:0:0:0:
274,268,32691,1,0,0:0:0:0:
365,324,32867,6,0,B|412:336|451:333,1,72,0|0,3:0|0:0,0:0:0:0:
414,251,33220,2,0,B|459:252|500:241,1,72,0|0,3:0|0:0,0:0:0:0:
357,124,33573,2,0,B|312:123|271:134,2,72,0|0|0,3:0|0:0|3:0,0:0:0:0:
443,146,34102,1,0,0:0:0:0:
349,211,34279,2,0,B|283:241|204:212,1,144,0|0,3:0|3:0,0:0:0:0:
208,213,34808,1,0,0:0:0:0:
138,142,34985,2,0,B|177:144|214:135,1,72,0|0,3:0|0:0,0:0:0:0:
241,300,35338,2,0,B|202:298|165:307,1,72,0|0,3:0|0:0,0:0:0:0:
51,250,35691,6,0,B|5:130|81:164|38:37,1,216
39,40,36396,2,0,B|107:85|179:43,1,144,2|0,0:0|0:0,0:0:0:0:
446,201,37102,2,0,B|359:116|225:188,1,216
246,177,37808,2,0,L|264:341,1,144,2|0,0:0|0:0,0:0:0:0:
469,347,38514,6,0,B|484:297|470:251,1,90,0|0,3:0|3:0,0:0:0:0:
454,90,38867,2,0,B|439:140|453:186,1,90,0|0,3:0|3:0,0:0:0:0:
387,262,39220,1,0,1:0:0:0:
387,262,39396,1,0,1:0:0:0:
276,293,39573,1,0,1:0:0:0:
276,293,39749,1,0,1:0:0:0:
183,159,39926,6,0,B|238:136|297:149,1,90,0|0,1:0|1:0,0:0:0:0:
306,151,40191,1,0,1:0:0:0:
340,161,40279,2,0,B|355:115|348:53,1,90,0|0,1:0|1:0,0:0:0:0:
465,116,40632,5,2,1:2:0:0:
465,160,40720,1,2,1:2:0:0:
469,204,40808,1,2,1:2:0:0:
467,248,40896,1,2,1:2:0:0:
451,290,40985,1,2,1:2:0:0:
408,304,41073,1,0,1:0:0:0:
363,304,41161,1,0,1:0:0:0:
321,287,41249,1,0,1:0:0:0:
275,281,41338,2,0,B|225:278|168:298,1,90,4|0,1:2|0:0,0:0:0:0:
89,178,41691,2,0,B|139:181|196:161,1,90,0|0,1:0|0:0,0:0:0:0:
365,68,42044,5,0,3:0:0:0:
258,35,42220,1,0,0:0:0:0:
251,144,42396,2,0,B|245:208|252:252,1,90,0|0,1:0|1:0,0:0:0:0:
259,268,42661,1,0,1:0:0:0:
253,303,42749,1,0,3:0:0:0:
368,286,42926,2,0,B|417:297|470:286,1,90,0|0,0:0|1:0,0:0:0:0:
500,191,43279,1,0,0:0:0:0:
416,118,43455,2,0,B|367:107|314:118,1,90,0|0,3:0|1:0,0:0:0:0:
242,181,43808,1,0,1:0:0:0:
194,83,43985,1,0,0:0:0:0:
70,126,44161,6,0,B|13:146|2:244|66:284,1,180,0|0,3:0|1:0,0:0:0:0:
153,323,44691,1,0,0:0:0:0:
257,299,44867,2,0,B|308:286|376:299,1,90,0|0,3:0|0:0,0:0:0:0:
314,192,45220,1,0,1:0:0:0:
202,205,45396,1,0,0:0:0:0:
202,205,45485,1,0,0:0:0:0:
202,205,45573,2,0,B|213:153|200:106,1,90,0|0,3:0|0:0,0:0:0:0:
331,33,45926,2,0,B|320:85|333:132,1,90,0|0,1:0|0:0,0:0:0:0:
455,195,46279,5,0,3:0:0:0:
480,304,46455,1,0,1:0:0:0:
375,321,46632,1,0,1:0:0:0:
345,219,46808,1,0,3:0:0:0:
345,219,46896,1,0,3:0:0:0:
345,219,46985,2,0,B|277:201|206:258|214:337,1,180,4|0,3:2|1:0,0:0:0:0:
109,337,47514,1,0,0:0:0:0:
67,232,47691,2,0,B|127:238|172:228,1,90,0|0,3:0|0:0,0:0:0:0:
257,196,48044,1,0,1:0:0:0:
188,54,48220,5,0,1:0:0:0:
188,54,48308,1,0,1:0:0:0:
188,54,48396,2,0,B|169:107|181:159,1,90,0|0,3:0|0:0,0:0:0:0:
311,108,48749,2,0,B|364:89|416:101,1,90,0|0,1:0|0:0,0:0:0:0:
484,159,49102,1,0,3:0:0:0:
421,248,49279,1,0,1:0:0:0:
323,188,49455,1,0,1:0:0:0:
421,248,49632,1,0,0:0:0:0:
341,330,49808,6,0,B|240:377|141:286,1,180,0|0,3:0|1:0,0:0:0:0:
115,217,50338,1,0,0:0:0:0:
220,233,50514,2,0,B|270:224|316:229,1,90,0|0,3:0|0:0,0:0:0:0:
387,102,50867,2,0,B|337:111|291:106,1,90,0|0,1:0|0:0,0:0:0:0:
59,88,51220,6,0,B|89:27|191:21|230:85,1,180,0|0,3:0|1:0,0:0:0:0:
253,168,51749,1,0,0:0:0:0:
147,152,51926,1,0,3:0:0:0:
214,66,52102,1,0,1:0:0:0:
319,103,52279,5,0,1:0:0:0:
354,110,52367,1,8,0:3:0:0:
389,110,52455,1,4,0:3:0:0:
424,102,52544,1,4,0:3:0:0:
460,91,52632,1,4,3:2:0:0:
460,91,52985,2,0,B|474:135|466:201,1,90,0|4,3:0|0:3,0:0:0:0:
448,266,53338,1,0,3:0:0:0:
448,266,53514,1,4,0:3:0:0:
371,225,53691,2,0,B|315:229|258:219,1,90,0|0,3:0|3:0,0:0:0:0:
173,316,54044,5,0,1:0:0:0:
140,301,54132,1,0,1:0:0:0:
126,267,54220,1,0,1:0:0:0:
136,232,54308,1,0,1:0:0:0:
164,210,54396,1,0,1:0:0:0:
231,143,54573,1,4,0:0:0:0:
142,114,54749,2,0,B|92:121|33:110,1,90,0|0,3:0|1:0,0:0:0:0:
216,48,55102,2,0,B|266:41|325:52,1,90,0|0,3:0|1:0,0:0:0:0:
401,71,55455,6,0,L|430:164,1,90,0|0,3:0|3:0,0:0:0:0:
329,143,55808,1,0,1:0:0:0:
339,177,55896,1,0,1:0:0:0:
350,211,55985,1,0,1:0:0:0:
360,245,56073,1,0,1:0:0:0:
371,279,56161,2,0,L|279:256,1,90,0|0,1:0|3:0,0:0:0:0:
247,251,56426,1,8,0:3:0:0:
211,257,56514,1,4,0:3:0:0:
185,281,56602,1,0,1:0:0:0:
185,317,56691,1,0,1:0:0:0:
203,347,56779,1,0,1:0:0:0:
236,358,56867,2,0,L|323:379,1,90,0|4,3:0|1:2,0:0:0:0:
191,175,57220,5,0,3:0:0:0:
191,175,57396,1,4,1:2:0:0:
97,151,57573,2,0,B|91:203|106:265,1,90,0|0,3:0|1:0,0:0:0:0:
269,136,57926,2,0,B|275:84|260:22,1,90,0|0,1:0|1:0,0:0:0:0:
419,121,58279,5,4,3:2:0:0:
443,221,58455,1,0,3:0:0:0:
419,121,58632,1,0,1:0:0:0:
339,198,58808,1,0,0:0:0:0:
339,198,58896,1,0,1:0:0:0:
339,198,58985,2,0,B|350:246|342:301,1,90,0|0,3:0|3:0,0:0:0:0:
256,346,59338,1,0,1:0:0:0:
160,294,59514,5,0,0:0:0:0:
160,294,59602,1,0,1:0:0:0:
160,294,59691,2,0,B|98:265|93:170|151:136,1,180,0|0,3:0|1:0,0:0:0:0:
252,167,60220,1,0,0:0:0:0:
252,167,60308,1,0,1:0:0:0:
252,167,60396,2,0,B|310:164|365:143,1,90,0|0,3:0|3:0,0:0:0:0:
418,88,60749,1,0,1:0:0:0:
332,29,60926,5,0,0:0:0:0:
332,29,61014,1,0,1:0:0:0:
332,29,61102,2,0,B|282:25|237:35,1,90,0|0,3:0|3:0,0:0:0:0:
137,40,61455,2,0,B|133:88|146:133,1,90,0|0,1:0|0:0,0:0:0:0:
144,129,61720,1,0,1:0:0:0:
144,129,61808,1,0,3:0:0:0:
242,185,61985,1,0,3:0:0:0:
153,233,62161,1,0,1:0:0:0:
257,298,62338,5,0,0:0:0:0:
257,298,62426,1,0,1:0:0:0:
257,298,62514,2,0,B|321:293|371:306,1,90,0|0,3:0|3:0,0:0:0:0:
168,352,62867,2,0,B|104:357|54:344,1,90,0|0,1:0|0:0,0:0:0:0:
78,349,63132,1,0,1:0:0:0:
78,349,63220,1,0,1:0:0:0:
45,259,63396,1,0,1:0:0:0:
163,273,63573,5,0,1:0:0:0:
185,244,63661,1,0,1:0:0:0:
193,209,63749,1,0,1:0:0:0:
185,173,63838,1,0,1:0:0:0:
162,145,63926,1,0,3:0:0:0:
342,36,64279,1,2,0:0:0:0:
480,197,64632,1,2,0:3:0:0:
321,340,64985,2,0,B|315:292|324:254,1,72,2|0,0:0|3:0,0:0:0:0:
334,189,65338,6,0,B|262:220|187:194,1,144,0|2,3:0|0:0,0:0:0:0:
56,55,66044,2,0,B|128:24|203:50,1,144,2|2,0:3|0:0,0:0:0:0:
196,47,66573,1,0,3:0:0:0:
125,142,66749,6,0,B|115:189|122:250,1,90,0|0,3:0|3:0,0:0:0:0:
387,242,67102,2,0,B|397:195|390:134,1,90,0|0,3:0|3:0,0:0:0:0:
306,61,67455,2,0,B|259:51|198:58,1,90,0|0,3:0|3:0,0:0:0:0:
206,323,67808,2,0,B|253:333|314:326,1,90,0|0,3:0|3:0,0:0:0:0:
355,191,68161,5,0,1:0:0:0:
255,93,68338,1,0,1:0:0:0:
157,193,68514,1,0,1:0:0:0:
257,291,68691,1,0,1:0:0:0:
256,192,68779,12,6,69573,3:2:0:0:
190,107,69926,6,0,B|239:86|299:95,1,90,0|2,1:0|0:0,0:0:0:0:
343,233,70279,2,0,B|294:254|234:245,1,90,0|2,3:0|0:0,0:0:0:0:
438,39,70632,2,0,B|459:88|450:148,1,90,0|0,1:0|0:0,0:0:0:0:
438,224,70985,2,0,B|395:283|424:367|489:376,1,180,2|0,3:2|1:0,0:0:0:0:
335,312,71514,1,2,0:0:0:0:
256,362,71691,5,0,3:0:0:0:
227,208,71867,1,2,0:0:0:0:
325,266,72044,1,0,1:0:0:0:
164,304,72220,1,2,0:0:0:0:
164,304,72308,1,2,0:0:0:0:
164,304,72396,2,0,B|105:267|101:156|177:131,1,180,2|0,3:2|1:0,0:0:0:0:
259,93,72926,1,2,0:0:0:0:
260,217,73102,2,0,B|253:272|274:326,1,90,0|2,3:0|0:0,0:0:0:0:
377,255,73455,1,0,1:0:0:0:
372,136,73632,1,0,0:0:0:0:
474,202,73808,6,0,B|487:246|484:297,1,90,2|0,3:2|0:0,0:0:0:0:
263,195,74161,2,0,B|250:151|253:100,1,90,0|2,1:0|0:0,0:0:0:0:
360,41,74514,1,0,3:0:0:0:
360,41,74602,1,0,1:0:0:0:
360,41,74691,1,2,1:2:0:0:
465,101,74867,1,0,1:0:0:0:
355,173,75044,5,0,1:0:0:0:
355,173,75132,1,0,1:0:0:0:
355,173,75220,1,6,3:2:0:0:
372,296,75396,1,0,0:0:0:0:
252,317,75573,1,0,1:0:0:0:
236,192,75749,1,2,0:0:0:0:
142,270,75926,2,0,B|92:288|47:284,1,90,0|2,3:0|0:0,0:0:0:0:
22,90,76279,5,0,1:0:0:0:
126,151,76455,1,0,0:0:0:0:
199,54,76632,2,0,B|286:13|386:44,1,180,2|0,3:2|1:0,0:0:0:0:
493,68,77161,1,2,0:0:0:0:
408,155,77338,1,0,3:0:0:0:
496,238,77514,1,2,0:0:0:0:
408,155,77691,2,0,B|360:153|310:166,1,90,0|0,1:0|0:0,0:0:0:0:
195,145,78044,5,2,3:2:0:0:
237,266,78220,1,0,0:0:0:0:
318,163,78396,1,2,1:2:0:0:
237,266,78573,1,0,0:0:0:0:
356,282,78749,1,2,3:2:0:0:
237,266,78926,1,0,0:0:0:0:
153,355,79102,2,0,B|110:359|57:347,1,90,2|0,1:2|0:0,0:0:0:0:
24,187,79455,2,0,B|67:183|120:195,1,90,2|0,3:2|3:0,0:0:0:0:
257,152,79808,5,2,1:2:0:0:
236,31,79985,1,0,3:0:0:0:
363,68,80161,1,2,3:2:0:0:
363,68,80249,1,0,1:0:0:0:
363,68,80338,1,0,1:0:0:0:
257,152,80514,5,2,1:2:0:0:
282,188,80602,1,0,1:0:0:0:
324,205,80691,1,0,1:0:0:0:
368,209,80779,1,0,1:0:0:0:
411,197,80867,2,0,B|453:172|509:170,1,90,6|0,3:2|0:0,0:0:0:0:
431,330,81220,2,0,B|389:355|333:357,1,90,0|2,1:0|0:0,0:0:0:0:
170,132,81573,2,0,B|228:129|277:165,1,90,0|2,3:0|0:0,0:0:0:0:
226,350,81926,2,0,B|168:353|119:317,1,90,0|0,1:0|0:0,0:0:0:0:
33,216,82279,6,0,B|142:199|216:268,1,180,2|0,3:2|1:0,0:0:0:0:
285,338,82808,1,2,0:0:0:0:
415,124,82985,1,0,3:0:0:0:
312,182,83161,1,2,0:0:0:0:
409,258,83338,1,0,1:0:0:0:
510,203,83514,1,0,0:0:0:0:
318,84,83691,6,0,B|265:86|204:60,1,90,2|0,3:2|0:0,0:0:0:0:
129,152,84044,1,2,1:2:0:0:
111,32,84220,1,0,0:0:0:0:
248,168,84396,2,0,B|264:212|256:266,1,90,2|0,3:2|0:0,0:0:0:0:
72,309,84749,2,0,B|56:265|64:211,1,90,2|2,1:2|0:0,0:0:0:0:
244,359,85102,6,0,B|350:383|440:319,1,180,2|0,3:2|1:0,0:0:0:0:
493,240,85632,1,2,0:0:0:0:
358,253,85808,1,0,3:0:0:0:
358,253,85896,1,0,1:0:0:0:
358,253,85985,1,2,1:2:0:0:
440,159,86161,1,0,1:0:0:0:
276,175,86338,5,0,1:0:0:0:
276,175,86426,1,0,1:0:0:0:
276,175,86514,2,0,B|344:140|332:43|257:30,1,180,6|0,3:2|1:0,0:0:0:0:
160,81,87044,1,2,0:0:0:0:
46,37,87220,2,0,B|31:81|42:132,1,90,0|0,3:0|0:0,0:0:0:0:
144,196,87573,1,2,1:2:0:0:
36,251,87749,1,0,0:0:0:0:
126,333,87926,6,0,B|183:346|230:335,1,90,2|0,3:2|0:0,0:0:0:0:
273,230,88279,2,0,B|262:177|275:126,1,90,2|2,1:2|0:0,0:0:0:0:
355,47,88632,1,0,3:0:0:0:
371,167,88808,1,2,0:0:0:0:
469,96,88985,1,0,1:0:0:0:
484,216,89161,1,0,0:0:0:0:
398,302,89338,6,0,B|351:296|301:305,1,90,2|0,3:2|3:0,0:0:0:0:
189,317,89691,1,2,1:2:0:0:
254,208,89867,1,0,3:0:0:0:
254,208,89955,1,0,3:0:0:0:
254,208,90044,2,0,B|260:173|251:134,2,60,2|4|4,3:2|3:0|3:0,0:0:0:0:
161,183,90396,2,0,B|155:218|164:257,2,60,4|0|0,3:0|1:0|1:0,0:0:0:0:
150,86,90749,6,0,B|295:8|295:127|434:49,1,288,6|0,0:0|0:0,0:0:0:0:
426,53,91632,2,0,B|456:128,1,72
492,206,91985,5,0,1:0:0:0:
492,206,92073,1,0,1:0:0:0:
492,206,92161,1,0,3:0:0:0:
330,353,92514,1,2,0:0:0:0:
175,199,92867,1,2,0:0:0:0:
337,53,93220,1,2,0:0:0:0:
189,112,93573,5,0,3:0:0:0:
203,240,93749,1,0,3:0:0:0:
330,225,93926,1,0,3:0:0:0:
316,99,94102,1,0,3:0:0:0:
259,169,94279,1,0,3:0:0:0:
242,46,94455,5,0,3:0:0:0:
242,46,94544,1,0,1:0:0:0:
242,46,94632,1,0,1:0:0:0:
428,75,94808,1,0,1:0:0:0:
428,75,94896,1,0,1:0:0:0:
428,75,94985,1,4,1:2:0:0:
225,259,106279,6,0,B|269:285|320:278,1,90,0|0,3:0|0:0,0:0:0:0:
337,273,106544,1,0,3:0:0:0:
361,283,106632,2,0,B|403:276|447:302,1,90,0|0,3:0|3:0,0:0:0:0:
430,199,106985,2,0,B|456:158|444:112,1,90,0|0,3:0|1:0,0:0:0:0:
363,63,107338,2,0,B|337:104|349:150,1,90,4|0,0:3|3:0,0:0:0:0:
265,190,107691,5,0,1:0:0:0:
238,185,107779,1,0,1:0:0:0:
212,193,107867,1,0,1:0:0:0:
185,187,107955,1,0,1:0:0:0:
158,193,108044,2,0,B|112:190|58:193,1,90,0|0,1:0|1:0,0:0:0:0:
41,186,108308,1,0,1:0:0:0:
15,193,108396,2,0,B|17:142|14:96,1,90,0|4,1:0|0:0,0:0:0:0:
5,77,108661,1,2,0:0:0:0:
16,52,108749,2,0,B|81:59|132:53,1,90,0|0,3:0|3:0,0:0:0:0:
206,52,109102,5,0,3:0:0:0:
303,43,109279,1,0,1:0:0:0:
303,43,109367,1,0,1:0:0:0:
303,43,109455,1,0,1:0:0:0:
377,93,109632,2,0,L|438:63,2,45,0|4|4,3:0|1:3|1:3,0:0:0:0:
270,155,109985,5,0,3:0:0:0:
286,176,110073,1,4,1:3:0:0:
310,187,110161,1,4,1:3:0:0:
336,192,110249,1,0,1:0:0:0:
363,193,110338,1,0,1:0:0:0:
389,188,110426,1,0,1:0:0:0:
414,178,110514,2,0,B|471:172|524:181,1,90,0|4,3:0|1:2,0:0:0:0:
427,325,110867,2,0,B|370:331|317:322,1,90,0|4,3:0|1:2,0:0:0:0:
216,348,111220,6,0,B|186:355|138:346,2,60,0|0|0,3:0|3:0|1:0,0:0:0:0:
216,264,111573,2,0,B|246:257|294:266,2,60,4|4|4,0:3|0:3|0:3,0:0:0:0:
111,271,111926,6,0,B|132:181|93:216|111:123,1,144,0|2,3:0|0:0,0:0:0:0:
109,129,112455,1,0,0:0:0:0:
109,129,112632,1,0,0:0:0:0:
269,35,112985,1,2,0:0:0:0:
464,145,113338,2,0,B|396:166|310:145,1,144,0|2,0:0|0:0,0:0:0:0:
321,147,113867,1,0,0:0:0:0:
321,147,114044,1,0,0:0:0:0:
331,336,114396,1,2,0:0:0:0:
106,296,114749,5,0,1:0:0:0:
125,305,114838,1,0,1:0:0:0:
146,308,114926,1,0,1:0:0:0:
166,301,115014,1,0,1:0:0:0:
182,286,115102,1,2,1:2:0:0:
190,265,115191,1,0,1:0:0:0:
190,243,115279,1,0,1:0:0:0:
185,222,115367,1,0,1:0:0:0:
172,204,115455,1,0,1:0:0:0:
154,190,115544,1,0,1:0:0:0:
139,173,115632,1,0,1:0:0:0:
128,154,115720,1,0,1:0:0:0:
124,132,115808,1,2,1:2:0:0:
125,110,115896,1,0,1:0:0:0:
133,90,115985,1,0,1:0:0:0:
147,74,116073,1,0,1:0:0:0:
167,66,116161,2,0,B|210:96|295:82|315:27,1,161.999995056153,2|2,3:2|0:0,0:0:0:0:
310,36,116867,1,2,0:0:0:0:
468,155,117573,6,0,B|486:206|474:263,1,90,4|0,3:2|0:0,0:0:0:0:
398,337,117926,2,0,B|380:286|392:229,1,90,0|0,1:0|0:0,0:0:0:0:
368,154,118279,1,0,3:0:0:0:
271,124,118455,1,0,0:0:0:0:
225,217,118632,1,0,1:0:0:0:
311,292,118808,1,0,1:0:0:0:
311,292,118896,1,0,1:0:0:0:
311,292,118985,1,0,3:0:0:0:
230,352,119161,6,0,B|177:368|116:338,1,90,0|0,0:0|1:0,0:0:0:0:
59,266,119514,1,0,0:0:0:0:
167,183,119691,1,0,3:0:0:0:
65,168,119867,1,0,1:0:0:0:
167,183,120044,1,0,1:0:0:0:
157,276,120220,1,0,0:0:0:0:
255,254,120396,6,0,B|326:238|392:307|372:374,1,180,0|0,3:0|1:0,0:0:0:0:
375,353,120926,1,0,0:0:0:0:
477,315,121102,2,0,B|464:258|478:213,1,90,0|0,3:0|0:0,0:0:0:0:
498,120,121455,1,0,1:0:0:0:
401,160,121632,1,0,0:0:0:0:
401,160,121720,1,0,0:0:0:0:
401,160,121808,2,0,B|350:172|294:156,1,90,0|0,3:0|0:0,0:0:0:0:
237,71,122161,2,0,B|288:59|344:75,1,90,0|0,1:0|0:0,0:0:0:0:
339,249,122514,2,0,B|288:261|232:245,1,90,0|0,3:0|1:0,0:0:0:0:
181,172,122867,1,0,1:0:0:0:
75,190,123044,5,0,1:0:0:0:
75,190,123132,1,0,1:0:0:0:
75,190,123220,2,0,B|20:215|15:315|79:349,1,180,4|0,3:2|1:0,0:0:0:0:
175,326,123749,1,0,0:0:0:0:
274,350,123926,2,0,B|329:330|384:341,1,90,0|0,3:0|0:0,0:0:0:0:
274,206,124279,2,0,B|219:226|164:215,1,90,0|0,1:0|1:0,0:0:0:0:
160,207,124544,1,0,1:0:0:0:
142,186,124632,2,0,B|119:132|132:80,1,90,0|0,3:0|0:0,0:0:0:0:
262,34,124985,2,0,B|285:88|272:140,1,90,0|0,1:0|0:0,0:0:0:0:
255,307,125338,5,0,3:0:0:0:
356,324,125514,1,0,1:0:0:0:
375,224,125691,1,0,1:0:0:0:
274,206,125867,1,0,0:0:0:0:
274,206,125955,1,0,0:0:0:0:
274,206,126044,2,0,B|186:243|82:199,1,180,0|0,3:0|1:0,0:0:0:0:
34,126,126573,1,0,0:0:0:0:
107,52,126749,1,0,3:0:0:0:
176,130,126926,1,0,0:0:0:0:
242,53,127102,2,0,B|294:40|342:50,1,90,0|0,1:0|0:0,0:0:0:0:
434,87,127455,6,0,B|497:110|504:203|449:239,1,180,0|0,3:0|1:0,0:0:0:0:
364,282,127985,1,0,0:0:0:0:
280,217,128161,1,0,3:0:0:0:
370,162,128338,1,0,1:0:0:0:
454,235,128514,5,8,3:0:0:0:
471,266,128602,1,4,3:0:0:0:
452,297,128691,1,4,3:0:0:0:
473,325,128779,1,0,3:0:0:0:
452,354,128867,2,0,B|405:365|356:362,1,90,4|0,3:2|0:0,0:0:0:0:
286,315,129220,2,0,B|243:312|196:323,1,90,0|0,3:0|0:0,0:0:0:0:
336,230,129573,2,0,B|378:232|425:221,2,90,0|0|0,3:0|0:0|3:0,0:0:0:0:
267,173,130102,5,0,3:0:0:0:
267,173,130191,1,0,3:0:0:0:
267,173,130279,2,0,B|224:170|177:181,1,90,0|0,3:0|0:0,0:0:0:0:
99,239,130632,1,0,3:0:0:0:
89,137,130808,1,0,0:0:0:0:
178,181,130985,2,0,B|181:138|170:91,1,90,0|0,3:0|0:0,0:0:0:0:
251,36,131338,1,0,3:0:0:0:
345,79,131514,5,0,3:0:0:0:
345,79,131602,1,0,3:0:0:0:
345,79,131691,2,0,B|398:73|452:52,1,90,0|0,3:0|0:0,0:0:0:0:
298,158,132044,2,0,B|344:178|397:184,1,90,0|0,3:0|0:0,0:0:0:0:
224,209,132396,2,0,B|248:256|288:283,1,90,0|0,3:0|0:0,0:0:0:0:
176,299,132749,1,0,3:0:0:0:
87,270,132926,1,0,3:0:0:0:
87,270,133014,1,0,3:0:0:0:
87,270,133102,2,0,B|141:232|132:139|69:114,1,180,0|0,3:0|3:0,0:0:0:0:
123,37,133632,1,0,0:0:0:0:
195,102,133808,5,0,1:0:0:0:
302,39,133985,1,0,1:0:0:0:
301,163,134161,1,0,1:0:0:0:
195,102,134338,1,0,1:0:0:0:
205,233,134514,6,0,B|195:282|206:325,1,90,4|0,3:2|3:0,0:0:0:0:
304,350,134867,1,0,1:0:0:0:
401,318,135044,1,0,3:0:0:0:
401,318,135132,1,0,1:0:0:0:
401,318,135220,2,0,B|451:306|498:314,1,90,0|0,3:0|3:0,0:0:0:0:
374,208,135573,2,0,B|324:220|277:212,1,90,0|0,1:0|0:0,0:0:0:0:
258,204,135838,1,0,1:0:0:0:
231,198,135926,2,0,B|180:192|139:205,2,90,0|0|0,3:0|3:0|1:0,0:0:0:0:
321,131,136455,5,0,0:0:0:0:
321,131,136544,1,0,1:0:0:0:
321,131,136632,2,0,B|332:81|319:27,1,90,0|0,3:0|3:0,0:0:0:0:
416,86,136985,1,0,1:0:0:0:
503,139,137161,1,0,0:0:0:0:
503,139,137249,1,0,1:0:0:0:
503,139,137338,2,0,B|492:189|505:243,1,90,4|0,3:2|3:0,0:0:0:0:
400,257,137691,5,0,1:0:0:0:
481,319,137867,1,0,0:0:0:0:
481,319,137955,1,0,1:0:0:0:
481,319,138044,1,0,3:0:0:0:
393,359,138220,1,0,3:0:0:0:
315,312,138396,2,0,B|270:305|211:307,1,90,0|0,1:0|0:0,0:0:0:0:
198,308,138661,1,0,1:0:0:0:
171,313,138749,2,0,B|181:266|174:209,1,90,0|0,3:0|3:0,0:0:0:0:
85,120,139102,2,0,B|75:167|82:224,1,90,0|0,1:0|0:0,0:0:0:0:
80,209,139367,1,0,1:0:0:0:
80,209,139455,1,0,1:0:0:0:
179,142,139632,1,0,1:0:0:0:
279,64,139808,5,0,1:0:0:0:
303,89,139896,1,0,1:0:0:0:
311,124,139985,1,0,1:0:0:0:
303,159,140073,1,0,1:0:0:0:
282,188,140161,1,4,3:2:0:0:
470,133,140514,1,2,0:0:0:0:
346,277,140867,1,2,0:3:0:0:
178,169,141220,2,0,B|130:164|87:170,1,72,2|0,0:0|3:0,0:0:0:0:
39,212,141573,6,0,B|4:277|38:358,1,144,0|2,3:0|0:0,0:0:0:0:
233,286,142279,1,2,0:3:0:0:
233,286,142632,1,2,0:0:0:0:
405,219,142985,6,0,B|461:230|506:211,1,90,0|0,3:0|0:0,0:0:0:0:
493,215,143249,1,0,3:0:0:0:
493,215,143338,1,0,3:0:0:0:
319,130,143514,1,0,0:0:0:0:
319,130,143602,1,0,3:0:0:0:
319,130,143691,2,0,B|299:175|325:225,1,90,0|0,3:0|0:0,0:0:0:0:
426,303,144044,6,0,B|379:327|327:300,1,90,0|0,3:0|0:0,0:0:0:0:
304,297,144308,1,0,3:0:0:0:
268,297,144396,1,0,3:0:0:0:
233,307,144485,1,0,3:0:0:0:
206,330,144573,1,4,3:0:0:0:
172,342,144661,1,4,3:0:0:0:
136,340,144749,1,4,3:0:0:0:
108,316,144838,1,4,3:0:0:0:
96,282,144926,1,4,3:0:0:0:
103,246,145014,1,8,3:0:0:0:
126,219,145102,2,0,B|167:208|223:203,1,72,2|2,1:2|0:0,0:0:0:0:
285,191,145455,2,0,B|322:187|355:177,1,72,2|2,0:0|0:0,0:0:0:0:
482,54,145808,6,0,B|376:31|296:94,1,180,6|0,3:2|1:0,0:0:0:0:
213,155,146338,1,2,0:0:0:0:
136,59,146514,2,0,B|87:56|45:33,1,90,0|2,3:0|0:0,0:0:0:0:
76,220,146867,2,0,B|125:223|167:246,1,90,0|0,1:0|0:0,0:0:0:0:
258,321,147220,2,0,B|305:363|417:342|423:260,1,180,2|0,3:2|1:0,0:0:0:0:
454,179,147749,1,2,0:0:0:0:
350,120,147926,5,0,3:0:0:0:
329,238,148102,1,2,0:0:0:0:
449,251,148279,1,0,1:0:0:0:
471,134,148455,1,0,0:0:0:0:
350,120,148632,2,0,B|302:139|236:131,1,90,2|0,3:2|0:0,0:0:0:0:
168,52,148985,1,0,1:0:0:0:
98,149,149161,1,2,0:0:0:0:
198,214,149338,2,0,B|214:265|210:309,1,90,0|2,3:0|0:0,0:0:0:0:
99,362,149691,2,0,B|83:311|87:267,1,90,0|0,1:0|0:0,0:0:0:0:
98,149,150044,5,2,3:2:0:0:
205,91,150220,1,0,0:0:0:0:
198,214,150396,2,0,B|255:217|306:203,1,90,0|2,1:0|0:0,0:0:0:0:
390,143,150749,1,0,3:0:0:0:
390,143,150838,1,0,1:0:0:0:
390,143,150926,1,2,1:2:0:0:
484,217,151102,1,0,1:0:0:0:
393,295,151279,1,0,1:0:0:0:
393,295,151367,1,0,1:0:0:0:
393,295,151455,2,0,B|296:288|210:315,1,180,6|0,3:2|1:0,0:0:0:0:
106,363,151985,1,2,0:0:0:0:
148,248,152161,5,0,3:0:0:0:
142,127,152338,1,2,0:0:0:0:
63,190,152514,1,0,1:0:0:0:
223,182,152691,1,0,0:0:0:0:
218,56,152867,2,0,B|268:17|360:28|385:80,1,180,2|0,3:2|1:0,0:0:0:0:
425,181,153396,1,2,0:0:0:0:
352,274,153573,2,0,B|303:280|248:271,1,90,0|0,3:0|0:0,0:0:0:0:
155,216,153926,1,2,1:2:0:0:
159,337,154102,1,0,0:0:0:0:
262,273,154279,6,0,B|269:219|256:166,1,90,2|0,3:2|0:0,0:0:0:0:
389,77,154632,2,0,B|382:131|395:184,1,90,2|0,1:2|0:0,0:0:0:0:
391,166,154896,1,0,0:0:0:0:
391,166,154985,1,2,3:2:0:0:
492,252,155161,1,0,0:0:0:0:
403,332,155338,1,2,1:2:0:0:
305,268,155514,1,0,0:0:0:0:
206,335,155691,6,0,B|157:351|103:341,1,90,2|0,3:2|3:0,0:0:0:0:
70,149,156044,2,0,B|119:133|173:143,1,90,2|0,1:2|1:0,0:0:0:0:
240,230,156396,1,2,3:2:0:0:
240,230,156485,1,0,1:0:0:0:
240,230,156573,1,0,1:0:0:0:
356,202,156749,5,2,1:2:0:0:
385,181,156838,1,0,1:0:0:0:
398,147,156926,1,0,1:0:0:0:
392,111,157014,1,0,1:0:0:0:
370,81,157102,2,0,B|320:67|279:32,1,90,6|0,3:2|0:0,0:0:0:0:
176,76,157455,1,0,1:0:0:0:
259,162,157632,5,2,0:0:0:0:
147,207,157808,1,0,3:0:0:0:
231,290,157985,1,2,0:0:0:0:
347,262,158161,2,0,B|400:251|454:263,1,90,0|0,1:0|0:0,0:0:0:0:
497,117,158514,2,0,B|468:164|371:168|325:111,1,180,2|0,3:2|1:0,0:0:0:0:
243,44,159044,1,2,0:0:0:0:
151,122,159220,5,0,3:0:0:0:
264,164,159396,1,2,0:0:0:0:
219,278,159573,1,0,1:0:0:0:
65,208,159749,5,2,0:0:0:0:
65,208,159838,1,2,0:0:0:0:
65,208,159926,2,0,B|75:256|66:309,1,90,2|0,3:2|0:0,0:0:0:0:
184,353,160279,1,2,1:2:0:0:
211,228,160455,1,2,0:0:0:0:
333,294,160632,2,0,B|323:246|332:193,1,90,2|0,3:2|0:0,0:0:0:0:
493,120,160985,5,2,1:2:0:0:
478,284,161161,1,2,0:0:0:0:
330,204,161338,2,0,B|241:167|149:209,1,180,2|0,3:2|1:0,0:0:0:0:
63,285,161867,5,2,0:0:0:0:
184,320,162044,1,0,3:0:0:0:
184,320,162132,1,0,1:0:0:0:
184,320,162220,1,2,1:2:0:0:
155,206,162396,1,0,1:0:0:0:
36,200,162573,1,0,1:0:0:0:
36,200,162661,1,0,1:0:0:0:
36,200,162749,2,0,B|26:152|38:99,1,90,6|0,3:2|0:0,0:0:0:0:
132,36,163102,2,0,B|180:26|233:38,1,90,0|2,1:0|0:0,0:0:0:0:
308,121,163455,5,0,3:0:0:0:
187,140,163632,1,0,0:0:0:0:
264,234,163808,1,2,1:2:0:0:
308,121,163985,1,0,0:0:0:0:
383,209,164161,2,0,B|448:244|451:340|379:374,1,180,2|0,3:2|1:0,0:0:0:0:
277,351,164691,1,2,0:0:0:0:
154,348,164867,2,0,B|145:302|152:252,1,90,2|0,3:2|0:0,0:0:0:0:
227,168,165220,5,0,1:0:0:0:
292,269,165396,1,0,0:0:0:0:
368,177,165573,2,0,B|422:167|468:173,1,90,2|0,3:2|3:0,0:0:0:0:
418,59,165926,1,0,1:0:0:0:
306,91,166102,1,0,3:0:0:0:
306,91,166191,1,0,3:0:0:0:
306,91,166279,2,0,B|299:57|302:22,2,60,2|4|4,3:2|3:0|3:0,0:0:0:0:
273,180,166632,2,0,B|280:214|277:249,2,60,4|0|0,3:0|1:0|1:0,0:0:0:0:
206,113,166985,6,0,B|125:107|60:163|46:259|122:331,1,288,4|0,0:0|0:0,0:0:0:0:
105,312,167867,2,0,B|148:310|187:315,1,72
268,348,168220,5,0,1:0:0:0:
268,348,168308,1,0,1:0:0:0:
268,348,168396,1,0,3:0:0:0:
412,180,168749,1,2,0:0:0:0:
244,36,169102,1,2,0:0:0:0:
100,204,169455,1,2,0:0:0:0:
288,212,169808,6,0,B|333:223|372:251,1,90,0|0,3:0|3:0,0:0:0:0:
222,166,170161,2,0,B|202:124|194:74,1,90,0|0,3:0|3:0,0:0:0:0:
215,245,170514,2,0,B|191:285|151:316,1,90,2|0,3:2|1:0,0:0:0:0:
155,312,170779,1,2,1:2:0:0:
155,312,170867,1,0,1:0:0:0:
79,216,171044,5,2,1:2:0:0:
79,216,171132,1,0,1:0:0:0:
79,216,171220,2,0,B|88:148|171:113|238:154,1,180,6|0,3:2|1:0,0:0:0:0:
308,184,171749,2,0,B|359:183|400:160,1,90,2|0,0:0|3:0,0:0:0:0:
334,91,172102,1,0,0:0:0:0:
435,74,172279,2,0,B|478:100|494:154,1,90,2|0,1:2|0:0,0:0:0:0:
481,268,172632,6,0,B|451:321|361:324|321:269,1,180,2|0,3:2|1:0,0:0:0:0:
240,227,173161,1,2,0:0:0:0:
240,227,173249,1,2,0:0:0:0:
240,227,173338,2,0,L|263:87,1,135,2|2,3:2|0:0,0:0:0:0:
254,60,173691,1,0,1:0:0:0:
356,130,173867,5,2,1:2:0:0:
356,130,173955,1,0,1:0:0:0:
356,130,174044,2,0,B|410:118|460:119,1,90,0|0,3:0|0:0,0:0:0:0:
505,197,174396,1,2,1:2:0:0:
414,210,174573,2,0,B|360:222|310:221,1,90,2|0,0:0|3:0,0:0:0:0:
232,225,174926,1,2,0:0:0:0:
270,311,175102,1,0,1:0:0:0:
142,328,175279,2,0,B|108:236|136:146,1,180,2|2,0:0|0:0,0:0:0:0:
226,148,175808,2,0,B|281:148|326:142,1,90,2|0,1:2|0:0,0:0:0:0:
408,52,176161,5,2,3:2:0:0:
420,76,176249,1,2,0:0:0:0:
428,102,176338,1,2,0:0:0:0:
428,128,176426,1,2,0:0:0:0:
424,154,176514,1,2,1:2:0:0:
417,180,176602,1,2,0:0:0:0:
406,205,176691,1,2,1:2:0:0:
391,227,176779,1,2,1:2:0:0:
371,246,176867,2,0,L|354:305,3,45,6|2|2|2,3:2|0:0|0:0|0:0,0:0:0:0:
288,328,177220,2,0,L|262:265,3,45,0|2|2|2,1:0|0:0|0:0|0:0,0:0:0:0:
201,251,177573,2,0,L|184:310,3,45,0|2|2|2,3:0|0:0|0:0|0:0,0:0:0:0:
118,329,177926,2,0,L|92:266,3,45,0|2|2|2,1:0|0:0|0:0|0:0,0:0:0:0:
42,185,178279,5,0,3:0:0:0:
68,184,178367,1,2,0:0:0:0:
94,179,178455,1,2,0:0:0:0:
121,181,178544,1,2,0:0:0:0:
147,176,178632,1,0,1:0:0:0:
173,178,178720,1,2,0:0:0:0:
199,173,178808,1,2,0:0:0:0:
225,177,178896,1,2,0:0:0:0:
251,172,178985,2,0,B|321:161|402:164,1,135,0|2,3:0|0:0,0:0:0:0:
420,163,179338,1,0,1:0:0:0:
431,285,179514,5,2,1:2:0:0:
431,285,179602,1,0,1:0:0:0:
431,285,179691,2,0,B|379:292|334:291,1,90,2|0,3:2|0:0,0:0:0:0:
314,285,179955,1,2,0:0:0:0:
287,291,180044,2,0,B|240:288|187:292,1,90,0|2,1:0|0:0,0:0:0:0:
104,250,180396,2,0,B|107:198|105:156,1,90,2|0,3:2|0:0,0:0:0:0:
110,133,180661,1,2,0:0:0:0:
106,106,180749,1,0,1:0:0:0:
282,208,180926,5,2,0:0:0:0:
352,35,181102,2,0,B|308:41|262:34,1,90,6|0,1:2|3:0,0:0:0:0:
398,224,181455,2,0,B|446:218|487:224,1,90,6|0,1:2|3:0,0:0:0:0:
253,132,181808,5,6,1:2:0:0:
223,152,181896,1,0,1:0:0:0:
203,182,181985,1,0,1:0:0:0:
195,217,182073,1,0,1:0:0:0:
198,252,182161,1,2,1:2:0:0:
206,286,182249,1,0,1:0:0:0:
224,317,182338,1,0,1:0:0:0:
252,338,182426,1,0,1:0:0:0:
286,349,182514,2,0,B|390:363|470:314,1,180,6|0,3:2|1:0,0:0:0:0:
487,225,183044,1,0,0:0:0:0:
393,243,183220,6,0,B|343:232|290:242,1,90,2|0,3:2|0:0,0:0:0:0:
374,43,183573,2,0,B|422:57|477:44,1,90,2|0,1:2|0:0,0:0:0:0:
417,137,183926,2,0,B|322:158|228:121,1,180,2|0,3:2|1:0,0:0:0:0:
142,71,184455,1,0,0:0:0:0:
67,146,184632,2,0,B|54:196|73:246,1,90,2|0,3:2|0:0,0:0:0:0:
172,302,184985,5,0,1:0:0:0:
264,268,185161,1,2,1:2:0:0:
264,268,185249,1,2,1:2:0:0:
264,268,185338,2,0,B|320:259|368:262,1,90,6|0,1:2|0:0,0:0:0:0:
444,141,185691,5,2,1:2:0:0:
414,161,185779,1,2,1:2:0:0:
378,164,185867,1,2,1:2:0:0:
342,157,185955,1,2,1:2:0:0:
309,140,186044,2,0,B|263:138|206:145,1,90,6|0,1:2|1:0,0:0:0:0:
104,45,186396,2,0,B|98:87|112:135,1,90,0|0,3:0|1:0,0:0:0:0:
173,261,186749,6,0,B|212:317|310:317|340:260,1,180,6|0,1:2|3:0,0:0:0:0:
425,212,187279,1,0,1:0:0:0:
425,212,187367,1,0,1:0:0:0:
425,212,187455,1,2,1:2:0:0:
482,297,187632,1,0,3:0:0:0:
495,109,187808,5,2,1:2:0:0:
459,107,187896,1,0,1:0:0:0:
422,107,187985,1,0,1:0:0:0:
386,113,188073,1,0,1:0:0:0:
351,121,188161,2,0,B|299:132|239:113,1,90,6|0,3:2|0:0,0:0:0:0:
128,36,188514,2,0,B|180:25|240:44,1,90,0|0,1:0|0:0,0:0:0:0:
178,142,188867,5,2,3:2:0:0:
81,176,189044,1,0,0:0:0:0:
114,278,189220,1,2,1:2:0:0:
210,245,189396,1,0,0:0:0:0:
278,323,189573,2,0,B|339:339|412:270|388:204,1,180,2|0,3:2|1:0,0:0:0:0:
370,117,190102,1,0,0:0:0:0:
476,169,190279,2,0,B|489:213|482:279,1,90,2|0,3:2|0:0,0:0:0:0:
281,194,190632,2,0,B|268:150|275:84,1,90,2|2,1:2|1:2,0:0:0:0:
279,78,190896,1,0,1:0:0:0:
293,54,190985,1,2,3:2:0:0:
182,129,191161,5,0,0:0:0:0:
123,56,191338,1,2,1:2:0:0:
65,134,191514,1,2,1:2:0:0:
65,134,191602,1,0,1:0:0:0:
65,134,191691,2,0,B|73:184|68:224,1,90,2|0,3:2|0:0,0:0:0:0:
78,336,192044,1,2,1:2:0:0:
179,328,192220,1,2,0:0:0:0:
174,223,192396,1,4,3:2:0:0:
256,192,192485,12,2,195220,0:0:0:0:
313,221,198044,6,0,B|380:175|477:199,2,144,0|2|2,3:0|0:0|0:3,0:0:0:0:
184,326,199102,1,2,0:0:0:0:
121,174,199455,2,0,B|156:100|121:33,1,144,0|2,0:0|0:0,0:0:0:0:
122,35,199985,2,0,B|170:38|202:30,2,72,0|2|0,0:0|0:3|0:0,0:0:0:0:
33,215,200867,5,0,0:0:0:0:
222,327,201220,1,2,0:0:0:0:
396,192,201573,1,2,0:3:0:0:
207,80,201926,1,2,0:0:0:0:
242,276,202279,6,0,B|334:329|431:283,1,180,0|0,3:0|3:0,0:0:0:0:
414,289,202808,1,8,0:3:0:0:
471,190,202985,2,0,B|498:229|498:281,1,90,0|0,3:0|1:0,0:0:0:0:
343,210,203338,2,0,B|316:171|316:119,1,90,0|0,3:0|1:0,0:0:0:0:
378,38,203691,5,4,3:2:0:0:
470,76,203867,1,0,0:0:0:0:
396,139,204044,1,0,3:0:0:0:
378,38,204220,1,0,0:0:0:0:
296,98,204396,2,0,B|242:106|170:79,1,90,0|0,3:0|0:0,0:0:0:0:
122,41,204749,1,0,3:0:0:0:
135,165,204926,1,0,0:0:0:0:
135,165,205014,1,0,1:0:0:0:
135,165,205102,2,0,B|192:201|188:293|121:320,1,180,0|0,3:0|3:0,0:0:0:0:
71,239,205632,1,0,0:0:0:0:
237,326,205808,5,0,3:0:0:0:
259,224,205985,1,0,0:0:0:0:
330,299,206161,1,0,3:0:0:0:
359,204,206338,1,0,0:0:0:0:
359,204,206426,1,0,1:0:0:0:
359,204,206514,2,0,B|408:185|448:199,1,90,0|0,3:0|0:0,0:0:0:0:
397,98,206867,1,0,3:0:0:0:
305,130,207044,1,0,0:0:0:0:
282,36,207220,2,0,B|233:55|193:41,1,90,0|0,3:0|0:0,0:0:0:0:
197,142,207573,1,0,3:0:0:0:
96,145,207749,5,0,0:0:0:0:
96,145,207838,1,0,1:0:0:0:
96,145,207926,2,0,B|36:177|43:271|101:294,1,180,0|0,3:0|3:0,0:0:0:0:
197,317,208455,1,0,0:0:0:0:
257,234,208632,1,0,3:0:0:0:
346,284,208808,1,0,1:0:0:0:
227,153,208985,1,0,1:0:0:0:
386,126,209161,1,0,1:0:0:0:
201,71,209338,5,4,3:2:0:0:
201,71,209691,1,2,0:0:0:0:
311,313,210044,1,2,0:3:0:0:
311,313,210396,2,0,B|302:270|311:237,1,72,2|0,0:0|3:0,0:0:0:0:
383,197,210749,6,0,B|418:263|387:348,1,144,0|2,3:0|0:0,0:0:0:0:
129,187,211455,2,0,B|94:121|125:36,1,144,2|2,0:3|0:0,0:0:0:0:
309,241,212161,6,0,B|311:196|303:152,1,90,0|0,3:0|3:0,0:0:0:0:
201,142,212514,2,0,B|200:188|208:232,1,90,0|0,3:0|3:0,0:0:0:0:
113,289,212867,6,0,B|105:245|106:199,1,90,4|4,3:0|3:0,0:0:0:0:
399,95,213220,2,0,B|407:139|405:184,1,90,4|4,3:0|3:0,0:0:0:0:
295,282,213573,5,0,1:0:0:0:
295,282,213749,1,0,1:0:0:0:
217,102,213926,1,0,1:0:0:0:
217,102,214102,1,0,1:0:0:0:
405,185,214279,5,0,1:0:0:0:
361,179,214367,1,0,1:0:0:0:
317,178,214455,1,0,1:0:0:0:
272,187,214544,1,0,1:0:0:0:
230,204,214632,1,0,1:0:0:0:
185,211,214720,1,0,1:0:0:0:
140,210,214808,1,0,1:0:0:0:
97,195,214896,1,0,1:0:0:0:
60,168,214985,2,0,B|73:117|60:69,1,90,6|0,3:2|0:0,0:0:0:0:
188,36,215338,5,0,1:0:0:0:
226,155,215514,1,2,0:0:0:0:
304,53,215691,2,0,B|354:37|408:45,1,90,0|2,3:0|0:0,0:0:0:0:
458,188,216044,2,0,B|408:204|354:196,1,90,0|0,1:0|0:0,0:0:0:0:
169,324,216396,2,0,B|210:366|313:359|334:297,1,180,2|0,3:2|1:0,0:0:0:0:
369,197,216926,1,2,0:0:0:0:
291,102,217102,1,0,3:0:0:0:
248,216,217279,1,2,0:0:0:0:
369,197,217455,5,0,1:0:0:0:
370,41,217632,1,0,0:0:0:0:
216,106,217808,2,0,B|166:120|105:112,1,90,2|0,3:2|0:0,0:0:0:0:
58,52,218161,1,0,1:0:0:0:
216,106,218338,1,2,0:0:0:0:
82,188,218514,2,0,B|70:240|80:292,1,90,0|2,3:0|0:0,0:0:0:0:
181,343,218867,1,0,1:0:0:0:
171,223,219044,1,0,0:0:0:0:
279,295,219220,5,2,3:2:0:0:
409,283,219396,1,0,0:0:0:0:
399,153,219573,1,0,1:0:0:0:
268,163,219749,1,2,0:0:0:0:
327,63,219926,5,0,3:0:0:0:
327,63,220014,1,0,1:0:0:0:
327,63,220102,2,0,B|377:48|424:46,1,90,2|0,1:2|1:0,0:0:0:0:
327,206,220455,1,0,1:0:0:0:
327,206,220543,1,0,1:0:0:0:
327,206,220631,2,0,B|277:221|230:223,1,90,6|0,3:2|0:0,0:0:0:0:
109,179,220985,1,0,1:0:0:0:
210,90,221161,1,2,0:0:0:0:
238,222,221338,1,2,3:2:0:0:
139,304,221514,5,0,0:0:0:0:
251,350,221691,1,0,1:0:0:0:
70,353,221867,1,0,0:0:0:0:
301,285,222044,2,0,B|400:255|479:317,1,180,2|0,3:2|1:0,0:0:0:0:
388,365,222573,1,2,0:0:0:0:
468,178,222749,6,0,B|419:197|355:184,1,90,2|0,3:2|0:0,0:0:0:0:
261,176,223102,1,2,1:2:0:0:
158,145,223279,1,0,0:0:0:0:
158,145,223367,1,2,0:0:0:0:
158,145,223455,2,0,B|141:95|152:40,1,90,2|0,3:2|0:0,0:0:0:0:
261,176,223808,5,0,1:0:0:0:
170,260,223985,1,0,0:0:0:0:
309,326,224161,2,0,B|326:276|315:221,1,90,2|0,3:2|0:0,0:0:0:0:
412,135,224514,2,0,B|362:118|307:129,1,90,0|0,1:0|0:0,0:0:0:0:
158,145,224867,5,2,3:2:0:0:
317,237,225044,1,0,3:0:0:0:
143,241,225220,1,0,1:0:0:0:
323,127,225396,1,2,1:2:0:0:
238,194,225573,5,2,3:2:0:0:
238,194,225661,1,0,1:0:0:0:
238,194,225749,1,0,1:0:0:0:
246,91,225926,1,2,1:2:0:0:
228,309,226102,5,0,1:0:0:0:
228,309,226191,1,0,1:0:0:0:
228,309,226279,2,0,B|168:322|112:316,1,90,6|0,3:2|0:0,0:0:0:0:
35,183,226632,2,0,B|95:170|151:176,1,90,0|2,1:0|0:0,0:0:0:0:
268,226,226985,5,2,3:2:0:0:
406,154,227161,1,0,0:0:0:0:
274,118,227338,1,2,1:2:0:0:
389,267,227514,1,0,0:0:0:0:
274,118,227691,2,0,B|191:65|89:100,1,180,2|0,3:2|1:0,0:0:0:0:
38,269,228220,5,0,0:0:0:0:
38,269,228308,1,2,0:0:0:0:
38,269,228396,1,2,3:2:0:0:
155,227,228573,1,0,0:0:0:0:
46,169,228750,1,0,1:0:0:0:
163,327,228926,1,0,0:0:0:0:
255,180,229102,2,0,B|264:224|257:278,1,90,2|0,3:2|0:0,3:2:0:0:
479,232,229455,5,2,1:2:0:0:
398,131,229632,1,2,0:0:0:0:
398,131,229720,1,2,0:0:0:0:
398,131,229808,2,0,B|385:83|387:35,1,90,0|2,3:0|0:0,0:0:0:0:
265,93,230161,1,0,1:0:0:0:
267,315,230338,1,2,0:0:0:0:
85,182,230514,2,0,B|20:165|-2:62|69:9,1,180,2|0,3:2|1:0,0:0:0:0:
150,87,231044,1,0,0:0:0:0:
307,168,231220,5,2,3:2:0:0:
307,168,231308,1,2,1:2:0:0:
307,168,231396,1,2,1:2:0:0:
266,292,231573,1,2,1:2:0:0:
402,264,231749,1,2,1:2:0:0:
402,264,231838,1,2,1:2:0:0:
402,264,231926,2,0,B|455:240|499:237,1,90,6|0,3:2|0:0,0:0:0:0:
493,113,232279,1,2,1:2:0:0:
372,69,232455,2,0,B|319:93|275:96,1,90,2|0,0:0|3:0,0:0:0:0:
167,67,232808,5,2,0:0:0:0:
150,192,232985,1,2,1:2:0:0:
269,176,233161,1,0,0:0:0:0:
232,337,233338,5,2,3:2:0:0:
117,359,233514,1,0,0:0:0:0:
89,242,233691,1,2,1:2:0:0:
232,337,233867,1,2,0:0:0:0:
210,216,234044,6,0,B|220:169|206:118,1,90,0|2,3:0|0:0,0:0:0:0:
376,49,234396,2,0,B|366:96|380:147,1,90,2|0,1:2|0:0,0:0:0:0:
477,206,234749,1,2,3:2:0:0:
387,288,234926,1,0,3:0:0:0:
280,232,235102,1,2,1:2:0:0:
289,116,235279,1,0,1:0:0:0:
289,116,235367,1,0,1:0:0:0:
289,116,235455,1,2,1:2:0:0:
187,44,235632,5,0,3:0:0:0:
162,70,235720,1,0,3:0:0:0:
151,104,235808,1,2,1:2:0:0:
153,139,235896,1,0,1:0:0:0:
161,174,235985,1,0,1:0:0:0:
158,209,236073,1,0,1:0:0:0:
144,242,236161,2,0,B|102:255|38:249,2,90,4|2|0,3:2|0:0|1:0,0:0:0:0:
246,239,236691,1,0,0:0:0:0:
235,141,236867,6,0,B|282:145|324:132,1,90,0|0,3:0|0:0,0:0:0:0:
395,38,237220,2,0,B|347:33|305:46,1,90,0|0,1:0|0:0,0:0:0:0:
331,222,237573,2,0,B|444:248|500:158,1,180,0|0,3:0|1:0,0:0:0:0:
467,81,238102,1,0,0:0:0:0:
499,277,238279,6,0,B|517:328|501:380,1,90,0|2,3:0|0:0,0:0:0:0:
416,327,238632,2,0,B|365:318|322:328,1,90,0|0,1:0|1:0,0:0:0:0:
301,336,238896,1,0,1:0:0:0:
274,332,238985,1,0,3:0:0:0:
296,239,239161,1,2,0:0:0:0:
396,244,239338,6,0,B|404:197|395:150,1,90,0|0,1:0|0:0,0:0:0:0:
309,38,239691,2,0,B|301:85|310:132,1,90,0|0,3:0|0:0,0:0:0:0:
218,244,240044,2,0,B|226:197|217:150,1,90,0|0,1:0|0:0,0:0:0:0:
131,33,240396,2,0,B|102:124|132:215,1,180,0|0,3:0|1:0,0:0:0:0:
168,303,240926,1,0,0:0:0:0:
252,263,241102,1,0,3:0:0:0:
168,303,241279,1,2,0:0:0:0:
241,366,241455,1,0,1:0:0:0:
341,333,241632,5,0,1:0:0:0:
341,333,241720,1,0,1:0:0:0:
341,333,241808,2,0,B|388:318|432:327,2,90,4|2|0,3:2|0:0|1:0,0:0:0:0:
373,234,242338,1,0,0:0:0:0:
276,257,242514,2,0,B|229:272|185:263,1,90,0|0,3:0|0:0,0:0:0:0:
67,195,242867,2,0,B|82:242|73:286,1,90,0|0,1:0|0:0,0:0:0:0:
185,181,243220,6,0,B|123:156|126:53|187:26,1,180,0|0,3:0|1:0,0:0:0:0:
262,68,243749,1,0,0:0:0:0:
345,31,243926,1,0,3:0:0:0:
417,90,244102,1,2,0:0:0:0:
335,133,244279,1,0,1:0:0:0:
423,198,244455,5,0,1:0:0:0:
423,198,244544,1,0,1:0:0:0:
423,198,244632,2,0,B|436:242|426:294,1,90,0|2,3:0|0:0,0:0:0:0:
345,334,244985,1,0,1:0:0:0:
341,244,245161,1,0,0:0:0:0:
260,298,245338,2,0,B|210:291|163:307,1,90,0|0,3:0|0:0,0:0:0:0:
106,195,245691,2,0,B|156:202|203:186,1,90,0|0,1:0|0:0,0:0:0:0:
254,101,246044,2,0,B|338:46|431:91,1,180,0|0,3:0|1:0,0:0:0:0:
500,148,246573,5,0,0:0:0:0:
444,219,246749,1,0,3:0:0:0:
374,168,246926,1,2,0:0:0:0:
319,227,247102,1,0,1:0:0:0:
375,300,247279,5,0,1:0:0:0:
375,300,247367,1,0,1:0:0:0:
375,300,247455,2,0,B|309:372|188:364|109:269|137:180,1,360,0|4,1:0|3:2,0:0:0:0:
256,192,248955,12,0,254426,0:0:0:0:
