osu file format v14

[General]
AudioFilename: audio.mp3
AudioLeadIn: 0
PreviewTime: 69396
Countdown: 0
SampleSet: Soft
StackLeniency: 0.7
Mode: 0
LetterboxInBreaks: 0
WidescreenStoryboard: 0

[Editor]
DistanceSpacing: 0.6
BeatDivisor: 4
GridSize: 8
TimelineZoom: 1

[Metadata]
Title:Ima Suki ni Naru.
TitleUnicode:今好きになる。
Artist:HoneyWorks feat. Capi
ArtistUnicode:HoneyWorks feat. かぴ
Creator:CoLouRed GlaZeE
Version:Hard
Source:今好きになる。ショートストーリー
Tags:japanese jpop rock ハニワ 告白実行委員会〜恋愛シリーズ〜 kokuhaku jikkou iinkai renai series confession executive committee love 好きになるその瞬間を。 suki ni naru sono shunkan o. 初音ミク hatsune miku
BeatmapID:2751374
BeatmapSetID:1327918

[Difficulty]
HPDrainRate:5
CircleSize:4
OverallDifficulty:6
ApproachRate:7.5
SliderMultiplier:1.4
SliderTickRate:1

[Events]
//Background and Video events
0,0,"bg.png",0,0
//Break Periods
2,95185,105454
2,195420,197219
//Storyboard Layer 0 (Background)
//Storyboard Layer 1 (Fail)
//Storyboard Layer 2 (Pass)
//Storyboard Layer 3 (Foreground)
//Storyboard Layer 4 (Overlay)
//Storyboard Sound Samples

[TimingPoints]
397,352.941176470588,4,2,1,60,1,0
397,-125,4,2,1,60,0,0
14514,-100,4,2,1,70,0,0
30044,-125,4,2,1,50,0,0
38514,-100,4,2,1,60,0,0
39926,-100,4,2,1,70,0,0
52632,-100,4,2,1,60,0,0
63926,-125,4,2,1,50,0,0
66749,-100,4,2,1,60,0,0
68867,-125,4,2,1,30,0,0
68955,-125,4,2,1,5,0,0
69573,-100,4,2,1,80,0,1
90749,-125,4,2,1,70,0,1
92161,-125,4,2,1,60,0,0
93573,-100,4,2,1,80,0,0
94985,-100,4,2,1,80,0,1
95073,-100,4,2,1,60,0,0
111926,-125,4,2,1,60,0,0
114749,-125,4,2,1,40,0,0
116161,-166.666666666667,4,2,1,60,0,0
117573,-100,4,2,1,70,0,0
128867,-100,4,2,1,60,0,0
140161,-125,4,2,1,50,0,0
142985,-100,4,2,1,60,0,0
145102,-125,4,2,1,40,0,0
145808,-100,4,2,1,80,0,1
166985,-125,4,2,1,70,0,1
168396,-125,4,2,1,60,0,0
169808,-100,4,2,1,70,0,0
171220,-100,4,2,1,70,0,1
171573,-100,4,2,1,70,0,0
192485,-125,4,2,1,50,0,0
202279,-100,4,2,1,60,0,0
209338,-125,4,2,1,50,0,0
212161,-100,4,2,1,60,0,0
213573,-100,4,2,1,70,0,0
214808,-100,4,2,1,80,0,0
214985,-100,4,2,1,80,0,1
236073,-100,4,2,1,80,0,0
236161,-100,4,2,1,70,0,1
247279,-100,4,2,1,50,0,1
247455,-200,4,2,1,50,0,1
247544,-200,4,2,1,5,0,1
248867,-200,4,2,1,70,0,0
250279,-200,4,2,1,60,0,0
251691,-200,4,2,1,50,0,0
253102,-200,4,2,1,40,0,0
254426,-200,4,2,1,5,0,0

[Colours]
Combo1 : 71,199,170
Combo2 : 236,89,122
Combo3 : 62,181,202
Combo4 : 235,167,116

[HitObjects]
232,282,1808,6,0,L|113:305,1,112,0|0,3:0|3:0,0:0:0:0:
232,282,2514,2,0,L|142:199,1,112,0|0,3:0|3:0,0:0:0:0:
232,282,3220,2,0,P|257:213|258:152,1,112,0|0,3:0|3:0,0:0:0:0:
242,56,3926,1,0,3:0:0:0:
242,56,4279,1,0,3:0:0:0:
121,126,4632,6,0,P|52:122|5:97,1,112,0|0,3:0|3:0,0:0:0:0:
121,126,5338,2,0,P|72:179|13:198,1,112,0|0,3:0|3:0,0:0:0:0:
14,269,5867,1,0,0:0:0:0:
94,257,6044,2,0,P|123:299|112:361,1,112,0|0,3:0|3:0,0:0:0:0:
291,299,6749,2,0,P|262:257|273:195,1,112,0|0,3:0|3:0,0:0:0:0:
467,240,7455,6,0,P|472:277|471:307,1,56,4|0,3:2|3:0,0:0:0:0:
406,183,7808,2,0,P|401:146|402:116,1,56,0|0,1:0|1:0,0:0:0:0:
482,162,8161,1,0,3:0:0:0:
394,266,8338,1,0,1:0:0:0:
394,266,8426,1,0,1:0:0:0:
394,266,8514,2,0,L|357:260,4,28,0|0|0|0|4,1:0|1:0|1:0|1:0|1:2,0:0:0:0:
189,274,9220,6,0,P|186:320|192:347,1,56,0|0,1:0|3:0,0:0:0:0:
268,351,9573,2,0,P|284:296|260:234,2,112,0|0|2,3:0|1:0|0:0,0:0:0:0:
106,293,10632,1,0,0:0:0:0:
168,136,10985,1,2,0:0:0:0:
322,190,11338,2,0,P|356:182|386:176,1,56,0|0,0:0|0:0,0:0:0:0:
444,217,11691,2,0,P|452:251|458:281,2,56,0|2|0,0:0|0:0|0:0,0:0:0:0:
424,56,12396,5,0,1:0:0:0:
269,34,12749,1,0,1:0:0:0:
121,76,13102,1,0,3:0:0:0:
256,192,13279,12,0,14514,3:0:0:0:
182,151,14867,6,0,P|219:147|255:146,1,70,0|0,3:0|3:0,0:0:0:0:
306,222,15220,2,0,P|269:226|233:227,1,70,0|0,1:0|1:0,0:0:0:0:
153,265,15573,1,0,1:0:0:0:
97,191,15749,1,0,1:0:0:0:
115,86,15926,6,0,P|163:76|194:64,1,70,4|2,3:2|0:0,0:0:0:0:
266,37,16279,2,0,P|278:84|281:117,1,70,0|0,1:0|0:0,0:0:0:0:
326,191,16632,2,0,P|275:199|191:146,1,140,0|0,3:0|1:0,0:0:0:0:
37,295,17338,2,0,P|88:287|172:340,1,140,0|0,3:0|1:0,0:0:0:0:
383,330,18044,2,0,P|329:351|292:355,1,70,0|2,3:0|0:0,0:0:0:0:
243,298,18396,2,0,P|297:277|334:273,1,70,0|0,1:0|0:0,0:0:0:0:
399,243,18749,6,0,L|473:273,2,70,0|2|0,3:0|0:0|1:0,0:0:0:0:
327,184,19279,1,0,0:0:0:0:
232,204,19455,2,0,P|173:202|106:125,1,140,0|0,3:0|1:0,0:0:0:0:
201,116,19985,1,0,0:0:0:0:
169,28,20161,2,0,P|228:30|295:107,1,140,0|0,3:0|1:0,0:0:0:0:
477,155,20867,1,0,3:0:0:0:
476,63,21044,1,2,0:0:0:0:
394,106,21220,2,0,P|390:157|398:192,1,70,0|2,1:0|0:0,0:0:0:0:
451,249,21573,6,0,P|403:264|357:267,1,70,4|2,3:2|0:0,0:0:0:0:
301,227,21926,2,0,P|269:285|291:359,2,140,0|0|0,1:0|3:0|1:0,0:0:0:0:
384,267,22808,1,0,0:0:0:0:
393,175,22985,2,0,P|344:145|316:134,1,70,0|0,3:0|0:0,0:0:0:0:
241,132,23338,1,0,1:0:0:0:
108,272,23691,2,0,P|157:302|185:313,1,70,0|2,3:0|0:0,0:0:0:0:
237,253,24044,2,0,P|188:223|160:212,1,70,0|0,1:0|0:0,0:0:0:0:
97,181,24396,6,0,P|94:137|98:97,1,70,0|2,3:0|0:0,0:0:0:0:
184,80,24749,2,0,P|252:88|343:75,1,140,0|0,1:0|3:0,0:0:0:0:
411,65,25279,1,0,0:0:0:0:
410,160,25455,2,0,P|365:159|329:161,1,70,0|0,1:0|0:0,0:0:0:0:
253,193,25808,1,0,3:0:0:0:
425,300,26161,1,0,1:0:0:0:
233,347,26514,2,0,P|178:351|137:342,1,70,0|2,3:0|0:0,0:0:0:0:
91,309,26867,2,0,P|87:265|96:225,1,70,0|2,1:0|0:0,0:0:0:0:
176,213,27220,6,0,P|217:227|261:237,1,70,4|0,3:2|3:0,0:0:0:0:
278,155,27573,2,0,P|350:141|381:123,1,105,0|0,1:0|1:0,0:0:0:0:
403,109,27926,2,0,P|411:158|406:186,1,70,0|0,3:0|3:0,0:0:0:0:
327,51,28279,2,0,P|275:52|208:22,1,105,0|0,1:0|1:0,0:0:0:0:
194,33,28632,2,0,P|153:44|119:63,1,70,0|0,3:0|3:0,0:0:0:0:
48,108,28985,2,0,P|68:150|65:209,1,105,0|0,1:0|1:0,0:0:0:0:
33,212,29338,2,0,P|27:261|37:307,1,70,0|0,1:0|1:0,0:0:0:0:
114,313,29691,2,0,L|169:295,4,35,0|0|0|0|4,1:0|1:0|1:0|1:0|1:2,0:0:0:0:
334,335,30396,6,0,P|292:347|264:349,1,56,0|0,3:0|0:0,0:0:0:0:
295,264,30749,2,0,P|343:258|407:297,1,112,0|0,3:0|3:0,0:0:0:0:
398,286,31455,2,0,P|408:325|411:343,1,56,0|0,3:0|0:0,0:0:0:0:
471,247,31808,2,0,P|461:208|458:190,1,56,0|0,3:0|0:0,0:0:0:0:
396,147,32161,2,0,P|336:151|290:203,1,112,0|0,3:0|3:0,0:0:0:0:
212,341,32867,5,0,3:0:0:0:
196,180,33220,1,0,3:0:0:0:
212,341,33573,1,0,3:0:0:0:
85,241,33926,1,0,3:0:0:0:
163,104,34279,2,0,P|209:68|274:63,1,112,0|0,3:0|3:0,0:0:0:0:
338,93,34808,1,0,0:0:0:0:
338,93,34985,2,0,P|392:77|425:35,1,112,0|0,3:0|3:0,0:0:0:0:
442,229,35691,6,0,P|335:221|261:249,1,168,0|0,0:0|0:0,0:0:0:0:
275,317,36396,2,0,P|208:334|154:310,1,112,2|0,0:0|0:0,0:0:0:0:
104,182,37102,2,0,P|173:142|257:163,1,168,0|0,0:0|0:0,0:0:0:0:
327,134,37808,2,0,P|382:153|444:148,1,112,2|0,0:0|0:0,0:0:0:0:
453,318,38514,6,0,P|407:326|359:326,1,70,0|0,3:0|3:0,0:0:0:0:
368,251,38867,2,0,P|322:249|275:240,1,70,0|0,3:0|3:0,0:0:0:0:
265,323,39220,2,0,P|208:332|179:332,1,70,0|0,1:0|1:0,0:0:0:0:
126,274,39573,2,0,P|77:267|36:252,1,70,0|0,1:0|1:0,0:0:0:0:
34,171,39926,6,0,P|92:152|179:203,1,140,0|0,1:0|1:0,0:0:0:0:
225,252,40455,1,0,1:0:0:0:
278,179,40632,2,0,P|280:135|273:99,1,70,2|2,1:2|1:2,0:0:0:0:
193,80,40985,2,0,L|156:74,3,35,2|0|0|0,1:2|1:0|1:0|1:0,0:0:0:0:
226,49,41338,6,0,P|268:33|299:31,1,70,4|0,1:2|0:0,0:0:0:0:
376,57,41691,2,0,P|392:97|382:148,1,70,0|0,1:0|0:0,0:0:0:0:
355,203,42044,1,0,3:0:0:0:
292,141,42220,1,0,0:0:0:0:
256,226,42396,2,0,P|218:219|175:198,1,70,0|0,1:0|1:0,0:0:0:0:
175,189,42661,1,0,1:0:0:0:
175,189,42749,1,0,3:0:0:0:
115,263,42926,6,0,P|144:325|220:345,1,140,0|0,1:0|1:0,0:0:0:0:
295,320,43455,2,0,P|346:337|379:360,1,70,0|0,3:0|1:0,0:0:0:0:
383,214,43808,1,0,1:0:0:0:
298,236,43985,1,0,0:0:0:0:
443,282,44161,6,0,P|465:245|441:143,1,140,0|0,3:0|1:0,0:0:0:0:
225,102,44867,2,0,P|203:139|227:241,1,140,0|0,3:0|1:0,0:0:0:0:
306,191,45396,1,0,0:0:0:0:
306,191,45573,2,0,P|363:191|384:185,2,70,0|0|0,3:0|0:0|1:0,0:0:0:0:
293,281,46102,1,0,0:0:0:0:
213,325,46279,2,0,P|166:312|142:286,1,70,0|0,3:0|1:0,0:0:0:0:
78,199,46632,6,0,P|123:203|162:220,1,70,0|0,1:0|3:0,0:0:0:0:
174,225,46896,1,0,3:0:0:0:
174,225,46985,2,0,P|192:153|152:97,1,140,4|0,3:2|1:0,0:0:0:0:
267,123,47514,1,0,0:0:0:0:
267,123,47691,2,0,P|308:94|414:78,1,140,0|0,3:0|1:0,0:0:0:0:
474,146,48220,1,0,1:0:0:0:
474,146,48308,1,0,1:0:0:0:
474,146,48396,2,0,L|339:194,1,140,0|0,3:0|1:0,0:0:0:0:
259,224,48926,1,0,0:0:0:0:
334,282,49102,6,0,L|408:256,1,70,0|0,3:0|1:0,0:0:0:0:
259,224,49455,2,0,L|243:296,1,70,0|0,1:0|0:0,0:0:0:0:
150,338,49808,2,0,L|181:198,1,140,0|0,3:0|1:0,0:0:0:0:
180,201,50514,2,0,P|134:215|99:220,1,70,0|0,3:0|0:0,0:0:0:0:
41,150,50867,2,0,P|87:136|122:131,1,70,0|0,1:0|0:0,0:0:0:0:
174,68,51220,2,0,P|207:100|313:97,1,140,0|0,3:0|1:0,0:0:0:0:
375,53,51749,1,0,0:0:0:0:
388,144,51926,1,0,3:0:0:0:
297,105,52102,1,0,1:0:0:0:
278,203,52279,6,0,P|257:209|233:213,3,35,0|8|4|4,1:0|0:3|0:3|0:3,0:0:0:0:
301,234,52632,2,0,P|369:222|442:246,2,140,4|0|0,3:2|3:0|3:0,0:0:0:0:
348,310,53514,1,4,0:3:0:0:
348,310,53691,2,0,P|388:322|432:323,1,70,0|0,3:0|3:0,0:0:0:0:
266,339,54044,2,0,P|206:314|127:314,1,140,0|0,1:0|1:0,0:0:0:0:
62,356,54573,2,0,P|49:317|47:278,1,70,4|0,0:0|3:0,0:0:0:0:
106,229,54926,2,0,P|117:177|49:110,1,140,0|0,1:0|1:0,0:0:0:0:
41,188,55455,6,0,P|175:203|204:221,1,140,0|0,3:0|1:0,0:0:0:0:
398,255,56161,2,0,P|264:240|235:222,1,140,0|4,1:0|0:3,0:0:0:0:
244,162,56691,1,0,1:0:0:0:
177,204,56867,2,0,P|178:251|181:277,1,70,0|4,3:0|1:2,0:0:0:0:
266,309,57220,2,0,P|265:262|262:236,1,70,0|4,3:0|1:2,0:0:0:0:
240,92,57573,2,0,P|241:139|244:165,1,70,0|0,3:0|1:0,0:0:0:0:
329,197,57926,2,0,P|328:150|325:124,1,70,0|0,1:0|1:0,0:0:0:0:
394,70,58279,6,0,P|433:116|408:200,1,140,4|0,3:2|1:0,0:0:0:0:
378,273,58808,1,0,0:0:0:0:
378,273,58896,1,0,1:0:0:0:
378,273,58985,2,0,P|323:302|244:275,1,140,0|0,3:0|1:0,0:0:0:0:
173,100,59691,2,0,P|228:71|307:98,1,140,0|0,3:0|1:0,0:0:0:0:
248,166,60220,1,0,0:0:0:0:
248,166,60308,1,0,1:0:0:0:
248,166,60396,2,0,P|191:181|162:181,1,70,0|0,3:0|3:0,0:0:0:0:
97,161,60749,2,0,P|107:201|113:241,1,70,0|0,1:0|0:0,0:0:0:0:
51,297,61102,6,0,L|207:332,1,140,0|0,3:0|1:0,0:0:0:0:
242,264,61632,1,0,0:0:0:0:
242,264,61720,1,0,1:0:0:0:
242,264,61808,2,0,P|292:314|388:323,1,140,0|0,3:0|1:0,0:0:0:0:
440,305,62338,1,0,0:0:0:0:
470,227,62514,2,0,L|437:77,1,140,0|0,3:0|1:0,0:0:0:0:
375,155,63044,1,0,0:0:0:0:
375,155,63132,1,0,1:0:0:0:
375,155,63220,2,0,P|337:139|304:129,1,70,0|0,1:0|1:0,0:0:0:0:
223,116,63573,6,0,P|233:90|236:66,3,35,0|0|0|0,1:0|1:0|1:0|1:0,0:0:0:0:
191,125,63926,2,0,P|138:95|123:38,1,112,0|2,3:0|0:0,0:0:0:0:
215,211,64632,2,0,P|158:239|101:234,1,112,2|2,0:3|0:0,0:0:0:0:
55,185,65161,1,0,3:0:0:0:
55,185,65338,2,0,P|112:157|169:162,1,112,0|2,3:0|0:0,0:0:0:0:
300,217,66044,2,0,P|355:217|404:190,1,112,2|2,0:3|0:0,0:0:0:0:
404,190,66573,1,0,3:0:0:0:
418,107,66749,6,0,P|376:120|342:128,1,70,0|0,3:0|3:0,0:0:0:0:
253,44,67102,2,0,P|296:50|332:58,1,70,0|0,3:0|3:0,0:0:0:0:
271,127,67455,2,0,P|228:121|192:113,1,70,0|0,3:0|3:0,0:0:0:0:
108,86,67808,2,0,P|128:141|132:153,1,70,0|0,3:0|3:0,0:0:0:0:
151,244,68161,5,0,1:0:0:0:
63,221,68338,1,0,1:0:0:0:
131,151,68514,1,0,1:0:0:0:
224,194,68691,1,0,1:0:0:0:
151,244,68867,2,0,P|142:309|164:350,1,112,2|0,0:0|0:0,0:0:0:0:
432,343,69573,6,0,P|434:298|428:261,1,70,6|0,3:2|0:0,0:0:0:0:
386,175,69926,2,0,P|362:207|340:252,1,70,0|2,1:0|0:0,0:0:0:0:
281,333,70279,2,0,P|334:322|363:311,1,70,0|2,3:0|0:0,0:0:0:0:
260,247,70632,2,0,P|214:236|183:233,1,70,0|0,1:0|0:0,0:0:0:0:
109,167,70985,2,0,P|156:130|241:141,1,140,2|0,3:2|1:0,0:0:0:0:
350,189,71514,1,2,0:0:0:0:
297,45,71691,2,0,P|307:95|311:119,1,70,0|2,3:0|0:0,0:0:0:0:
246,204,72044,2,0,P|236:154|232:130,1,70,0|2,1:0|0:0,0:0:0:0:
287,300,72396,6,0,P|213:300|158:260,1,140,2|0,3:2|1:0,0:0:0:0:
120,177,72926,1,2,0:0:0:0:
170,93,73102,2,0,P|241:81|306:64,1,140,0|0,3:0|1:0,0:0:0:0:
343,151,73632,1,0,0:0:0:0:
423,97,73808,2,0,P|444:54|450:27,2,70,2|0|0,3:2|0:0|1:0,0:0:0:0:
284,226,74514,1,0,3:0:0:0:
351,296,74691,2,0,P|401:292|436:285,1,70,2|0,1:2|1:0,0:0:0:0:
461,203,75044,5,0,1:0:0:0:
461,203,75132,1,0,1:0:0:0:
461,203,75220,2,0,P|362:164|317:168,1,140,6|0,3:2|1:0,0:0:0:0:
238,196,75749,1,2,0:0:0:0:
204,103,75926,2,0,P|258:94|287:85,1,70,0|2,3:0|0:0,0:0:0:0:
238,196,76279,2,0,P|184:205|155:214,1,70,0|0,1:0|0:0,0:0:0:0:
85,161,76632,2,0,P|63:245|104:301,2,140,2|0|0,3:2|1:0|3:0,0:0:0:0:
169,209,77514,2,0,P|170:271|169:297,1,70,2|0,0:0|1:0,0:0:0:0:
251,320,77867,1,0,0:0:0:0:
318,251,78044,6,0,P|376:257|426:331,1,140,2|2,3:2|1:2,0:0:0:0:
335,341,78573,1,0,0:0:0:0:
222,284,78749,2,0,P|219:238|223:212,1,70,2|0,3:2|0:0,0:0:0:0:
317,181,79102,2,0,P|320:215|317:250,1,70,2|0,1:2|0:0,0:0:0:0:
186,128,79455,5,2,3:2:0:0:
223,214,79632,1,0,3:0:0:0:
272,113,79808,2,0,P|275:69|269:35,1,70,2|0,1:2|3:0,0:0:0:0:
107,48,80161,2,0,P|104:92|110:126,1,70,2|0,3:2|1:0,0:0:0:0:
132,203,80514,6,0,P|133:241|131:279,1,70,2|0,1:2|1:0,0:0:0:0:
122,304,80779,1,0,1:0:0:0:
122,304,80867,2,0,P|198:299|275:308,1,140,6|0,3:2|1:0,0:0:0:0:
346,350,81396,1,2,0:0:0:0:
411,267,81573,2,0,P|365:268|333:265,1,70,0|2,3:0|0:0,0:0:0:0:
220,202,81926,2,0,P|266:201|298:204,1,70,0|0,1:0|0:0,0:0:0:0:
374,158,82279,2,0,P|373:112|376:80,2,70,2|0|0,3:2|0:0|1:0,0:0:0:0:
456,125,82808,1,2,0:0:0:0:
294,113,82985,6,0,P|260:76|240:45,1,70,0|2,3:0|0:0,0:0:0:0:
192,129,83338,2,0,P|154:140|108:144,1,70,0|0,1:0|0:0,0:0:0:0:
183,222,83691,2,0,P|167:285|113:350,1,140,2|2,3:2|1:2,0:0:0:0:
68,267,84220,1,0,0:0:0:0:
122,343,84396,2,0,P|209:315|278:316,1,140,2|2,3:2|1:2,0:0:0:0:
345,348,84926,1,2,0:0:0:0:
330,255,85102,2,0,P|282:212|243:136,1,140,2|0,3:2|1:0,0:0:0:0:
74,69,85808,6,0,P|120:58|149:50,1,70,0|2,3:0|1:2,0:0:0:0:
159,143,86161,2,0,P|113:154|84:162,1,70,0|0,1:0|1:0,0:0:0:0:
30,236,86514,2,0,P|81:273|161:263,1,140,6|0,3:2|1:0,0:0:0:0:
232,215,87044,1,2,0:0:0:0:
260,309,87220,2,0,P|218:346|196:357,1,70,0|0,3:0|0:0,0:0:0:0:
232,215,87573,2,0,P|274:178|296:167,1,70,2|0,1:2|0:0,0:0:0:0:
347,261,87926,2,0,P|426:252|466:199,1,140,2|2,3:2|1:2,0:0:0:0:
447,118,88455,1,2,0:0:0:0:
369,61,88632,6,0,P|334:73|298:78,1,70,0|2,3:0|0:0,0:0:0:0:
164,52,88985,2,0,P|199:40|235:35,1,70,0|0,1:0|0:0,0:0:0:0:
222,129,89338,2,0,P|187:141|151:146,2,70,2|0|2,3:2|3:0|1:2,0:0:0:0:
308,168,89867,1,0,3:0:0:0:
248,243,90044,2,0,P|196:260|112:224,2,140,2|4|6,3:2|3:0|0:0,0:0:0:0:
474,155,91985,6,0,L|485:127,2,28,0|0|0,1:0|1:0|3:0,0:0:0:0:
417,302,92514,1,2,0:0:0:0:
366,155,92867,1,2,0:0:0:0:
306,296,93220,1,2,0:0:0:0:
163,222,93573,6,0,P|120:224|85:220,1,70,0|0,3:0|3:0,0:0:0:0:
49,144,93926,2,0,P|89:145|125:144,1,70,0|0,3:0|3:0,0:0:0:0:
216,157,94279,2,0,P|267:155|297:156,1,70,0|0,3:0|3:0,0:0:0:0:
347,76,94632,2,0,P|296:78|266:77,1,70,0|0,1:0|1:0,0:0:0:0:
252,74,94896,1,0,1:0:0:0:
252,74,94985,1,4,1:2:0:0:
128,244,106279,6,0,P|186:210|267:229,1,140,0|0,3:0|3:0,0:0:0:0:
314,280,106808,1,0,3:0:0:0:
314,280,106985,2,0,P|374:276|435:222,1,140,0|4,3:0|0:3,0:0:0:0:
462,69,107691,2,0,P|410:86|368:91,1,70,0|0,1:0|1:0,0:0:0:0:
353,153,108044,2,0,P|301:170|259:175,1,70,0|0,1:0|1:0,0:0:0:0:
242,108,108396,1,0,1:0:0:0:
242,296,108749,1,0,3:0:0:0:
242,108,109102,6,0,P|165:88|102:120,1,140,0|0,3:0|1:0,0:0:0:0:
53,166,109632,1,0,3:0:0:0:
112,221,109808,2,0,P|135:275|111:359,2,140,4|4|0,1:3|1:3|3:0,0:0:0:0:
212,195,110691,2,0,P|210:248|214:276,1,70,4|0,1:2|3:0,0:0:0:0:
228,342,111044,1,4,1:2:0:0:
297,303,111220,2,0,P|302:249|292:155,1,140,0|4,3:0|0:3,0:0:0:0:
394,48,111926,6,0,P|382:118|450:204,1,168,0|0,3:0|0:0,0:0:0:0:
504,170,112632,2,0,P|501:242|475:284,1,112,2|0,0:0|0:0,0:0:0:0:
337,338,113338,2,0,P|262:297|180:301,1,168,0|0,0:0|0:0,0:0:0:0:
167,224,114044,2,0,P|106:245|49:239,1,112,2|0,0:0|0:0,0:0:0:0:
31,109,114749,6,0,L|90:98,1,56,0|0,1:0|1:0,0:0:0:0:
146,47,115102,2,0,L|205:36,1,56,2|0,1:2|1:0,0:0:0:0:
256,107,115455,2,0,L|305:98,3,28,0|0|0|0,1:0|1:0|1:0|1:0,0:0:0:0:
312,77,115808,2,0,L|361:68,3,28,2|0|0|0,1:2|1:0|1:0|1:0,0:0:0:0:
375,95,116161,1,2,3:2:0:0:
438,319,117573,6,0,P|375:329|301:281,1,140,4|0,3:2|1:0,0:0:0:0:
272,210,118102,1,0,0:0:0:0:
350,165,118279,2,0,P|396:177|421:188,1,70,0|0,3:0|0:0,0:0:0:0:
272,210,118632,2,0,P|259:167|256:138,1,70,0|0,1:0|1:0,0:0:0:0:
262,114,118896,1,0,1:0:0:0:
262,114,118985,1,0,3:0:0:0:
331,62,119161,6,0,P|367:64|403:60,2,70,0|0|0,0:0|1:0|0:0,0:0:0:0:
246,33,119691,2,0,P|210:31|174:35,1,70,0|0,3:0|1:0,0:0:0:0:
98,86,120044,1,0,1:0:0:0:
185,118,120220,1,0,0:0:0:0:
105,169,120396,2,0,P|79:225|114:296,1,140,0|0,3:0|1:0,0:0:0:0:
175,227,120926,1,0,0:0:0:0:
215,309,121102,2,0,P|259:309|287:305,1,70,0|0,3:0|0:0,0:0:0:0:
317,172,121455,2,0,P|284:211|268:240,1,70,0|0,1:0|0:0,0:0:0:0:
402,307,121808,2,0,P|363:271|336:254,1,70,0|0,3:0|0:0,0:0:0:0:
410,187,122161,5,0,1:0:0:0:
317,172,122338,1,0,0:0:0:0:
379,101,122514,2,0,P|415:92|451:86,1,70,0|0,3:0|1:0,0:0:0:0:
295,53,122867,2,0,P|259:62|223:68,1,70,0|0,1:0|1:0,0:0:0:0:
200,61,123132,1,0,1:0:0:0:
200,60,123220,2,0,P|163:117|186:181,1,140,4|0,3:2|1:0,0:0:0:0:
272,157,123749,1,0,0:0:0:0:
327,230,123926,2,0,P|349:293|313:350,1,140,0|0,3:0|1:0,0:0:0:0:
241,315,124455,5,0,1:0:0:0:
241,315,124544,1,0,1:0:0:0:
241,315,124632,2,0,P|186:328|157:329,1,70,0|0,3:0|0:0,0:0:0:0:
100,277,124985,2,0,P|87:222|86:193,1,70,0|0,1:0|0:0,0:0:0:0:
170,98,125338,2,0,P|183:153|184:182,1,70,0|0,3:0|1:0,0:0:0:0:
181,250,125691,1,0,1:0:0:0:
379,255,126044,6,0,P|442:274|511:243,2,140,0|0|0,3:0|1:0|3:0,0:0:0:0:
312,193,126926,1,0,0:0:0:0:
402,168,127102,2,0,P|444:167|473:162,1,70,0|0,1:0|0:0,0:0:0:0:
329,100,127455,2,0,P|258:80|186:127,1,140,0|0,3:0|1:0,0:0:0:0:
217,197,127985,1,0,0:0:0:0:
312,193,128161,2,0,P|315:244|312:278,1,70,0|0,3:0|1:0,0:0:0:0:
231,320,128514,6,0,P|232:350|233:366,3,35,8|4|4|0,3:0|3:0|3:0|3:0,0:0:0:0:
213,297,128867,2,0,P|144:307|67:296,1,140,4|0,3:2|3:0,0:0:0:0:
29,148,129573,1,0,3:0:0:0:
182,198,129926,2,0,P|180:148|183:108,1,70,0|0,3:0|3:0,0:0:0:0:
183,100,130191,1,0,3:0:0:0:
183,100,130279,1,0,3:0:0:0:
329,36,130632,1,0,3:0:0:0:
460,122,130985,1,0,3:0:0:0:
402,269,131338,6,0,P|405:310|403:346,1,70,0|0,3:0|3:0,0:0:0:0:
404,366,131602,1,0,3:0:0:0:
404,366,131691,1,0,3:0:0:0:
252,324,132044,2,0,P|236:263|263:167,1,140,0|0,3:0|3:0,0:0:0:0:
121,98,132749,2,0,P|124:145|122:169,1,70,0|0,3:0|3:0,0:0:0:0:
117,192,133014,1,0,3:0:0:0:
116,192,133102,2,0,P|203:205|262:181,1,140,0|0,3:0|3:0,0:0:0:0:
299,125,133632,5,0,0:0:0:0:
358,193,133808,1,0,1:0:0:0:
298,256,133985,1,0,1:0:0:0:
362,315,134161,2,0,P|401:312|436:304,1,70,0|0,1:0|1:0,0:0:0:0:
480,228,134514,6,0,P|509:173|476:97,1,140,4|0,3:2|1:0,0:0:0:0:
410,45,135044,1,0,3:0:0:0:
410,45,135132,1,0,1:0:0:0:
410,45,135220,2,0,L|272:67,1,140,0|0,3:0|1:0,0:0:0:0:
186,84,135749,1,0,0:0:0:0:
104,49,135926,6,0,P|54:46|21:35,1,70,0|0,3:0|3:0,0:0:0:0:
111,130,136279,2,0,P|62:141|17:140,1,70,0|0,1:0|0:0,0:0:0:0:
21,138,136544,1,0,1:0:0:0:
21,138,136632,2,0,P|14:224|54:268,1,140,0|0,3:0|1:0,0:0:0:0:
129,231,137161,1,0,0:0:0:0:
210,285,137338,6,0,L|194:360,1,70,4|0,3:2|3:0,0:0:0:0:
292,251,137691,2,0,L|302:331,1,70,0|0,1:0|0:0,0:0:0:0:
318,344,137955,1,0,1:0:0:0:
318,344,138044,2,0,P|362:338|396:330,1,70,0|0,3:0|3:0,0:0:0:0:
446,245,138396,2,0,P|402:251|368:259,1,70,0|0,1:0|0:0,0:0:0:0:
324,173,138749,6,0,P|269:154|189:193,1,140,0|0,3:0|1:0,0:0:0:0:
121,225,139279,1,0,0:0:0:0:
121,225,139367,1,0,1:0:0:0:
121,225,139455,2,0,P|117:178|108:146,1,70,0|0,1:0|1:0,0:0:0:0:
55,85,139808,2,0,L|18:67,3,35,0|0|0|0,1:0|1:0|1:0|1:0,0:0:0:0:
91,62,140161,6,0,P|149:48|217:59,1,112,4|2,3:2|0:0,0:0:0:0:
353,81,140867,1,2,0:3:0:0:
206,158,141220,2,0,P|169:165|126:157,2,56,2|0|0,0:0|3:0|3:0,0:0:0:0:
358,209,141926,1,2,0:0:0:0:
212,268,142279,2,0,P|151:283|80:270,1,112,2|2,0:3|0:0,0:0:0:0:
320,350,142985,6,0,P|367:345|392:344,1,70,0|0,3:0|0:0,0:0:0:0:
454,288,143338,2,0,P|449:241|448:216,1,70,0|0,3:0|0:0,0:0:0:0:
381,166,143691,2,0,P|334:171|309:172,1,70,0|0,3:0|0:0,0:0:0:0:
247,228,144044,2,0,P|252:275|253:300,1,70,0|0,3:0|0:0,0:0:0:0:
139,333,144396,6,0,L|124:293,3,35,0|0|4|4,3:0|3:0|3:0|3:0,0:0:0:0:
146,265,144749,2,0,L|163:221,3,35,4|4|4|8,3:0|3:0|3:0|3:0,0:0:0:0:
127,198,145102,1,2,1:2:0:0:
334,59,145808,6,0,P|388:47|421:34,1,70,6|0,3:2|0:0,0:0:0:0:
416,145,146161,2,0,P|447:115|469:80,1,70,0|2,1:0|0:0,0:0:0:0:
324,155,146514,2,0,P|311:200|308:233,1,70,0|2,3:0|0:0,0:0:0:0:
216,184,146867,2,0,P|221:230|233:268,1,70,0|0,1:0|0:0,0:0:0:0:
318,307,147220,2,0,P|395:323|447:269,2,140,2|0|0,3:2|1:0|3:0,0:0:0:0:
232,349,148102,1,2,0:0:0:0:
151,290,148279,2,0,P|103:298|65:312,1,70,0|0,1:0|0:0,0:0:0:0:
73,205,148632,6,0,L|111:69,1,140,2|0,3:2|1:0,0:0:0:0:
186,131,149161,1,2,0:0:0:0:
286,78,149338,2,0,L|248:212,1,140,0|0,3:0|1:0,0:0:0:0:
166,251,149867,1,0,0:0:0:0:
242,306,150044,2,0,P|280:319|314:335,1,70,2|0,3:2|0:0,0:0:0:0:
355,256,150396,2,0,P|391:249|425:237,1,70,0|2,1:0|0:0,0:0:0:0:
466,156,150749,2,0,L|490:76,2,70,0|2|0,3:0|1:2|1:0,0:0:0:0:
389,109,151279,5,0,1:0:0:0:
389,109,151367,1,0,1:0:0:0:
389,109,151455,2,0,P|340:115|318:119,1,70,6|0,3:2|0:0,0:0:0:0:
273,45,151808,2,0,P|195:53|112:80,1,140,0|0,1:0|3:0,0:0:0:0:
63,118,152338,1,2,0:0:0:0:
152,162,152514,2,0,P|202:152|240:138,1,70,0|0,1:0|0:0,0:0:0:0:
296,213,152867,2,0,P|260:265|280:342,1,140,2|0,3:2|1:0,0:0:0:0:
475,219,153573,6,0,P|483:168|485:133,1,70,0|0,3:0|0:0,0:0:0:0:
420,88,153926,2,0,P|385:84|350:78,1,70,2|0,1:2|0:0,0:0:0:0:
252,151,154279,2,0,P|293:154|391:175,1,140,2|2,3:2|1:2,0:0:0:0:
366,326,154808,1,0,0:0:0:0:
297,271,154985,2,0,P|262:264|227:261,1,70,2|0,3:2|0:0,0:0:0:0:
390,175,155338,2,0,P|386:209|380:244,1,70,2|0,1:2|0:0,0:0:0:0:
252,151,155691,2,0,P|255:116|261:81,1,70,2|0,3:2|3:0,0:0:0:0:
160,104,156044,5,2,1:2:0:0:
147,200,156220,1,0,1:0:0:0:
69,142,156396,2,0,P|51:108|41:70,1,70,2|0,3:2|1:0,0:0:0:0:
64,267,156749,6,0,P|102:285|134:290,1,70,2|0,1:2|1:0,0:0:0:0:
158,280,157014,1,0,1:0:0:0:
158,280,157102,2,0,P|231:293|265:353,1,140,6|0,3:2|1:0,0:0:0:0:
343,293,157632,1,2,0:0:0:0:
439,323,157808,2,0,P|414:357|389:375,1,70,0|2,3:0|0:0,0:0:0:0:
413,227,158161,2,0,P|417:179|418:143,1,70,0|0,1:0|0:0,0:0:0:0:
319,189,158514,2,0,P|277:185|246:179,1,70,2|0,3:2|0:0,0:0:0:0:
172,97,158867,5,0,1:0:0:0:
261,100,159044,1,2,0:0:0:0:
173,178,159220,2,0,P|167:218|166:253,1,70,0|2,3:0|0:0,0:0:0:0:
242,331,159573,2,0,P|248:291|249:256,1,70,0|2,1:0|0:0,0:0:0:0:
350,178,159926,2,0,P|341:255|338:326,1,140,2|2,3:2|1:2,0:0:0:0:
426,267,160455,1,2,0:0:0:0:
442,146,160632,6,0,P|431:109|400:73,1,70,2|0,3:2|0:0,0:0:0:0:
322,100,160985,2,0,P|283:68|238:55,1,70,2|2,1:2|0:0,0:0:0:0:
192,114,161338,2,0,P|114:104|44:132,1,140,2|0,3:2|1:0,0:0:0:0:
272,226,162044,2,0,P|320:227|350:218,2,70,0|2|0,3:0|1:2|1:0,0:0:0:0:
187,215,162573,5,0,1:0:0:0:
187,215,162661,1,0,1:0:0:0:
187,215,162749,2,0,P|161:277|210:352,1,140,6|0,3:2|1:0,0:0:0:0:
282,351,163279,1,2,0:0:0:0:
374,359,163455,2,0,P|400:297|351:222,2,140,0|2|2,3:0|1:2|3:2,0:0:0:0:
287,270,164338,2,0,P|285:232|287:197,1,70,0|0,0:0|1:0,0:0:0:0:
346,139,164691,1,2,0:0:0:0:
235,133,164867,6,0,P|235:89|231:51,1,70,2|0,3:2|0:0,0:0:0:0:
137,123,165220,2,0,P|137:167|141:205,1,70,0|0,1:0|0:0,0:0:0:0:
152,281,165573,2,0,P|93:284|65:281,2,70,2|0|0,3:2|3:0|1:0,0:0:0:0:
235,240,166102,1,0,3:0:0:0:
235,240,166191,1,0,3:0:0:0:
235,240,166279,2,0,P|272:298|240:363,1,140,2|4,3:2|3:0,0:0:0:0:
423,281,166985,1,4,0:0:0:0:
262,65,168220,6,0,P|263:43|262:31,2,28,0|0|0,1:0|1:0|3:0,0:0:0:0:
373,146,168749,1,2,0:0:0:0:
217,205,169102,1,2,0:0:0:0:
379,297,169455,1,2,0:0:0:0:
189,354,169808,6,0,P|144:360|102:360,1,70,0|0,3:0|3:0,0:0:0:0:
120,280,170161,2,0,P|69:276|22:262,1,70,0|0,3:0|3:0,0:0:0:0:
72,194,170514,2,0,P|59:159|53:118,1,70,2|0,3:2|1:0,0:0:0:0:
65,105,170779,1,2,1:2:0:0:
65,105,170867,2,0,P|100:92|141:86,1,70,0|2,1:0|1:2,0:0:0:0:
224,152,171220,6,0,P|257:106|222:14,1,140,6|0,3:2|1:0,0:0:0:0:
353,127,171749,2,0,P|320:173|355:265,1,140,2|0,0:0|0:0,0:0:0:0:
471,206,172279,2,0,P|439:197|384:197,1,70,2|0,1:2|0:0,0:0:0:0:
410,320,172632,2,0,L|261:345,1,140,2|0,3:2|1:0,0:0:0:0:
211,294,173161,1,2,0:0:0:0:
211,294,173249,1,2,0:0:0:0:
211,294,173338,2,0,P|148:332|96:333,2,105,2|2|2,3:2|0:0|0:0,0:0:0:0:
229,192,174044,6,0,P|158:187|104:251,1,140,0|2,3:0|1:2,0:0:0:0:
27,253,174573,2,0,P|30:200|26:159,1,70,2|0,0:0|3:0,0:0:0:0:
58,104,174926,2,0,P|111:107|152:103,1,70,2|0,0:0|1:0,0:0:0:0:
191,39,175279,2,0,P|219:89|174:185,1,140,2|2,0:0|0:0,0:0:0:0:
130,218,175808,2,0,P|125:269|132:297,1,70,2|0,1:2|0:0,0:0:0:0:
209,324,176161,2,0,P|214:273|207:245,2,70,2|2|2,3:2|0:0|1:2,0:0:0:0:
303,303,176691,5,2,1:2:0:0:
303,303,176779,1,2,1:2:0:0:
303,303,176867,2,0,L|339:311,2,35,6|2|2,3:2|0:0|0:0,0:0:0:0:
390,246,177220,2,0,L|427:238,2,35,0|2|2,1:0|0:0|0:0,0:0:0:0:
451,161,177573,2,0,L|482:136,2,35,0|2|2,3:0|0:0|0:0,0:0:0:0:
474,57,177926,2,0,L|489:18,2,35,0|2|2,1:0|0:0|0:0,0:0:0:0:
387,91,178279,6,0,L|346:102,2,35,0|2|2,3:0|0:0|0:0,0:0:0:0:
275,157,178632,2,0,L|320:178,2,35,0|2|2,1:0|0:0|0:0,0:0:0:0:
205,84,178985,2,0,P|153:69|76:81,2,105,0|2|2,3:0|0:0|0:0,0:0:0:0:
190,199,179691,6,0,P|124:198|64:168,1,105,2|2,3:2|0:0,0:0:0:0:
60,168,180044,2,0,P|62:213|53:245,1,70,0|2,1:0|0:0,0:0:0:0:
109,325,180396,2,0,P|169:327|220:344,1,105,2|2,3:2|0:0,0:0:0:0:
241,351,180749,2,0,L|215:264,1,70,0|2,1:0|0:0,0:0:0:0:
309,203,181102,2,0,L|317:274,1,70,6|0,1:2|3:0,0:0:0:0:
411,200,181455,2,0,L|417:121,1,70,6|0,1:2|3:0,0:0:0:0:
348,64,181808,6,0,L|339:29,3,35,6|0|0|0,1:2|1:0|1:0|1:0,0:0:0:0:
325,99,182161,2,0,L|315:144,3,35,2|0|0|0,1:2|1:0|1:0|1:0,0:0:0:0:
296,70,182514,2,0,P|223:83|154:43,1,140,6|0,3:2|1:0,0:0:0:0:
25,175,183220,2,0,P|68:182|101:196,1,70,2|0,3:2|0:0,0:0:0:0:
141,282,183573,2,0,P|98:275|65:261,1,70,2|0,1:2|0:0,0:0:0:0:
192,206,183926,2,0,P|240:172|329:179,1,140,2|0,3:2|1:0,0:0:0:0:
379,248,184455,1,0,0:0:0:0:
287,269,184632,2,0,P|292:303|292:340,1,70,2|0,3:2|0:0,0:0:0:0:
386,342,184985,6,0,P|420:337|457:337,1,70,0|2,1:0|1:2,0:0:0:0:
477,244,185338,2,0,P|501:190|458:113,1,140,6|2,1:2|1:2,0:0:0:0:
378,154,185867,1,2,1:2:0:0:
300,97,186044,2,0,P|293:50|300:18,2,70,6|0|0,1:2|1:0|3:0,0:0:0:0:
253,178,186573,1,0,1:0:0:0:
154,173,186749,2,0,P|136:244|186:318,2,140,6|0|2,1:2|3:0|1:2,0:0:0:0:
253,178,187632,1,0,3:0:0:0:
264,272,187808,2,0,P|265:311|272:350,1,70,2|0,1:2|1:0,0:0:0:0:
341,219,188161,6,0,P|422:219|500:197,1,140,6|0,3:2|1:0,0:0:0:0:
476,114,188691,1,0,0:0:0:0:
385,114,188867,2,0,P|337:115|310:120,1,70,2|0,3:2|0:0,0:0:0:0:
277,38,189220,2,0,P|228:43|181:40,1,70,2|0,1:2|0:0,0:0:0:0:
112,32,189573,2,0,P|86:104|138:163,1,140,2|0,3:2|1:0,0:0:0:0:
209,148,190102,1,0,0:0:0:0:
166,232,190279,2,0,P|167:283|179:318,1,70,2|0,3:2|0:0,0:0:0:0:
296,223,190632,2,0,P|295:172|283:137,1,70,2|2,1:2|1:2,0:0:0:0:
258,318,190985,6,0,P|318:342|403:307,1,140,2|2,3:2|1:2,0:0:0:0:
398,223,191514,1,2,1:2:0:0:
296,223,191691,2,0,P|219:234|150:184,1,140,2|2,3:2|1:2,0:0:0:0:
153,109,192220,1,2,0:0:0:0:
242,132,192396,1,4,3:2:0:0:
256,192,192573,12,2,195220,0:0:0:0:
351,177,198044,6,0,P|373:225|353:289,2,112,0|2|2,3:0|0:0|0:3,0:0:0:0:
206,232,199102,1,2,0:0:0:0:
87,121,199455,2,0,P|134:104|210:128,1,112,0|2,0:0|0:0,0:0:0:0:
269,117,199985,2,0,P|270:66|265:45,2,56,0|2|0,0:0|0:3|0:0,0:0:0:0:
253,333,200867,6,0,P|175:333|118:338,1,112,0|2,0:0|0:0,0:0:0:0:
349,334,201573,2,0,P|427:334|484:329,1,112,2|2,0:3|0:0,0:0:0:0:
335,217,202279,6,0,P|282:245|198:197,1,140,0|0,3:0|3:0,0:0:0:0:
181,146,202808,1,8,0:3:0:0:
133,211,202985,2,0,P|131:258|134:289,1,70,0|0,3:0|1:0,0:0:0:0:
55,328,203338,2,0,P|57:281|54:250,1,70,0|0,3:0|1:0,0:0:0:0:
56,177,203691,6,0,P|34:137|64:48,1,140,4|0,3:2|3:0,0:0:0:0:
134,91,204220,1,0,0:0:0:0:
217,82,204396,2,0,P|253:65|281:38,1,70,0|0,3:0|0:0,0:0:0:0:
343,89,204749,2,0,P|369:51|378:25,1,70,0|0,3:0|0:0,0:0:0:0:
277,142,205102,6,0,P|319:175|413:164,1,140,0|0,3:0|3:0,0:0:0:0:
455,114,205632,1,0,0:0:0:0:
483,189,205808,2,0,P|446:250|354:272,1,140,0|0,3:0|3:0,0:0:0:0:
306,252,206338,1,0,0:0:0:0:
253,316,206514,6,0,P|204:322|164:318,1,70,0|0,3:0|0:0,0:0:0:0:
127,265,206867,2,0,P|57:295|42:370,2,140,0|0|0,3:0|3:0|3:0,0:0:0:0:
205,242,207749,1,0,0:0:0:0:
146,187,207926,2,0,P|122:130|156:48,1,140,0|0,3:0|3:0,0:0:0:0:
217,93,208455,1,0,0:0:0:0:
292,59,208632,2,0,P|294:99|291:132,1,70,0|0,3:0|1:0,0:0:0:0:
371,163,208985,2,0,P|369:123|372:90,1,70,0|0,1:0|1:0,0:0:0:0:
446,63,209338,5,4,3:2:0:0:
479,217,209691,1,2,0:0:0:0:
336,273,210044,1,2,0:3:0:0:
303,119,210396,2,0,P|262:125|241:125,1,56,2|0,0:0|3:0,0:0:0:0:
184,83,210749,2,0,P|101:73|35:196,1,224,0|2,3:0|0:3,0:0:0:0:
180,245,211808,1,2,0:0:0:0:
33,343,212161,6,0,P|75:351|106:355,1,70,0|0,3:0|3:0,0:0:0:0:
181,327,212514,2,0,P|225:317|254:311,1,70,0|0,3:0|3:0,0:0:0:0:
330,344,212867,2,0,P|378:352|420:355,1,70,4|4,3:0|3:0,0:0:0:0:
468,299,213220,2,0,P|475:261|477:217,1,70,4|4,3:0|3:0,0:0:0:0:
437,149,213573,5,0,1:0:0:0:
389,231,213749,1,0,1:0:0:0:
303,207,213926,1,0,1:0:0:0:
307,118,214102,1,0,1:0:0:0:
386,70,214279,2,0,L|420:49,3,35,0|0|0|0,1:0|1:0|1:0|1:0,0:0:0:0:
453,70,214632,2,0,L|488:60,3,35,0|0|0|0,1:0|1:0|1:0|1:0,0:0:0:0:
419,108,214985,6,0,P|414:146|412:182,1,70,6|0,3:2|0:0,0:0:0:0:
329,269,215338,2,0,P|334:231|336:195,1,70,0|2,1:0|0:0,0:0:0:0:
232,97,215691,2,0,P|236:140|242:174,1,70,0|2,3:0|0:0,0:0:0:0:
183,299,216044,2,0,P|179:256|173:222,1,70,0|0,1:0|0:0,0:0:0:0:
39,201,216396,2,0,P|72:156|165:147,1,140,2|0,3:2|1:0,0:0:0:0:
241,166,216926,1,2,0:0:0:0:
305,93,217102,2,0,P|338:87|373:80,1,70,0|2,3:0|0:0,0:0:0:0:
466,155,217455,2,0,P|432:160|398:168,1,70,0|0,1:0|0:0,0:0:0:0:
327,237,217808,6,0,P|358:309|328:365,1,140,2|0,3:2|1:0,0:0:0:0:
240,351,218338,1,2,0:0:0:0:
238,259,218514,2,0,P|238:217|234:186,1,70,0|2,3:0|0:0,0:0:0:0:
146,353,218867,1,0,1:0:0:0:
240,351,219044,1,0,0:0:0:0:
143,258,219220,2,0,P|101:263|67:261,1,70,2|0,3:2|0:0,0:0:0:0:
98,156,219573,2,0,P|140:151|174:153,1,70,0|2,1:0|0:0,0:0:0:0:
261,203,219926,5,0,3:0:0:0:
277,111,220102,2,0,P|274:67|265:33,1,70,2|0,1:2|1:0,0:0:0:0:
388,106,220455,1,0,1:0:0:0:
388,106,220544,1,0,1:0:0:0:
388,106,220632,2,0,P|376:183|423:253,1,140,6|0,3:2|1:0,0:0:0:0:
482,179,221161,1,2,0:0:0:0:
487,278,221338,2,0,P|497:325|490:359,1,70,2|0,3:2|0:0,0:0:0:0:
399,344,221691,2,0,P|362:350|305:334,1,70,0|0,1:0|0:0,0:0:0:0:
274,272,222044,2,0,L|121:256,1,140,2|0,3:2|1:0,0:0:0:0:
68,189,222573,5,2,0:0:0:0:
156,165,222749,2,0,P|191:157|228:152,1,70,2|0,3:2|0:0,0:0:0:0:
312,137,223102,2,0,P|346:132|380:124,1,70,2|0,1:2|0:0,0:0:0:0:
410,224,223455,2,0,P|310:239|257:225,1,140,2|0,3:2|1:0,0:0:0:0:
181,235,223985,1,0,0:0:0:0:
251,321,224161,2,0,P|201:328|165:322,1,70,2|0,3:2|0:0,0:0:0:0:
268,162,224514,2,0,P|275:212|269:248,1,70,0|0,1:0|0:0,0:0:0:0:
181,235,224867,2,0,P|174:185|180:149,1,70,2|0,3:2|3:0,0:0:0:0:
220,86,225220,5,0,1:0:0:0:
146,32,225396,1,2,1:2:0:0:
61,72,225573,2,0,P|46:109|43:160,1,70,2|0,3:2|1:0,0:0:0:0:
49,231,225926,1,2,1:2:0:0:
152,291,226102,5,0,1:0:0:0:
152,291,226191,1,0,1:0:0:0:
152,291,226279,2,0,L|226:301,1,70,6|0,3:2|0:0,0:0:0:0:
366,260,226632,2,0,P|319:266|286:273,1,70,0|2,1:0|0:0,0:0:0:0:
161,203,226985,2,0,P|208:197|241:190,1,70,2|0,3:2|0:0,0:0:0:0:
375,172,227338,2,0,L|301:162,1,70,2|0,1:2|0:0,0:0:0:0:
192,103,227691,2,0,P|254:60|330:79,1,140,2|0,3:2|1:0,0:0:0:0:
407,86,228220,1,0,0:0:0:0:
500,78,228396,6,0,P|497:143|497:166,1,70,2|0,3:2|0:0,0:0:0:0:
493,247,228749,2,0,P|497:285|497:328,1,70,0|0,1:0|0:0,0:0:0:0:
383,288,229102,2,0,P|386:223|386:200,1,70,2|0,3:2|0:0,3:3:0:0:
390,119,229455,2,0,P|386:81|386:38,1,70,2|0,1:2|0:0,0:0:0:0:
294,168,229808,2,0,P|249:175|219:182,1,70,0|2,3:0|0:0,0:0:0:0:
88,113,230161,2,0,P|131:119|161:127,1,70,0|2,1:0|0:0,0:0:0:0:
192,263,230514,2,0,P|117:262|66:200,2,140,2|0|2,3:2|1:0|3:2,0:0:0:0:
273,305,231396,2,0,P|323:286|354:282,1,70,2|2,1:2|1:2,0:0:0:0:
435,277,231749,5,2,1:2:0:0:
435,277,231838,1,2,1:2:0:0:
435,277,231926,2,0,P|464:222|424:135,1,140,6|2,3:2|1:2,0:0:0:0:
353,174,232455,2,0,P|312:178|273:175,1,70,2|0,0:0|3:0,0:0:0:0:
317,84,232808,1,2,0:0:0:0:
159,114,232985,2,0,P|200:110|239:113,1,70,2|0,1:2|0:0,0:0:0:0:
195,203,233338,6,0,P|154:207|115:204,1,70,2|0,3:2|0:0,0:0:0:0:
42,147,233691,1,2,1:2:0:0:
39,239,233867,2,0,P|43:286|39:321,1,70,2|0,0:0|3:0,0:0:0:0:
125,205,234220,1,2,0:0:0:0:
135,301,234396,2,0,P|175:300|205:298,1,70,2|0,1:2|0:0,0:0:0:0:
306,280,234749,6,0,P|310:328|305:364,2,70,2|0|2,3:2|3:0|1:2,0:0:0:0:
245,215,235279,1,0,1:0:0:0:
245,215,235367,1,0,1:0:0:0:
245,215,235455,2,0,P|240:176|243:140,1,70,2|0,1:2|3:0,0:0:0:0:
339,110,235808,2,0,P|344:149|341:185,1,70,2|0,1:2|1:0,0:0:0:0:
422,273,236161,6,0,P|417:227|420:188,1,70,4|2,3:2|0:0,0:0:0:0:
500,201,236514,2,0,P|506:118|471:55,1,140,0|0,1:0|3:0,0:0:0:0:
341,179,237220,1,0,1:0:0:0:
341,179,237573,2,0,P|289:185|246:185,1,70,0|0,3:0|0:0,0:0:0:0:
194,114,237926,2,0,P|246:108|289:108,1,70,0|0,1:0|0:0,0:0:0:0:
342,98,238279,2,0,P|376:96|411:91,2,70,0|2|0,3:0|0:0|1:0,0:0:0:0:
298,35,238808,5,0,1:0:0:0:
298,35,238896,1,0,1:0:0:0:
298,35,238985,2,0,P|250:31|208:29,1,70,0|2,3:0|0:0,0:0:0:0:
149,35,239338,2,0,P|145:71|144:120,1,70,0|0,1:0|0:0,0:0:0:0:
145,184,239691,2,0,P|94:196|12:143,1,140,0|0,3:0|1:0,0:0:0:0:
223,255,240396,2,0,P|274:243|356:296,2,140,0|0|0,3:0|1:0|3:0,0:0:0:0:
164,312,241279,2,0,P|116:318|75:307,1,70,2|0,0:0|1:0,0:0:0:0:
46,253,241632,5,0,1:0:0:0:
46,253,241720,1,0,1:0:0:0:
46,253,241808,2,0,P|32:202|29:184,2,70,4|2|0,3:2|0:0|1:0,0:0:0:0:
116,205,242338,1,0,0:0:0:0:
116,205,242514,2,0,P|164:214|187:218,1,70,0|0,3:0|0:0,0:0:0:0:
250,147,242867,2,0,P|202:138|179:134,1,70,0|0,1:0|0:0,0:0:0:0:
266,227,243220,2,0,P|341:231|392:175,1,140,0|0,3:0|1:0,0:0:0:0:
386,189,243926,2,0,P|379:140|377:109,2,70,0|2|0,3:0|0:0|1:0,0:0:0:0:
474,157,244455,5,0,1:0:0:0:
474,157,244544,1,0,1:0:0:0:
474,157,244632,2,0,P|478:191|481:226,1,70,0|2,3:0|0:0,0:0:0:0:
421,280,244985,2,0,P|387:284|352:287,1,70,0|0,1:0|0:0,0:0:0:0:
289,236,245338,2,0,P|254:238|219:243,1,70,0|0,3:0|0:0,0:0:0:0:
148,285,245691,2,0,P|144:251|141:216,1,70,0|0,1:0|0:0,0:0:0:0:
166,140,246044,2,0,P|99:132|29:169,1,140,0|0,3:0|1:0,0:0:0:0:
256,157,246749,6,0,P|279:110|288:80,1,70,0|2,3:0|0:0,0:0:0:0:
334,34,247102,2,0,P|361:65|390:90,1,70,0|0,1:0|1:0,0:0:0:0:
407,101,247367,1,0,1:0:0:0:
407,101,247455,2,0,P|368:159|318:362,1,280,0|4,1:0|3:2,0:0:0:0:
256,192,249044,12,0,254426,0:0:0:0:
