osu file format v14

[General]
AudioFilename: audio.mp3
AudioLeadIn: 0
PreviewTime: 60617
Countdown: 0
SampleSet: Soft
StackLeniency: 0.4
Mode: 0
LetterboxInBreaks: 0
WidescreenStoryboard: 1

[Editor]
Bookmarks: 86510,158474,169903,182224,208117,222760
DistanceSpacing: 1.3
BeatDivisor: 4
GridSize: 4
TimelineZoom: 1.2

[Metadata]
Title:Suki na Ko ni Uso Tsuita.
TitleUnicode:好きな子に嘘ついた。
Artist:HoneyWorks feat. Amatsuki
ArtistUnicode:HoneyWorks feat. 天月
Creator:aundy
Version:LighScrap & AsuKo's Hard
Source:
Tags:Serizawa Haruki Jack J_a_c_k LighScrap AsuKow arronchu1207 Toofu Neymar Jr jpop j-pop japanese pop 告白実行委員会 -FLYING SONGS- 恋してる Kokuhaku Jikkou Iinkai Koishiteru Nagisa Shiranami 白波 渚 shito Junya Enoki 榎木 淳弥 ヒロインは平均以下。Heroine wa Heikin Ika. confession executive committee I lied to my favorite girl
BeatmapID:4422359
BeatmapSetID:2016464

[Difficulty]
HPDrainRate:4
CircleSize:3.6
OverallDifficulty:6.5
ApproachRate:7.5
SliderMultiplier:1.4
SliderTickRate:1

[Events]
//Background and Video events
0,0,"FatZikDM_2x.jpg",0,0
Video,0,"VD (1).mp4"
//Break Periods
2,170103,181400
2,208674,209971
//Storyboard Layer 0 (Background)
//Storyboard Layer 1 (Fail)
//Storyboard Layer 2 (Pass)
//Storyboard Layer 3 (Foreground)
//Storyboard Layer 4 (Overlay)
//Storyboard Sound Samples

[TimingPoints]
1332,357.142857142857,4,2,22,50,1,0
1332,-133.333333333333,4,2,22,50,0,0
9814,-133.333333333333,4,2,22,5,0,0
9903,-111.111111111111,4,2,22,60,0,0
12671,-111.111111111111,4,2,22,5,0,0
12760,-100,4,2,22,75,0,0
24189,-125,4,2,22,65,0,0
35081,-111.111111111111,4,2,22,65,0,0
35528,-111.111111111111,4,2,22,5,0,0
35617,-111.111111111111,4,2,22,70,0,0
47046,-111.111111111111,4,2,22,50,0,0
47760,-133.333333333333,4,2,22,50,0,0
52224,-100,4,2,22,50,0,0
52760,-100,4,2,22,60,0,0
54189,-100,4,2,22,65,0,0
55617,-100,4,2,22,70,0,0
57046,-100,4,2,22,75,0,0
58474,-100,4,2,22,80,0,0
60796,-100,4,2,22,60,0,0
61242,-100,4,2,22,5,0,0
61331,357.142857142857,4,2,22,50,1,0
61331,-90.9090909090909,4,2,22,80,0,0
83831,-90.9090909090909,4,2,22,80,0,0
84189,-100,4,2,22,50,0,0
86956,-100,4,2,22,5,0,0
87046,357.142857142857,4,2,22,50,1,0
87046,-100,4,2,22,75,0,0
98474,-125,4,2,22,65,0,0
127046,-100,4,2,22,60,0,0
128475,-100,4,2,22,65,0,0
129903,-100,4,2,22,70,0,0
131332,-100,4,2,22,75,0,0
132760,-100,4,2,22,80,0,0
135528,-100,4,2,22,5,0,0
135617,357.142857142857,4,2,22,50,1,0
135617,-90.9090909090909,4,2,22,80,0,0
158117,-100,4,2,22,80,0,0
169814,-100,4,2,22,5,0,0
169903,-100,4,2,22,50,0,0
182671,-100,4,2,22,5,0,0
182760,357.142857142857,4,2,22,50,1,0
182760,-90.9090909090909,4,2,22,80,0,0
208474,-100,4,2,22,60,0,0
210796,-100,4,2,22,60,0,0
211242,-100,4,2,22,5,0,0
211331,-100,4,2,22,75,0,0

[Colours]
Combo1 : 250,180,240
Combo2 : 120,200,230
Combo3 : 255,230,130
Combo4 : 160,230,150

[HitObjects]
28,144,1332,6,0,L|9:40,1,105.000004005432,2|2,0:0|0:0,0:0:0:0:
88,28,1867,2,0,L|106:131,1,105.000004005432,2|2,0:0|0:0,0:0:0:0:
4,252,2581,2,0,P|80:234|138:286,1,157.500006008148,2|2,0:0|0:0,0:0:0:0:
184,344,3296,2,0,P|241:357|284:318,1,105.000004005432,2|2,0:0|0:0,0:0:0:0:
276,333,3831,1,2,0:0:0:0:
416,264,4189,6,0,L|397:368,1,105.000004005432,2|2,0:0|0:0,0:0:0:0:
476,380,4724,2,0,L|494:277,1,105.000004005432,2|2,0:0|0:0,0:0:0:0:
468,200,5260,1,2,0:0:0:0:
468,200,5439,2,0,L|486:97,1,105.000004005432,2|0,0:0|0:0,0:0:0:0:
408,80,5974,2,0,L|390:183,2,105.000004005432,2|2|2,0:0|0:0|0:0,0:0:0:0:
256,124,7046,6,0,P|202:100|152:131,1,105.000004005432,2|2,0:0|0:0,0:0:0:0:
136,44,7581,2,0,P|89:78|90:137,1,105.000004005432,2|2,0:0|0:0,0:0:0:0:
36,184,8117,1,2,0:0:0:0:
36,184,8296,2,0,L|45:235,1,52.5000020027161,2|0,0:0|0:0,0:0:0:0:
108,280,8653,2,0,L|117:331,2,52.5000020027161,2|2|2,0:0|0:0|0:0,0:0:0:0:
240,364,9367,1,2,0:0:0:0:
240,364,9546,2,0,L|317:350,1,78.7500030040742,2|0,0:0|0:0,0:0:0:0:
344,348,9903,5,14,0:2:0:0:
508,164,10439,1,8,0:0:0:0:
508,164,10617,1,10,0:0:0:0:
320,8,11153,6,0,B|354:42|354:42|339:128,1,125.999996154785,14|10,0:2|0:0,0:0:0:0:
280,176,11689,2,0,L|202:162,1,62.9999980773926,10|10,0:0|0:0,0:0:0:0:
156,112,12046,1,10,0:0:0:0:
92,164,12224,1,0,3:0:0:0:
92,164,12314,1,0,3:0:0:0:
92,164,12403,2,0,L|108:256,1,94.499997116089,12|0,0:0|0:0,0:0:0:0:
116,292,12760,6,0,B|198:276|175:327|257:309,1,140,4|10,3:2|0:0,0:0:0:0:
320,368,13296,2,0,P|355:376|388:365,1,70,2|8,3:2|0:0,0:0:0:0:
456,304,13653,2,0,P|445:268|419:246,1,70,2|8,3:2|0:0,0:0:0:0:
340,208,14010,2,0,P|400:216|452:156,1,140,2|2,3:2|3:2,0:0:0:0:
512,92,14546,1,10,0:0:0:0:
452,24,14724,2,0,P|416:15|383:26,1,70,2|8,3:2|0:0,0:0:0:0:
316,84,15081,5,2,3:2:0:0:
316,84,15260,1,10,0:0:0:0:
240,32,15439,2,0,L|227:104,1,70,2|8,3:2|0:0,0:0:0:0:
152,152,15796,1,2,3:2:0:0:
152,152,15975,1,10,0:0:0:0:
76,104,16153,2,0,L|63:176,1,70,2|8,3:2|0:0,0:0:0:0:
0,240,16510,1,2,3:2:0:0:
0,240,16689,1,10,0:0:0:0:
60,308,16867,6,0,B|116:298|116:298|142:309|142:309|197:300,1,140,2|2,3:2|3:2,0:0:0:0:
268,360,17403,2,0,L|340:347,1,70,8|0,0:0|3:2,0:0:0:0:
400,280,17760,1,10,0:0:0:0:
400,280,17939,1,2,3:2:0:0:
336,216,18117,1,10,0:0:0:0:
404,156,18296,5,0,3:0:0:0:
404,156,18385,1,0,3:0:0:0:
404,156,18474,2,0,P|434:95|404:34,1,140,8|10,0:0|0:0,0:0:0:0:
336,92,19010,2,0,P|300:101|267:90,1,70,2|8,3:2|0:0,0:0:0:0:
208,156,19367,2,0,P|182:129|175:95,1,70,2|8,3:2|0:0,0:0:0:0:
124,24,19724,6,0,B|39:7|39:7|0:48,1,140,2|2,3:2|3:2,0:0:0:0:
76,104,20260,1,10,0:2:0:0:
4,164,20439,2,0,L|17:236,1,70,2|8,3:2|0:0,0:0:0:0:
80,300,20796,2,0,P|115:309|149:298,1,70,2|10,3:2|0:2,0:0:0:0:
216,240,21153,1,2,3:2:0:0:
284,300,21331,6,0,B|366:284|343:335|425:317,1,140,10|10,0:0|0:0,0:0:0:0:
484,252,21867,1,0,3:0:0:0:
484,252,22046,2,0,P|493:216|484:182,1,70,10|0,0:0|3:0,0:0:0:0:
420,124,22403,1,10,0:0:0:0:
360,192,22581,6,0,B|304:182|304:182|278:193|278:193|223:184,1,140,6|8,3:2|0:0,0:0:0:0:
196,96,23117,2,0,L|268:109,1,70,10|8,0:0|0:0,0:0:0:0:
344,60,23474,1,10,0:0:0:0:
344,60,23653,1,0,3:0:0:0:
256,12,23831,5,12,0:0:0:0:
360,192,24189,6,0,L|249:212,1,112,2|2,3:2|3:2,0:0:0:0:
180,172,24724,1,2,0:0:0:0:
180,172,24903,2,0,L|124:182,1,56,2|2,3:2|0:0,0:0:0:0:
64,132,25260,1,0,3:0:0:0:
16,292,25617,6,0,P|-8:252|20:184,1,112,0|2,3:0|3:2,0:0:0:0:
64,132,26153,1,2,0:0:0:0:
64,132,26331,2,0,P|71:100|61:70,1,56,2|2,3:2|0:0,0:0:0:0:
8,24,26689,1,0,3:0:0:0:
228,36,27046,6,0,P|263:66|335:50,1,112,2|2,3:2|3:2,0:0:0:0:
388,16,27581,1,0,0:0:0:0:
388,16,27760,2,0,P|441:6|484:39,1,112,2|2,3:2|3:2,0:0:0:0:
504,116,28296,1,2,0:0:0:0:
504,116,28474,2,0,L|483:226,2,112,2|2|2,3:2|3:2|3:2,0:0:0:0:
388,16,29546,1,0,3:0:0:0:
324,59,29724,5,2,0:0:0:0:
324,59,29814,1,2,0:0:0:0:
324,59,29903,2,0,L|344:169,1,112,4|0,3:2|3:0,0:0:0:0:
404,220,30439,1,2,0:0:0:0:
404,220,30618,2,0,L|414:275,1,56,2|0,3:2|0:0,0:0:0:0:
376,344,30975,1,0,3:0:0:0:
256,244,31331,6,0,P|210:232|154:266,1,112,2|2,3:2|3:2,0:0:0:0:
88,224,31867,1,2,0:0:0:0:
88,224,32046,2,0,P|71:251|72:283,1,56,2|2,3:2|0:0,0:0:0:0:
124,336,32403,1,2,3:2:0:0:
256,244,32760,6,0,L|276:133,1,112,2|2,3:2|3:2,0:0:0:0:
216,84,33296,1,2,0:0:0:0:
216,84,33474,2,0,P|184:90|154:80,1,56,2|2,3:2|0:0,0:0:0:0:
104,140,33831,2,0,P|82:115|76:85,1,56,2|2,3:2|0:0,0:0:0:0:
8,56,34189,2,0,P|37:62|101:11,2,112,2|2|2,3:2|3:2|3:2,0:0:0:0:
8,144,35081,1,0,3:0:0:0:
8,144,35260,2,0,L|26:243,1,94.499997116089,8|0,0:0|0:0,0:0:0:0:
32,272,35617,6,0,B|108:258|108:258|142:292,1,125.999996154785,4|8,3:2|0:0,0:0:0:0:
204,348,36153,2,0,L|198:378,2,31.4999990386963,2|8|0,3:2|3:2|3:0,0:0:0:0:
264,292,36510,1,2,3:2:0:0:
264,292,36689,2,0,L|250:217,1,62.9999980773926,8|0,0:0|0:0,0:0:0:0:
220,156,37046,6,0,B|271:148|271:148|294:157|294:157|344:149,1,125.999996154785,0|8,3:2|0:0,0:0:0:0:
400,92,37581,1,2,3:2:0:0:
400,92,37671,1,8,0:2:0:0:
400,92,37760,2,0,L|475:78,1,62.9999980773926,0|2,3:0|3:2,0:0:0:0:
444,0,38117,2,0,L|369:14,1,62.9999980773926,8|0,0:0|0:0,0:0:0:0:
320,68,38474,6,0,P|269:34|207:60,1,125.999996154785,0|10,3:0|0:0,0:0:0:0:
148,108,39010,2,0,L|118:114,2,31.4999990386963,2|8|2,3:2|0:0|3:2,0:0:0:0:
220,156,39367,1,2,3:2:0:0:
220,156,39546,2,0,P|226:191|215:224,1,62.9999980773926,10|2,0:0|0:0,0:0:0:0:
160,272,39903,6,0,L|174:347,1,62.9999980773926,2|2,3:2|0:0,0:0:0:0:
104,376,40260,2,0,P|68:382|35:371,1,62.9999980773926,10|0,0:0|3:0,0:0:0:0:
0,304,40617,2,0,L|24:175,1,125.999996154785,0|8,3:0|0:0,0:0:0:0:
84,124,41153,5,2,0:0:0:0:
84,124,41242,1,2,0:0:0:0:
84,124,41331,2,0,B|158:109|138:155|211:139,1,125.999996154785,0|10,3:2|0:0,0:0:0:0:
260,80,41867,1,0,3:0:0:0:
260,80,42046,2,0,P|290:73|320:80,1,62.9999980773926,2|2,3:2|3:2,0:0:0:0:
372,144,42403,2,0,P|402:134|425:114,1,62.9999980773926,10|2,0:0|0:0,0:0:0:0:
480,52,42760,6,0,B|514:86|514:86|500:162,1,125.999996154785,0|8,3:2|3:2,0:0:0:0:
508,244,43296,2,0,L|502:274,2,31.4999990386963,2|8|2,3:2|0:0|3:2,0:0:0:0:
432,208,43653,1,2,3:2:0:0:
432,208,43831,2,0,L|418:283,1,62.9999980773926,10|0,0:0|0:0,0:0:0:0:
348,312,44189,6,0,B|274:297|294:343|221:327,1,125.999996154785,0|10,3:2|0:0,0:0:0:0:
160,376,44724,1,0,3:2:0:0:
160,376,44814,1,8,0:0:0:0:
160,376,44903,2,0,P|124:382|91:371,1,62.9999980773926,0|2,3:2|3:2,0:0:0:0:
44,316,45260,2,0,P|55:282|81:259,1,62.9999980773926,10|2,0:0|3:2,0:0:0:0:
136,208,45617,6,0,L|122:133,1,62.9999980773926,2|0,3:2|3:2,0:0:0:0:
64,92,45974,1,10,0:0:0:0:
120,32,46153,1,8,0:0:0:0:
120,32,46242,1,8,0:0:0:0:
120,32,46331,2,0,L|195:46,1,62.9999980773926,10|0,0:0|3:0,0:0:0:0:
240,100,46689,1,8,3:0:0:0:
240,100,46867,1,8,3:0:0:0:
304,48,47046,1,2,0:0:0:0:
504,260,47760,6,0,P|452:257|410:294,1,105.000004005432,2|2,0:0|0:0,0:0:0:0:
276,308,48474,2,0,B|399:284|364:360|487:333,1,210.000008010865,2|2,0:0|0:0,0:0:0:0:
256,169,49903,6,0,L|151:150,1,105.000004005432,2|2,0:0|0:0,0:0:0:0:
52,60,50617,2,0,L|156:40,1,105.000004005432,2|2,0:0|0:0,0:0:0:0:
288,8,51331,2,0,L|278:60,3,52.5000020027161,2|2|2|2,0:0|0:0|0:0|0:0,0:0:0:0:
328,120,52046,1,2,0:0:0:0:
396,60,52224,1,2,0:0:0:0:
396,60,52314,1,2,0:0:0:0:
396,60,52403,2,0,P|444:56|488:108,1,105,2|0,3:2|0:0,0:0:0:0:
480,128,52760,6,0,L|466:198,1,70,14|10,0:0|0:0,0:0:0:0:
400,248,53117,1,2,3:2:0:0:
464,304,53296,2,0,L|510:295,2,35,10|8|0,0:0|0:0|3:0,0:0:0:0:
396,356,53653,1,10,0:0:0:0:
396,356,53742,1,8,0:0:0:0:
396,356,53831,2,0,L|349:347,3,35,2|8|10|8,3:2|0:0|0:0|0:0,0:0:0:0:
328,320,54189,6,0,L|258:334,1,70,14|8,0:0|0:0,0:0:0:0:
196,280,54546,1,2,3:2:0:0:
140,340,54724,2,0,L|148:386,2,35,8|8|2,0:0|0:0|3:2,0:0:0:0:
80,284,55081,1,8,0:0:0:0:
80,284,55170,1,8,0:0:0:0:
80,284,55260,2,0,L|88:237,3,35,0|8|8|8,3:0|0:0|0:0|0:0,0:0:0:0:
56,212,55617,6,0,P|50:177|61:144,1,70,14|10,0:0|0:0,0:0:0:0:
136,108,55974,1,2,3:2:0:0:
76,52,56153,1,10,0:0:0:0:
76,52,56242,1,8,0:0:0:0:
76,52,56331,2,0,P|103:29|137:22,1,70,2|10,3:2|0:0,0:0:0:0:
212,64,56689,2,0,L|258:55,3,35,2|8|10|8,3:2|0:0|0:2|0:0,0:0:0:0:
284,80,57046,6,0,P|318:87|352:78,1,70,10|10,0:0|0:0,0:0:0:0:
416,28,57403,1,2,3:2:0:0:
476,88,57581,1,10,0:0:0:0:
476,88,57671,1,8,0:0:0:0:
476,88,57760,2,0,P|451:114|443:147,1,70,2|10,3:2|0:0,0:0:0:0:
364,176,58117,2,0,L|317:167,3,35,2|8|8|8,3:2|0:0|0:0|0:0,0:0:0:0:
288,184,58474,6,0,L|274:254,1,70,14|0,0:0|0:0,0:0:0:0:
200,292,58831,2,0,L|186:222,1,70,0|8,3:0|0:0,0:0:0:0:
120,168,59189,1,10,0:0:0:0:
120,168,59367,1,0,3:0:0:0:
60,228,59546,1,8,3:0:0:0:
8,156,59724,6,0,L|22:86,1,70,14|0,0:0|0:0,0:0:0:0:
84,20,60081,1,8,0:0:0:0:
152,80,60260,1,8,0:0:0:0:
220,20,60439,1,8,0:0:0:0:
384,96,60796,5,2,0:0:0:0:
384,96,60885,1,2,0:0:0:0:
384,96,60974,2,0,P|405:147|373:197,1,105,2|0,0:0|0:0,0:0:0:0:
360,212,61331,6,0,B|269:194|295:250|204:230,1,154.000004699707,14|10,0:0|0:0,0:0:0:0:
160,308,61867,2,0,P|122:315|85:306,1,77.0000023498536,2|8,0:0|0:0,0:0:0:0:
24,236,62224,1,2,3:2:0:0:
24,236,62403,1,8,0:0:0:0:
92,176,62581,6,0,B|75:82|75:82|116:40,1,154.000004699707,2|2,3:2|0:0,0:0:0:0:
188,100,63117,1,10,0:0:0:0:
260,44,63296,2,0,L|337:59,1,77.0000023498536,2|8,3:2|0:0,0:0:0:0:
388,136,63653,5,2,3:2:0:0:
388,136,63831,1,8,0:0:0:0:
472,100,64010,2,0,P|479:137|469:174,1,77.0000023498536,0|8,3:2|0:0,0:0:0:0:
404,236,64367,5,2,0:0:0:0:
404,236,64545,1,10,0:0:0:0:
444,317,64724,2,0,P|407:326|369:318,1,77.0000023498536,2|8,3:2|3:2,0:0:0:0:
296,260,65081,1,2,3:2:0:0:
296,260,65260,1,10,0:0:0:0:
228,324,65439,6,0,P|181:291|180:190,1,154.000004699707,2|2,3:2|0:0,0:0:0:0:
244,140,65974,2,0,P|251:102|242:65,1,77.0000023498536,10|2,0:0|3:2,0:0:0:0:
172,8,66331,1,10,0:0:0:0:
172,8,66510,1,0,3:2:0:0:
100,64,66689,2,0,P|92:101|101:138,1,77.0000023498536,10|2,0:0|3:2,0:0:0:0:
174,200,67046,6,0,B|236:189|236:189|266:201|266:201|331:190,1,154.000004699707,14|10,0:0|0:0,0:0:0:0:
400,244,67581,2,0,L|415:167,1,77.0000023498536,2|8,3:2|0:0,0:0:0:0:
480,104,67939,1,2,3:2:0:0:
480,104,68117,1,10,0:0:0:0:
508,192,68296,6,0,L|492:269,1,77.0000023498536,2|8,3:2|0:0,0:0:0:0:
428,332,68653,1,2,0:0:0:0:
364,268,68831,1,10,0:0:0:0:
300,336,69010,2,0,B|206:319|206:319|164:360,1,154.000004699707,2|2,0:0|3:2,0:0:0:0:
96,300,69546,1,10,0:0:0:0:
24,360,69724,5,2,3:2:0:0:
24,360,69814,1,0,3:0:0:0:
24,360,69903,2,0,B|10:293|10:293|11:272|11:272|0:208,1,154.000004699707,10|10,0:0|0:0,0:0:0:0:
64,144,70439,1,0,3:2:0:0:
136,200,70617,2,0,L|151:123,1,77.0000023498536,10|0,0:0|3:2,0:0:0:0:
168,32,70974,1,8,0:0:0:0:
240,92,71153,6,0,P|277:101|314:92,1,77.0000023498536,6|0,3:2|0:0,0:0:0:0:
380,28,71510,1,10,0:0:0:0:
448,92,71689,1,10,0:0:0:0:
448,92,71867,1,8,0:0:0:0:
380,156,72046,2,0,P|370:193|379:230,1,77.0000023498536,12|0,0:0|3:0,0:0:0:0:
440,300,72403,2,0,L|430:346,3,38.5000011749268,8|8|8|8,0:0|0:0|0:0|0:0,0:0:0:0:
424,372,72760,6,0,L|345:356,1,77.0000023498536,6|0,3:2|3:0,0:0:0:0:
288,288,73117,1,10,0:0:0:0:
288,288,73296,2,0,L|203:304,1,77.0000023498536,10|0,0:0|0:0,0:0:0:0:
152,372,73653,2,0,L|75:356,1,77.0000023498536,2|8,3:2|0:0,0:0:0:0:
12,292,74010,6,0,B|-5:194|-5:194|37:150,1,154.000004699707,2|0,3:2|3:2,0:0:0:0:
104,212,74546,1,10,0:0:0:0:
172,148,74724,2,0,P|208:139|246:148,1,77.0000023498536,10|0,0:0|0:0,0:0:0:0:
304,220,75081,5,2,3:2:0:0:
304,220,75260,1,10,0:0:0:0:
376,160,75439,2,0,L|359:75,1,77.0000023498536,2|4,0:0|3:2,0:0:0:0:
440,32,75796,5,2,3:2:0:0:
440,32,75974,1,10,0:0:0:0:
512,92,76153,2,0,L|495:176,1,77.0000023498536,10|2,0:0|0:0,0:0:0:0:
440,240,76510,1,2,3:2:0:0:
440,240,76689,1,10,0:0:0:0:
472,328,76867,6,0,B|381:346|407:290|316:309,1,154.000004699707,2|2,3:2|3:2,0:0:0:0:
256,372,77403,2,0,L|171:355,1,77.0000023498536,10|10,0:0|0:0,0:0:0:0:
92,332,77760,1,2,0:0:0:0:
92,332,77939,1,0,3:2:0:0:
144,256,78117,2,0,L|59:239,1,77.0000023498536,10|0,0:0|0:0,0:0:0:0:
44,152,78474,6,0,B|101:161|101:161|131:149|131:149|193:160,1,154.000004699707,6|10,3:2|0:0,0:0:0:0:
268,108,79010,2,0,P|260:70|269:33,1,77.0000023498536,10|0,0:0|0:0,0:0:0:0:
352,72,79367,1,2,3:2:0:0:
352,72,79546,1,10,0:0:0:0:
436,36,79724,6,0,P|443:73|434:110,1,77.0000023498536,2|0,3:2|0:0,0:0:0:0:
352,156,80081,1,2,3:2:0:0:
428,212,80260,1,8,0:0:0:0:
352,264,80439,2,0,P|348:337|424:372,1,154.000004699707,10|2,0:0|3:2,0:0:0:0:
504,372,80974,1,10,0:0:0:0:
456,292,81153,5,2,3:2:0:0:
456,292,81242,1,2,0:0:0:0:
456,292,81331,2,0,B|439:198|439:198|480:156,1,154.000004699707,2|10,3:2|0:0,0:0:0:0:
480,64,81867,1,8,0:0:0:0:
404,116,82046,2,0,P|367:125|330:119,1,77.0000023498536,2|0,3:2|3:2,0:0:0:0:
260,56,82403,1,10,0:0:0:0:
192,120,82581,6,0,L|209:205,1,77.0000023498536,6|0,3:2|0:0,0:0:0:0:
150,278,82939,1,10,0:0:0:0:
85,208,83117,1,10,0:0:0:0:
85,208,83296,1,8,0:0:0:0:
20,284,83474,2,0,L|37:369,1,77.0000023498536,0|2,3:0|3:2,0:0:0:0:
152,364,83831,6,0,B|243:346|217:402|308:383,1,154.000004699707,12|2,0:0|0:0,0:0:0:0:
0,0,86510,5,0,3:0:0:0:
72,70,86689,2,0,P|121:87|174:41,1,105,8|0,0:0|0:0,0:0:0:0:
174,51,87046,6,0,P|153:120|133:198,1,140,4|10,3:2|0:0,0:0:0:0:
85,270,87581,2,0,P|53:257|11:243,1,70,2|8,3:2|0:0,0:0:0:0:
111,351,87939,2,0,P|143:338|185:324,1,70,2|8,3:2|0:0,0:0:0:0:
252,258,88296,6,0,B|321:271|291:310|366:332,1,140,2|2,3:2|3:2,0:0:0:0:
452,379,88831,1,10,0:0:0:0:
505,296,89010,2,0,P|494:255|483:219,1,70,2|8,3:2|0:0,0:0:0:0:
411,174,89367,1,2,3:2:0:0:
411,174,89545,1,10,0:0:0:0:
487,113,89724,6,0,P|498:80|486:47,1,70,2|8,3:2|0:0,0:0:0:0:
401,9,90081,1,2,3:2:0:0:
401,9,90260,1,10,0:0:0:0:
321,65,90438,2,0,P|277:77|250:92,1,70,2|8,3:2|0:0,0:0:0:0:
185,27,90795,1,2,3:2:0:0:
185,27,90974,1,10,0:0:0:0:
105,84,91153,6,0,P|77:145|118:198,1,140,2|2,3:2|3:2,0:0:0:0:
200,250,91688,2,0,P|231:235|268:218,1,70,8|0,0:0|3:2,0:0:0:0:
347,279,92045,1,10,0:0:0:0:
347,279,92224,1,2,3:2:0:0:
289,357,92402,1,10,0:0:0:0:
198,354,92581,5,0,3:0:0:0:
198,354,92671,1,0,3:0:0:0:
198,354,92760,2,0,P|135:362|42:394,1,140,8|10,0:0|0:0,0:0:0:0:
6,297,93296,2,0,P|-4:264|8:232,1,70,2|8,3:2|0:0,0:0:0:0:
97,192,93653,2,0,P|124:199|167:213,1,70,2|8,3:2|0:0,0:0:0:0:
32,140,94010,6,0,P|17:58|-2:-1,1,140,2|2,3:2|3:2,0:0:0:0:
92,33,94545,1,10,0:2:0:0:
186,4,94724,2,0,P|227:-4|256:20,1,70,2|8,3:2|0:0,0:0:0:0:
319,78,95081,1,2,3:2:0:0:
319,78,95260,1,10,0:2:0:0:
240,135,95439,1,2,3:2:0:0:
303,208,95617,6,0,P|335:195|371:181,1,70,10|0,0:0|0:0,0:0:0:0:
268,280,95974,2,0,P|236:267|200:253,1,70,10|0,0:0|3:0,0:0:0:0:
308,351,96331,2,0,P|340:338|376:324,1,70,10|0,0:0|3:0,0:0:0:0:
462,365,96688,1,10,0:0:0:0:
511,280,96867,6,0,P|494:232|403:220,1,140,6|10,3:2|0:0,0:0:0:0:
324,173,97403,2,0,P|287:186|253:200,1,70,10|8,0:0|0:0,0:0:0:0:
181,256,97759,1,10,0:0:0:0:
181,256,97938,1,0,3:0:0:0:
102,197,98117,1,14,0:0:0:0:
6,372,98474,6,0,P|52:344|106:354,1,112,6|0,3:2|3:2,0:0:0:0:
184,382,99009,1,2,0:0:0:0:
184,382,99188,2,0,P|213:374|241:367,1,56,2|0,3:2|0:0,0:0:0:0:
316,378,99545,1,8,0:0:0:0:
418,259,99902,6,0,P|378:283|306:266,1,112,0|2,3:2|3:2,0:0:0:0:
281,203,100438,1,2,0:0:0:0:
281,203,100616,2,0,P|291:169|298:146,1,56,2|8,3:2|0:0,0:0:0:0:
333,79,100974,1,0,3:2:0:0:
404,131,101153,1,0,3:0:0:0:
404,131,101242,1,0,3:0:0:0:
404,131,101331,6,0,P|393:179|378:253,1,112,0|2,3:0|3:2,0:0:0:0:
445,292,101866,1,2,0:0:0:0:
445,292,102045,2,0,P|392:282|349:315,1,112,2|2,3:2|3:2,0:0:0:0:
297,375,102581,1,10,0:0:0:0:
297,375,102759,2,0,P|232:362|187:354,2,112,2|2|2,3:2|3:2|3:2,0:0:0:0:
306,218,103831,1,0,3:2:0:0:
233,256,104009,5,8,0:0:0:0:
233,256,104188,2,0,P|180:244|134:273,1,112,4|2,3:2|3:2,0:0:0:0:
71,222,104724,1,2,0:0:0:0:
71,222,104903,2,0,P|78:189|82:168,1,56,2|2,3:2|0:0,0:0:0:0:
156,140,105260,1,2,3:2:0:0:
99,10,105616,6,0,P|53:-2|-3:32,1,112,2|2,3:2|3:2,0:0:0:0:
52,93,106152,1,10,0:0:0:0:
52,93,106331,2,0,P|84:101|111:109,1,56,2|8,3:2|3:0,0:0:0:0:
172,65,106688,1,0,3:0:0:0:
278,179,107045,6,0,P|286:232|251:274,1,112,0|2,3:2|3:2,0:0:0:0:
230,352,107581,1,2,0:0:0:0:
230,352,107760,2,0,P|262:358|298:370,1,56,2|10,3:2|0:0,0:0:0:0:
361,379,108117,2,0,P|393:364|424:355,1,56,2|10,3:2|0:0,0:0:0:0:
421,279,108474,6,0,P|446:327|498:343,2,112,6|6|2,3:2|3:2|3:2,0:0:0:0:
380,205,109366,1,10,0:0:0:0:
380,205,109545,2,0,P|426:188|510:160,1,112,8|4,0:0|3:2,0:0:0:0:
509,93,110081,1,2,0:0:0:0:
509,93,110260,2,0,P|499:66|489:40,1,56,10|2,0:0|0:0,0:0:0:0:
416,11,110617,1,2,3:2:0:0:
416,11,110796,1,2,0:0:0:0:
359,74,110974,6,0,P|302:91|243:117,1,112,8|0,0:0|3:2,0:0:0:0:
182,64,111510,2,0,P|157:42|84:63,1,112,2|2,0:0|0:0,0:0:0:0:
31,124,112046,1,2,3:2:0:0:
31,124,112224,1,2,0:0:0:0:
90,185,112403,2,0,P|144:200|199:220,1,112,10|0,0:0|3:2,0:0:0:0:
330,324,113117,6,0,P|276:323|227:368,1,112,10|2,0:0|3:2,0:0:0:0:
150,381,113653,2,0,P|116:370|87:364,1,56,2|10,0:0|3:2,0:0:0:0:
11,373,114010,1,2,0:0:0:0:
11,373,114099,1,2,0:0:0:0:
11,373,114189,2,0,P|29:312|43:249,2,112,2|10|2,3:2|0:0|3:2,0:0:0:0:
143,265,115260,2,0,P|156:228|165:202,1,56,10|0,3:2|0:0,0:0:0:0:
143,128,115617,6,0,P|101:147|31:117,1,112,0|10,3:2|0:0,0:0:0:0:
15,46,116153,1,2,0:0:0:0:
15,46,116331,2,0,P|48:37|90:26,1,56,2|2,3:2|0:0,0:0:0:0:
150,5,116689,2,0,P|177:12|204:19,1,56,10|2,0:0|0:0,0:0:0:0:
273,69,117046,5,0,3:2:0:0:
273,69,117224,1,2,0:0:0:0:
222,137,117403,2,0,P|183:122|160:113,1,56,10|2,0:0|0:0,0:0:0:0:
153,202,117760,2,0,P|191:216|216:227,1,56,2|0,3:2|0:0,0:0:0:0:
251,293,118117,6,0,P|307:268|367:287,1,112,10|0,0:0|3:2,0:0:0:0:
503,360,118831,2,0,P|444:364|389:377,1,112,10|2,0:0|3:2,0:0:0:0:
320,329,119367,1,2,0:0:0:0:
320,329,119546,1,14,0:0:0:0:
382,271,119724,5,8,0:0:0:0:
382,271,119814,1,8,0:0:0:0:
382,271,119903,2,0,P|408:262|444:253,1,56,6|0,3:2|0:0,0:0:0:0:
491,184,120260,2,0,P|465:175|429:166,1,56,14|0,3:2|0:0,0:0:0:0:
372,112,120617,6,0,P|384:87|378:52,2,37.3333333333333,2|8|8,3:2|0:0|0:0,0:0:0:0:
316,168,120974,6,0,P|319:186|328:202,2,37.3333333333333,8|8|8,0:0|3:0|3:0,0:0:0:0:
295,92,121331,5,4,3:2:0:0:
33,380,122046,6,0,P|19:325|0:273,1,112,2|8,3:2|0:0,0:0:0:0:
10,64,122760,6,0,P|51:31|112:43,2,112,2|2|2,3:2|0:0|3:2,0:0:0:0:
4,150,123653,2,0,P|16:174|25:201,1,56,8|8,0:0|3:0,0:0:0:0:
82,265,124010,1,8,3:0:0:0:
132,195,124189,6,0,P|200:170|245:191,1,112,6|2,3:2|0:0,0:0:0:0:
378,273,124903,2,0,P|360:315|337:380,2,112,2|10|2,3:2|3:2|3:2,0:0:0:0:
343,195,125796,1,0,3:2:0:0:
279,251,125974,2,0,P|251:257|220:274,1,56,10|10,0:0|0:0,0:0:0:0:
218,276,126242,1,8,0:0:0:0:
212,283,126331,1,10,0:0:0:0:
143,231,126510,1,0,3:2:0:0:
193,162,126689,1,12,0:0:0:0:
352,22,127046,6,0,P|343:49|332:104,1,70,14|10,0:0|0:0,0:0:0:0:
334,101,127314,1,8,0:0:0:0:
335,112,127403,1,2,3:2:0:0:
404,180,127581,2,0,P|418:167|439:154,2,35,10|8|0,0:0|0:0|3:0,0:0:0:0:
336,251,127939,1,10,0:0:0:0:
336,251,128028,1,8,0:0:0:0:
336,251,128117,2,0,L|289:242,3,35,2|8|10|8,3:2|0:0|0:0|0:0,0:0:0:0:
291,253,128474,6,0,P|257:274|221:268,1,70,14|8,0:0|0:0,0:0:0:0:
153,207,128832,1,2,3:2:0:0:
86,278,129010,2,0,P|76:256|70:244,2,35,8|8|2,0:0|0:0|3:2,0:0:0:0:
150,358,129367,1,8,0:0:0:0:
150,358,129456,1,8,0:0:0:0:
150,358,129546,2,0,P|116:366|103:372,3,35,0|8|8|8,3:0|0:0|0:0|0:0,0:0:0:0:
89,375,129903,6,0,P|56:351|15:352,1,70,14|10,0:0|0:0,0:0:0:0:
83,267,130260,1,2,3:2:0:0:
17,209,130439,1,10,0:0:0:0:
17,209,130528,1,8,0:0:0:0:
17,209,130617,2,0,P|9:166|2:131,1,70,2|10,3:2|0:0,0:0:0:0:
22,43,130975,2,0,L|68:34,3,35,2|8|10|8,3:2|0:0|0:2|0:0,0:0:0:0:
91,24,131331,6,0,P|136:11|171:26,1,70,10|10,0:0|0:0,0:0:0:0:
232,80,131689,1,2,3:2:0:0:
166,151,131867,1,10,0:0:0:0:
166,151,131957,1,8,0:0:0:0:
166,151,132046,2,0,P|141:177|133:210,1,70,2|10,3:2|0:0,0:0:0:0:
203,278,132403,2,0,L|250:269,3,35,2|8|8|8,3:2|0:0|0:0|0:0,0:0:0:0:
259,259,132760,6,0,P|291:262|329:273,1,70,14|0,0:0|0:0,0:0:0:0:
390,197,133117,2,0,L|376:127,1,70,2|2,3:2|3:2,0:0:0:0:
311,60,133475,1,10,0:0:0:0:
311,60,133653,1,0,3:0:0:0:
389,1,133832,1,8,3:0:0:0:
477,41,134010,6,0,L|463:109,1,70,14|0,0:0|0:0,0:0:0:0:
508,185,134367,1,8,0:0:0:0:
443,258,134546,1,8,0:0:0:0:
343,198,134725,1,8,0:0:0:0:
235,363,135082,5,2,3:2:0:0:
235,363,135171,1,0,3:0:0:0:
235,363,135260,2,0,P|275:325|333:337,1,105,8|0,0:0|0:0,0:0:0:0:
333,338,135617,6,0,P|311:244|294:182,1,154.000004699707,14|10,0:0|0:0,0:0:0:0:
354,97,136153,2,0,P|316:104|279:95,1,77.0000023498536,2|8,0:0|0:0,0:0:0:0:
201,29,136510,1,2,3:2:0:0:
201,29,136689,1,8,0:0:0:0:
119,99,136867,6,0,P|135:161|153:249,1,154.000004699707,2|2,3:2|0:0,0:0:0:0:
204,344,137403,1,10,0:0:0:0:
260,251,137582,2,0,P|294:244|337:266,1,77.0000023498536,2|8,3:2|0:0,0:0:0:0:
425,324,137939,1,2,3:2:0:0:
425,324,138117,1,8,0:0:0:0:
331,377,138296,6,0,P|297:363|245:354,1,77.0000023498536,0|8,3:2|0:0,0:0:0:0:
182,285,138653,1,2,0:0:0:0:
182,285,138831,1,10,0:0:0:0:
262,212,139010,2,0,P|295:225|348:235,1,77.0000023498536,2|8,3:2|3:2,0:0:0:0:
420,167,139367,1,2,3:2:0:0:
420,167,139546,1,10,0:0:0:0:
412,59,139725,6,0,P|337:57|288:113,1,154.000004699707,2|2,3:2|0:0,0:0:0:0:
228,202,140260,2,0,P|191:190|154:180,1,77.0000023498536,10|2,0:0|3:2,0:0:0:0:
61,233,140617,1,10,0:0:0:0:
61,233,140796,1,0,3:2:0:0:
0,145,140974,2,0,P|38:132|83:117,1,77.0000023498536,10|2,0:0|3:2,0:0:0:0:
79,12,141331,6,0,P|161:24|182:101,1,154.000004699707,14|10,0:0|0:0,0:0:0:0:
262,158,141867,2,0,P|299:170|337:186,1,77.0000023498536,2|8,3:2|0:0,0:0:0:0:
207,231,142225,1,2,3:2:0:0:
207,231,142403,1,10,0:0:0:0:
132,309,142582,6,0,P|140:339|148:386,1,77.0000023498536,2|8,3:2|0:0,0:0:0:0:
53,262,142939,1,2,0:0:0:0:
137,195,143117,1,10,0:0:0:0:
227,254,143296,6,0,B|306:263|274:313|379:333,1,154.000004699707,2|2,0:0|3:2,0:0:0:0:
444,261,143832,1,10,0:0:0:0:
400,173,144010,5,2,3:2:0:0:
400,173,144100,1,0,3:0:0:0:
400,173,144189,2,0,P|319:148|234:125,1,154.000004699707,10|10,0:0|0:0,0:0:0:0:
225,25,144725,1,0,3:2:0:0:
225,25,144814,1,8,0:0:0:0:
225,25,144903,2,0,P|262:17|302:10,1,77.0000023498536,10|0,0:0|3:2,0:0:0:0:
408,6,145260,1,8,0:0:0:0:
482,83,145439,6,0,P|471:113|457:163,1,77.0000023498536,6|0,3:2|0:0,0:0:0:0:
511,250,145796,1,10,0:0:0:0:
454,343,145975,1,10,0:0:0:0:
454,343,146153,1,8,0:0:0:0:
375,268,146331,2,0,P|334:257|289:244,1,77.0000023498536,12|0,0:0|3:0,0:0:0:0:
195,276,146689,2,0,L|203:238,3,38.5000011749268,8|8|8|8,0:0|0:0|0:0|0:0,0:0:0:0:
196,199,147046,6,0,L|117:183,1,77.0000023498536,6|0,3:2|3:0,0:0:0:0:
74,91,147403,1,10,0:0:0:0:
74,91,147582,2,0,P|111:84|150:77,1,77.0000023498536,10|0,0:0|0:0,0:0:0:0:
240,18,147939,2,0,P|278:18|312:36,1,77.0000023498536,2|8,3:2|0:0,0:0:0:0:
385,117,148296,6,0,P|360:190|347:266,1,154.000004699707,2|0,3:2|3:2,0:0:0:0:
264,333,148832,1,10,0:0:0:0:
361,378,149010,2,0,P|396:368|437:357,1,77.0000023498536,10|0,0:0|0:0,0:0:0:0:
512,282,149367,1,2,3:2:0:0:
512,282,149546,1,10,0:0:0:0:
419,227,149724,2,0,P|381:236|344:247,1,77.0000023498536,2|4,0:0|3:2,0:0:0:0:
248,293,150082,5,2,3:2:0:0:
248,293,150260,1,10,0:0:0:0:
172,216,150439,2,0,P|181:175|187:140,1,77.0000023498536,10|2,0:0|0:0,0:0:0:0:
257,58,150796,1,2,3:2:0:0:
257,58,150975,1,10,0:0:0:0:
161,8,151153,6,0,P|88:-1|44:57,1,154.000004699707,2|2,3:2|3:2,0:0:0:0:
86,156,151689,2,0,P|76:190|61:241,1,77.0000023498536,10|10,0:0|0:0,0:0:0:0:
6,322,152046,1,2,0:0:0:0:
6,322,152225,1,0,3:2:0:0:
104,364,152403,2,0,P|136:349|189:347,1,77.0000023498536,10|0,0:0|0:0,0:0:0:0:
281,373,152760,6,0,B|329:322|329:322|284:250,1,154.000004699707,6|10,3:2|0:0,0:0:0:0:
200,183,153296,2,0,P|185:147|197:111,1,77.0000023498536,10|0,0:0|0:0,0:0:0:0:
271,33,153653,1,2,3:2:0:0:
271,33,153832,1,10,0:0:0:0:
368,79,154010,6,0,P|406:63|447:51,1,77.0000023498536,2|0,3:2|0:0,0:0:0:0:
510,134,154367,1,2,3:2:0:0:
510,134,154546,1,8,0:0:0:0:
441,216,154724,2,0,B|364:211|375:258|295:257,1,154.000004699707,10|2,0:0|3:2,0:0:0:0:
188,267,155260,1,10,0:0:0:0:
103,218,155439,5,2,3:2:0:0:
103,218,155528,1,0,3:0:0:0:
103,218,155617,2,0,P|151:229|211:141,1,154.000004699707,2|10,3:2|0:0,0:0:0:0:
136,80,156153,1,8,0:0:0:0:
217,9,156331,2,0,P|251:17|290:34,1,77.0000023498536,2|0,3:2|3:2,0:0:0:0:
379,94,156689,1,10,0:0:0:0:
308,175,156867,6,0,P|316:210|325:260,1,77.0000023498536,6|0,3:2|0:0,0:0:0:0:
231,308,157225,1,10,0:0:0:0:
313,382,157403,1,10,0:0:0:0:
313,382,157582,1,8,0:0:0:0:
414,345,157760,2,0,P|418:306|430:270,1,77.0000023498536,0|2,3:0|3:2,0:0:0:0:
450,174,158117,1,12,0:0:0:0:
450,174,158474,6,0,P|414:184|377:195,1,70,6|2,3:2|0:0,0:0:0:0:
499,99,158831,1,10,0:0:0:0:
499,99,159010,2,0,L|514:22,1,70,2|8,3:2|0:0,0:0:0:0:
421,9,159367,1,2,3:2:0:0:
421,9,159546,1,10,0:0:0:0:
356,82,159724,6,0,P|322:89|288:81,1,70,2|8,3:2|0:0,0:0:0:0:
232,162,160081,2,0,P|208:136|198:103,1,70,2|8,0:0|0:0,0:0:0:0:
140,20,160439,2,0,P|64:12|16:72,1,140,2|2,0:0|3:2,0:0:0:0:
20,144,160974,1,10,0:0:0:0:
111,140,161153,6,0,B|166:130|166:130|193:140|193:140|252:131,1,140,2|2,3:2|0:0,0:0:0:0:
316,192,161689,2,0,L|393:176,1,70,10|2,0:0|0:0,0:0:0:0:
444,248,162046,2,0,L|521:232,2,70,10|2|10,0:0|3:2|0:0,0:0:0:0:
388,320,162581,6,0,B|306:303|329:354|247:336,1,140,2|2,3:2|3:2,0:0:0:0:
176,288,163117,1,10,0:0:0:0:
176,288,163296,1,2,3:2:0:0:
100,340,163474,2,0,P|76:314|66:281,1,70,14|10,0:0|0:0,0:0:0:0:
0,216,163831,1,8,0:0:0:0:
0,216,163921,1,8,0:0:0:0:
0,216,164010,2,0,L|7:177,1,35,8|8,0:0|0:0,0:0:0:0:
12,140,164189,6,0,L|89:155,1,70,2|2,3:2|0:0,0:0:0:0:
168,172,164546,1,10,0:0:0:0:
152,84,164724,2,0,L|229:99,1,70,2|8,0:0|0:0,0:0:0:0:
288,160,165081,1,2,3:2:0:0:
288,160,165260,1,10,0:0:0:0:
360,104,165439,6,0,P|352:70|360:36,1,70,2|8,3:2|0:0,0:0:0:0:
448,4,165796,2,0,P|481:14|506:38,1,70,2|8,0:0|0:0,0:0:0:0:
490,130,166153,2,0,P|464:153|431:163,1,70,2|8,0:0|0:0,0:0:0:0:
364,228,166510,1,2,3:2:0:0:
364,228,166689,1,10,0:0:0:0:
428,292,166867,1,2,3:2:0:0:
364,360,167046,6,0,B|274:343|274:343|234:382,1,140,8|10,0:0|0:0,0:0:0:0:
192,300,167581,1,10,0:0:0:0:
192,300,167671,1,8,0:0:0:0:
192,300,167760,2,0,L|176:223,1,70,10|2,0:0|3:2,0:0:0:0:
160,140,168117,1,10,0:0:0:0:
248,168,168296,6,0,P|281:175|315:166,1,70,6|0,3:2|0:0,0:0:0:0:
380,104,168653,1,8,0:0:0:0:
440,172,168831,1,8,0:0:0:0:
440,172,169010,1,8,0:0:0:0:
500,104,169189,1,8,0:0:0:0:
440,36,169367,1,0,3:0:0:0:
440,36,169456,1,0,3:0:0:0:
440,36,169546,2,0,B|392:25|392:25|377:30|377:30|335:21,1,105,12|0,0:0|0:0,0:0:0:0:
308,12,169903,5,2,0:0:0:0:
0,84,182225,5,2,0:0:0:0:
0,84,182403,2,0,P|51:63|101:95,1,105,2|0,0:0|0:0,0:0:0:0:
105,93,182760,6,0,P|84:168|63:253,1,154.000004699707,14|10,0:0|0:0,0:0:0:0:
8,333,183296,2,0,P|40:354|78:352,1,77.0000023498536,2|8,0:0|0:0,0:0:0:0:
165,292,183653,1,2,3:2:0:0:
165,292,183832,1,8,0:0:0:0:
250,356,184010,6,0,P|318:365|420:386,1,154.000004699707,2|2,3:2|0:0,0:0:0:0:
502,343,184546,1,10,0:0:0:0:
441,253,184724,2,0,P|384:249|360:273,1,77.0000023498536,2|8,3:2|0:0,0:0:0:0:
284,200,185081,1,2,3:2:0:0:
284,200,185260,1,8,0:0:0:0:
348,113,185439,2,0,L|370:33,1,77.0000023498536,0|8,3:2|0:0,0:0:0:0:
269,9,185796,5,2,0:0:0:0:
269,9,185974,1,10,0:0:0:0:
188,81,186153,2,0,P|151:90|116:108,1,77.0000023498536,2|8,3:2|3:2,0:0:0:0:
35,157,186510,1,2,3:2:0:0:
35,157,186689,1,10,0:0:0:0:
94,246,186867,6,0,P|158:261|249:289,1,154.000004699707,2|2,3:2|0:0,0:0:0:0:
312,368,187403,2,0,P|340:338|348:298,1,77.0000023498536,10|2,0:0|3:2,0:0:0:0:
318,204,187760,1,10,0:0:0:0:
318,204,187939,1,0,3:2:0:0:
404,140,188117,2,0,P|440:152|487:169,1,77.0000023498536,10|2,0:0|3:2,0:0:0:0:
362,43,188474,6,0,P|279:35|235:83,1,154.000004699707,14|10,0:0|0:0,0:0:0:0:
184,178,189010,2,0,P|197:210|212:256,1,77.0000023498536,2|8,3:2|0:0,0:0:0:0:
253,355,189368,1,2,3:2:0:0:
253,355,189546,1,10,0:0:0:0:
147,372,189724,6,0,P|101:358|64:353,1,77.0000023498536,2|8,3:2|0:0,0:0:0:0:
7,266,190082,1,2,0:0:0:0:
98,209,190260,1,10,0:0:0:0:
19,134,190439,2,0,P|39:53|54:-16,1,154.000004699707,2|2,0:0|3:2,0:0:0:0:
125,64,190975,1,10,0:0:0:0:
220,14,191153,1,2,3:2:0:0:
304,81,191332,6,0,B|385:79|358:138|438:146,1,154.000004699707,10|10,0:0|0:0,0:0:0:0:
497,235,191868,1,0,3:2:0:0:
497,235,191956,1,8,0:0:0:0:
497,235,192046,2,0,P|454:245|408:264,1,77.0000023498536,10|0,0:0|3:2,0:0:0:0:
328,205,192403,1,8,0:0:0:0:
238,264,192582,6,0,P|201:273|164:264,1,77.0000023498536,6|0,3:2|0:0,0:0:0:0:
78,198,192939,1,10,0:0:0:0:
12,284,193118,1,10,0:0:0:0:
12,284,193296,1,8,0:0:0:0:
79,367,193474,2,0,P|120:351|170:335,1,77.0000023498536,12|0,0:0|3:0,0:0:0:0:
259,345,193832,2,0,L|249:391,3,38.5000011749268,8|8|8|8,0:0|0:0|0:0|0:0,0:0:0:0:
297,331,194189,6,0,P|339:332|376:315,1,77.0000023498536,6|0,3:2|3:0,0:0:0:0:
459,256,194546,1,10,0:0:0:0:
407,161,194725,2,0,P|366:170|322:188,1,77.0000023498536,10|0,0:0|0:0,0:0:0:0:
223,177,195082,2,0,P|217:137|238:101,1,77.0000023498536,2|8,3:2|0:0,0:0:0:0:
278,236,195439,6,0,P|258:301|238:385,1,154.000004699707,2|0,3:2|3:2,0:0:0:0:
165,304,195975,1,10,0:0:0:0:
67,349,196153,2,0,P|58:313|67:275,1,77.0000023498536,10|0,0:0|0:0,0:0:0:0:
151,206,196510,5,2,3:2:0:0:
151,206,196689,1,10,0:0:0:0:
74,129,196868,2,0,P|36:142|-10:157,1,77.0000023498536,2|4,0:0|3:2,0:0:0:0:
122,43,197225,1,2,3:2:0:0:
122,43,197403,1,10,0:0:0:0:
188,116,197582,2,0,P|224:129|262:125,1,77.0000023498536,10|2,0:0|0:0,0:0:0:0:
343,61,197939,1,2,3:2:0:0:
343,61,198118,1,10,0:0:0:0:
236,47,198296,6,0,P|252:114|274:203,1,154.000004699707,2|2,3:2|3:2,0:0:0:0:
235,297,198831,1,10,0:0:0:0:
235,297,199010,1,10,0:0:0:0:
312,372,199189,2,0,P|348:357|396:345,1,77.0000023498536,2|0,0:0|3:2,0:0:0:0:
497,307,199546,2,0,P|503:344|487:379,1,77.0000023498536,14|0,0:0|0:0,0:0:0:0:
411,254,199903,6,0,P|395:174|377:85,1,154.000004699707,6|10,3:2|0:0,0:0:0:0:
309,21,200439,2,0,P|271:12|234:20,1,77.0000023498536,10|0,0:0|0:0,0:0:0:0:
147,83,200796,1,2,3:2:0:0:
147,83,200975,1,10,0:0:0:0:
237,141,201153,6,0,P|228:176|217:226,1,77.0000023498536,2|0,3:2|0:0,0:0:0:0:
280,304,201510,1,2,3:2:0:0:
199,375,201689,1,8,0:0:0:0:
130,292,201867,2,0,B|41:248|41:248|0:283,1,154.000004699707,10|2,0:0|3:2,0:0:0:0:
67,367,202403,1,10,0:0:0:0:
181,384,202581,5,2,3:2:0:0:
181,384,202671,1,0,3:0:0:0:
180,384,202760,2,0,P|254:360|329:343,1,154.000004699707,2|10,3:2|0:0,0:0:0:0:
396,258,203296,1,8,0:0:0:0:
502,276,203475,2,0,P|511:313|495:351,1,77.0000023498536,2|0,3:2|3:2,0:0:0:0:
404,384,203832,1,10,0:0:0:0:
331,304,204010,6,0,P|323:263|315:228,1,77.0000023498536,6|0,3:2|0:0,0:0:0:0:
215,188,204367,1,10,0:0:0:0:
151,278,204546,1,10,0:0:0:0:
45,242,204725,1,8,0:0:0:0:
45,242,204814,1,8,0:0:0:0:
45,242,204903,1,0,3:0:0:0:
45,132,205082,1,2,3:2:0:0:
151,105,205260,1,12,0:0:0:0:
269,285,205617,5,6,3:2:0:0:
0,380,206153,5,8,0:0:0:0:
63,271,206331,1,8,0:0:0:0:
366,382,206867,6,0,P|294:347|212:319,1,154.000004699707,14|10,0:0|0:0,0:0:0:0:
132,376,207403,1,10,0:0:0:0:
132,376,207581,1,8,0:0:0:0:
45,311,207760,1,10,0:0:0:0:
133,246,207939,5,0,3:0:0:0:
133,246,208028,1,0,3:0:0:0:
133,246,208117,2,0,B|222:232|191:290|287:268,1,154.000004699707,12|2,0:0|0:0,0:0:0:0:
436,104,210796,5,0,3:0:0:0:
436,104,210885,1,0,3:0:0:0:
436,104,210974,2,0,P|456:72|416:96,1,105,8|0,0:0|0:0,0:0:0:0:
392,120,211331,6,0,B|336:110|336:110|310:121|310:121|255:112,1,140,4|10,3:2|0:0,0:0:0:0:
208,36,211867,2,0,L|139:21,1,70,2|8,3:2|0:0,0:0:0:0:
72,84,212224,2,0,L|3:98,1,70,2|8,3:2|0:0,0:0:0:0:
3,189,212581,6,0,B|91:169|91:169|132:207,1,140,2|2,3:2|3:2,0:0:0:0:
203,257,213117,1,10,0:0:0:0:
279,209,213296,2,0,L|293:277,1,70,2|8,3:2|0:0,0:0:0:0:
360,336,213653,5,2,3:2:0:0:
360,336,213831,1,10,0:0:0:0:
428,276,214010,2,0,P|435:243|426:209,1,70,2|8,3:2|0:0,0:0:0:0:
360,148,214367,5,2,3:2:0:0:
360,148,214545,1,10,0:0:0:0:
424,84,214724,2,0,P|397:60|363:51,1,70,2|8,3:2|0:0,0:0:0:0:
288,4,215081,2,0,P|255:15|230:40,1,70,2|10,3:2|0:0,0:0:0:0:
268,124,215439,6,0,B|187:112|215:164|128:144,1,140,2|2,3:2|3:2,0:0:0:0:
0,124,215974,2,0,P|-8:157|0:192,1,70,8|0,0:0|3:2,0:0:0:0:
76,244,216331,1,10,0:0:0:0:
8,308,216510,1,2,3:2:0:0:
8,308,216600,1,2,3:2:0:0:
8,308,216689,2,0,L|15:347,3,35,10|0|0|0,0:0|3:0|3:0|3:0,0:0:0:0:
20,372,217046,6,0,P|85:332|144:361,1,140,8|10,0:0|0:0,0:0:0:0:
208,296,217581,2,0,P|241:288|275:296,1,70,2|8,3:2|0:0,0:0:0:0:
352,348,217939,2,0,L|366:280,1,70,2|8,3:2|0:0,0:0:0:0:
444,236,218296,6,0,B|454:180|454:180|443:154|443:154|452:99,1,140,2|2,3:2|3:2,0:0:0:0:
404,24,218831,1,10,0:2:0:0:
328,76,219010,2,0,L|313:145,1,70,2|8,3:2|0:0,0:0:0:0:
256,212,219367,1,2,3:2:0:0:
256,212,219546,1,10,0:2:0:0:
192,148,219724,1,2,3:2:0:0:
124,208,219903,6,0,B|90:171|90:171|110:82,1,140,10|10,0:0|0:0,0:0:0:0:
172,20,220439,1,0,3:0:0:0:
172,20,220528,1,8,0:0:0:0:
172,20,220617,2,0,P|205:12|239:21,1,70,10|0,0:0|3:0,0:0:0:0:
308,80,220974,1,10,0:0:0:0:
384,28,221153,6,0,L|453:43,1,70,6|0,3:2|0:0,0:0:0:0:
500,120,221510,1,8,0:0:0:0:
500,120,221689,1,10,0:0:0:0:
436,184,221867,1,8,0:0:0:0:
500,248,222046,1,10,0:0:0:0:
420,312,222224,5,0,3:0:0:0:
420,312,222314,1,0,3:0:0:0:
420,312,222403,2,0,B|340:290|359:342|284:320,1,140,12|0,0:0|0:0,0:0:0:0:
