osu file format v14

[General]
AudioFilename: audio.mp3
AudioLeadIn: 0
PreviewTime: 233
Countdown: 0
SampleSet: Soft
StackLeniency: 0.4
Mode: 0
LetterboxInBreaks: 0
WidescreenStoryboard: 0

[Editor]
Bookmarks: 363,12750,25137,40233
DistanceSpacing: 1.1
BeatDivisor: 3
GridSize: 32
TimelineZoom: 1

[Metadata]
Title:Yooshi, Ganbaru zoo!
TitleUnicode:よーし、がんばるぞー!
Artist:HoneyWorks
ArtistUnicode:HoneyWorks
Creator:Serizawa Haruki
Version:Asa's Zeal
Source:ずっと前から好きでした。~告白実行委員会~
Tags:ハニーワークス ハニワ Zutto Mae kara Suki Deshita. ~Kokuhaku Jikkou Iinkai~ オリジナルサウンドトラック Original Soundtrack OST 告白実行委員会〜恋愛シリーズ〜 Kokuhaku Jikkou Iinkai ~Renai Series~ アニメ anime movie 東京サマーセッション Tokyo Summer Session ゴム Gom フェルナンドP Fernando-P オジ Oji 海賊王 Kaizoku Ou Instrumental Jack J_a_c_k Kyle Y Kyle_Y walaowey Matsubara Kanon William K William_K Kazato Asa Shizuku-
BeatmapID:2574639
BeatmapSetID:1077900

[Difficulty]
HPDrainRate:6
CircleSize:4
OverallDifficulty:7.5
ApproachRate:8.5
SliderMultiplier:2.24
SliderTickRate:1

[Events]
//Background and Video events
0,0,"bg.jpg",0,0
//Break Periods
//Storyboard Layer 0 (Background)
//Storyboard Layer 1 (Fail)
//Storyboard Layer 2 (Pass)
//Storyboard Layer 3 (Foreground)
//Storyboard Layer 4 (Overlay)
//Storyboard Sound Samples

[TimingPoints]
363,387.096774193548,4,2,1,50,1,0
1137,-250,4,2,1,50,0,0
1911,-100,4,2,1,50,0,0
2685,-250,4,2,1,50,0,0
3459,-100,4,2,1,50,0,0
4233,-250,4,2,1,50,0,0
5008,-100,4,2,1,50,0,0
5782,-250,4,2,1,50,0,0
6169,-250,4,2,2,50,0,0
6556,-100,4,2,1,50,0,0
7330,-250,4,2,1,50,0,0
8104,-100,4,2,1,50,0,0
8878,-250,4,2,1,50,0,0
9653,-100,4,2,1,50,0,0
10427,-250,4,2,1,50,0,0
11201,-100,4,2,1,50,0,0
12750,-100,4,2,1,60,0,0
16492,-100,4,2,2,60,0,0
16879,-100,4,2,1,60,0,0
18169,-100,4,2,2,60,0,0
18556,-100,4,2,1,60,0,0
25524,-100,4,2,2,60,0,0
25782,-100,4,2,1,60,0,0
25911,-125,4,2,1,60,0,0
26685,-100,4,2,1,60,0,0
27072,-100,4,2,2,60,0,0
27330,-100,4,2,1,60,0,0
27459,-125,4,2,1,60,0,0
28233,-100,4,2,1,60,0,0
28621,-100,4,2,2,60,0,0
28879,-100,4,2,1,60,0,0
30169,-100,4,2,2,60,0,0
30556,-125,4,2,1,60,0,0
31330,-100,4,2,1,60,0,0
31717,-100,4,2,2,60,0,0
31975,-100,4,2,1,60,0,0
32104,-125,4,2,1,60,0,0
32879,-100,4,2,1,60,0,0
33266,-100,4,2,2,60,0,0
33524,-100,4,2,1,60,0,0
34040,-125,4,2,1,60,0,0
34427,-100,4,2,1,60,0,0
34814,-83.3333333333333,4,2,1,60,0,0
35459,-100,4,2,1,60,0,0
40233,-100,4,2,1,5,0,0

[Colours]
Combo1 : 1,74,148
Combo2 : 172,213,253

[HitObjects]
82,301,363,6,0,B|161:288|143:343|224:329,1,149.333333333333,0|0,3:0|2:0,0:0:0:0:
258,317,750,1,0,3:0:0:0:
203,182,1008,1,0,2:0:0:0:
210,190,1137,2,0,L|199:248,1,59.7333333333333,8|0,2:2|2:0,0:0:0:0:
415,377,1782,5,0,2:0:0:0:
418,383,1911,2,0,P|454:319|435:249,1,149.333333333333,0|0,3:0|2:0,0:0:0:0:
448,224,2298,1,0,3:0:0:0:
484,57,2556,1,0,2:0:0:0:
480,64,2685,2,0,L|392:82,1,89.6000000000001,8|0,2:2|2:0,0:0:0:0:
256,0,3459,6,0,P|202:47|207:119,1,149.333333333333,0|0,3:0|2:0,0:0:0:0:
242,142,3846,1,0,3:0:0:0:
203,312,4104,1,0,2:0:0:0:
192,320,4233,2,0,L|133:309,1,59.7333333333333,8|0,2:2|2:0,0:0:0:0:
65,100,4879,5,0,2:0:0:0:
65,100,5008,2,0,B|155:82|114:139|207:119,1,149.333333333333,0|0,3:0|2:0,0:0:0:0:
255,192,5395,2,0,P|307:141|378:150,1,149.333333333333,0|0,3:0|2:0,0:0:0:0:
448,96,5782,1,8,2:2:0:0:
512,256,6040,1,0,2:0:0:0:
512,256,6169,2,0,L|453:268,1,59.7333333333334,8|0,2:2|2:0,0:0:0:0:
416,352,6556,6,0,P|361:304|288:311,1,149.333333333333,0|0,3:0|2:0,0:0:0:0:
269,328,6943,1,0,3:0:0:0:
187,206,7201,1,0,2:0:0:0:
187,206,7330,2,0,L|200:148,1,59.7333333333333,8|0,2:2|2:0,0:0:0:0:
11,327,7975,5,0,2:0:0:0:
17,341,8104,2,0,P|81:305|153:317,1,149.333333333333,0|0,3:0|2:0,0:0:0:0:
212,380,8492,1,0,3:0:0:0:
329,228,8750,1,0,2:0:0:0:
329,228,8879,2,0,L|314:139,1,89.6000000000001,8|0,2:2|2:0,0:0:0:0:
96,0,9653,6,0,B|131:35|131:35|105:131,1,149.333333333333,0|0,3:0|2:0,0:0:0:0:
104,131,10040,1,0,3:0:0:0:
256,246,10298,2,0,L|331:227,1,74.6666666666667,0|8,2:0|2:2,0:0:0:0:
512,64,10685,6,0,P|468:68|429:46,1,89.6,0|0,2:0|2:0,0:0:0:0:
365,8,11201,6,0,B|285:20|325:69|244:86,1,149.333333333333,0|0,3:0|2:0,0:0:0:0:
192,160,11588,2,0,P|135:114|64:129,1,149.333333333333,0|0,3:0|3:0,0:0:0:0:
1,73,11975,5,0,3:0:0:0:
115,200,12233,1,0,2:0:0:0:
119,207,12362,2,0,L|104:280,1,74.6666666666667,8|0,2:2|0:0,0:0:0:0:
48,364,12621,5,0,2:0:0:0:
54,380,12750,2,0,P|109:332|181:335,1,149.333333333333,0|0,3:0|2:0,0:0:0:0:
256,384,13137,1,0,3:0:0:0:
467,199,13395,6,0,B|421:224|421:224|368:224|335:183,1,149.333333333333,0|0,2:0|0:0,0:0:0:0:
256,128,13782,2,0,L|239:200,1,74.6666666666667,0|8,3:0|2:2,0:0:0:0:
43,291,14169,5,0,2:0:0:0:
31,275,14298,2,0,L|64:129,1,149.333333333333,0|0,3:0|2:0,0:0:0:0:
44,28,14685,2,0,P|77:43|114:46,1,74.6666666666667,0|0,3:0|0:0,0:0:0:0:
245,92,14943,5,0,3:0:0:0:
222,13,15072,2,0,P|168:61|176:133,1,149.333333333333,0|0,3:0|0:0,0:0:0:0:
239,200,15459,2,0,B|292:187|292:187|323:200|323:200|382:184,1,149.333333333333,8|0,2:2|2:0,0:0:0:0:
476,127,15846,6,0,P|432:184|450:255,1,149.333333333333,0|0,3:0|2:0,0:0:0:0:
512,310,16233,1,0,3:0:0:0:
384,384,16492,2,0,B|332:367|332:367|317:343|317:343|255:319,1,149.333333333333,8|0,2:2|0:0,0:0:0:0:
135,311,16879,5,0,3:0:0:0:
176,381,17008,2,0,P|215:320|192:251,1,149.333333333333,8|0,2:2|3:0,0:0:0:0:
192,251,17395,1,0,3:0:0:0:
106,11,17653,5,0,2:0:0:0:
30,50,17782,2,0,P|87:93|158:78,1,149.333333333333,8|0,2:2|2:0,0:0:0:0:
222,13,18169,2,0,P|208:86|197:160,1,149.333333333333,8|0,2:2|2:0,0:0:0:0:
196,160,18556,1,8,2:2:0:0:
374,279,18814,5,0,2:0:0:0:
374,279,18943,2,0,B|472:297|472:297|455:277|449:253,1,149.333333333333,0|0,3:0|2:0,0:0:0:0:
511,189,19330,1,0,3:0:0:0:
405,380,19588,6,0,P|350:330|277:327,1,149.333333333333,0|0,2:0|0:0,0:0:0:0:
192,384,19975,2,0,L|178:310,1,74.6666666666667,0|8,3:0|2:2,0:0:0:0:
0,160,20362,5,0,2:0:0:0:
0,160,20492,2,0,P|61:199|131:182,1,149.333333333333,0|0,3:0|2:0,0:0:0:0:
185,110,20879,1,0,3:0:0:0:
311,219,21137,1,0,3:0:0:0:
317,232,21266,2,0,P|387:214|448:253,1,149.333333333333,0|0,3:0|3:0,0:0:0:0:
512,314,21653,2,0,P|441:296|380:335,1,149.333333333333,8|0,2:2|2:0,0:0:0:0:
312,384,22040,6,0,P|239:366|165:353,1,149.333333333333,0|0,3:0|2:0,0:0:0:0:
166,353,22427,1,0,3:0:0:0:
0,159,22685,2,0,P|80:231|187:214,1,224,0|0,3:0|3:0,0:0:0:0:
224,192,23201,1,8,2:2:0:0:
107,10,23459,5,0,2:0:0:0:
107,10,23588,2,0,B|73:56|73:56|73:104|108:138,1,149.333333333333,0|0,3:0|2:0,0:0:0:0:
184,73,23975,2,0,B|266:61|238:117|325:102,1,149.333333333333,0|0,3:0|3:0,0:0:0:0:
380,39,24362,1,0,3:0:0:0:
448,256,24621,5,0,3:0:0:0:
497,181,24750,2,0,P|425:170|368:216,1,149.333333333333,8|0,2:2|3:0,0:0:0:0:
368,215,25137,5,0,3:0:0:0:
287,375,25395,1,0,2:0:0:0:
269,365,25524,2,0,P|255:291|243:217,1,149.333333333333,8|0,2:2|3:0,0:0:0:0:
266,35,25911,2,0,B|331:53|331:53|311:162,1,179.2,0|8,3:0|2:2,0:0:0:0:
238,282,26556,5,0,2:0:0:0:
238,282,26685,2,0,B|181:273|181:273|153:285|153:285|93:271,1,149.333333333333,0|0,3:0|2:0,0:0:0:0:
32,320,27072,1,8,2:2:0:0:
0,175,27330,1,0,3:0:0:0:
0,175,27459,2,0,P|47:141|106:145,1,119.466666666667,0|0,3:0|2:0,0:0:0:0:
128,160,27846,1,8,2:2:0:0:
266,35,28233,6,0,B|297:58|297:58|352:58|390:5,1,149.333333333333,0|0,3:0|3:0,0:0:0:0:
389,5,28621,1,8,2:2:0:0:
512,160,28879,5,0,3:0:0:0:
462,228,29008,2,0,B|381:238|406:179|323:187,1,149.333333333333,0|0,2:0|3:0,0:0:0:0:
324,186,29395,1,8,2:2:0:0:
250,324,29653,5,0,2:0:0:0:
184,380,29782,2,0,P|169:347|167:310,1,74.6666666666667,0|0,3:0|0:0,0:0:0:0:
137,211,30040,5,0,2:0:0:0:
219,232,30169,2,0,B|156:250|156:250|149:261|149:261|80:279,1,149.333333333333,8|0,2:2|2:0,0:0:0:0:
0,239,30556,2,0,B|-7:190|-18:149|-18:149|7:100|53:114,1,179.2,0|8,3:0|2:2,0:0:0:0:
53,114,31330,6,0,P|125:116|170:60,1,149.333333333333,0|0,3:0|2:0,0:0:0:0:
160,32,31717,1,8,2:2:0:0:
301,11,31975,1,0,3:0:0:0:
320,32,32104,2,0,P|307:90|295:149,1,119.466666666667,0|0,3:0|2:0,0:0:0:0:
295,148,32492,1,8,2:2:0:0:
330,355,32750,5,0,2:0:0:0:
250,324,32879,2,0,P|303:274|375:280,1,149.333333333333,0|0,3:0|2:0,0:0:0:0:
406,302,33266,1,8,2:2:0:0:
489,213,33524,5,0,3:0:0:0:
495,223,33653,2,0,B|505:159|505:159|501:146|501:146|512:76,1,149.333333333333,0|0,3:0|2:0,0:0:0:0:
473,3,34040,2,0,B|446:19|436:49|436:49|414:27|382:26,1,119.466666666667,8|0,2:2|2:0,0:0:0:0:
302,0,34427,6,0,P|321:71|274:125,1,149.333333333333,0|0,3:0|2:0,0:0:0:0:
314,202,34814,2,0,B|279:152|217:163|217:163|205:195|169:208,1,179.19999453125,8|0,2:2|3:0,0:0:0:0:
90,167,35201,1,0,2:0:0:0:
93,381,35459,5,0,3:0:0:0:
13,348,35588,2,0,P|65:298|137:306,1,149.333333333333,8|0,2:2|2:0,0:0:0:0:
137,306,35975,5,4,3:2:0:0:
256,192,36104,12,0,40233,0:0:0:0:
