osu file format v14

[General]
AudioFilename: watashi no yume wa hidari.mp3
AudioLeadIn: 0
PreviewTime: 217082
Countdown: 0
SampleSet: Soft
StackLeniency: 0.7
Mode: 0
LetterboxInBreaks: 0
WidescreenStoryboard: 1

[Editor]
Bookmarks: 11969,23398,34826,46255,57683,69112,74826,86255,97683,109112,120540,131969,143398,149112,149201,149290,149469,149648,149826,149915,150094,150273,150451,150540,150719,150898,150987,151165,151344,151523,151701,151790,151969,152148,152326,152505,152594,152773,152951,153130,153219,153398,153576,153755,153933,154112,154290,154380,154558,154737,154915,155094,155183,155362,155540,155719,155808,155987,156076,156255,156433,156612,156790,156969,157058,157148,157237,157326,157415,157505,157594,157683,157773,157862,157951,158040,158130,158219,158308,158398,158487,158576,158665,158755,158933,159201,159290,159558,159648,159737,159826,160005,160094,160273,160362,160540,171969,172148,172237,172326,172415,172505,172594,172683,172862,172951,173040,173130,173219,173308,173487,173576,173755,173844,173933,174023,174112,174201,174290,174380,174469,174558,174648,174826,174915,175005,175094,175183,175273,175362,175451,175540,175630,175719,175808,175898,175987,176165,176255,176344,176433,176523,176612,176701,176790,176880,176969,177058,177148,177237,177326,177415,177505,177594,177683,177773,177862,177951,178040,178130,178219,178308,178398,178487,178576,178665,178755,178933,179023,179112,179201,179290,179380,179469,179558,179648,179737,179826,179915,180094,180273,180451,180540,180630,180719,180808,180898,180987,181255,181344,181433,181523,181612,181701,181790,181880,181969,182058,182237,182415,182505,182683,182773,182862,182951,183040,183130,183219,183308,183398,194826,206255,206344,206433,206523,206612,206701,206790,206880,206969,207148,207237,207326,207415,207505,207594,207773,207862,208040,208219,208308,208487,208665,208755,208933,209112,209290,209380,209558,209737,209915,210005,210183,210362,210540,210630,210808,210987,211165,211255,211433,211612,211790,211969,212058,212237,212415,212594,212683,212862,213040,213219,213398,213487,213665,213844,214023,214201,214380,214558,214737,214826,215005,215183,215362,215540,215719,215898,216076,216255,216433,216612,216790,216880,216969,217058,217148,217237,217326,217415,217505,217594,217683,220540,223398,226255,229112,231969,234826,237683,240540,246255,249112,251969,254826
DistanceSpacing: 0.9
BeatDivisor: 4
GridSize: 16
TimelineZoom: 2.2

[Metadata]
Title:Watashi no Tenshi feat. Narumi Sena (CV: Amamiya Sora)
TitleUnicode:ワタシノテンシ feat. 成海聖奈(CV:雨宮天)
Artist:HoneyWorks
ArtistUnicode:HoneyWorks
Creator:hypercyte
Version:hyperluin's Collab Normal
Source:
Tags:full ver japanese my little angel very very cute hypercute sister iceluin imouto mona pieseu gom j-pop jpop
BeatmapID:2273723
BeatmapSetID:1085461

[Difficulty]
HPDrainRate:4.4
CircleSize:3.4
OverallDifficulty:4.5
ApproachRate:5.4
SliderMultiplier:1.04
SliderTickRate:1

[Events]
//Background and Video events
0,0,"yurayura to mayotte mo - akiramenai seikaku yo.jpg",0,0
Video,0,"anata no yume wa migi de.mp4"
//Break Periods
2,149336,159425
2,172193,182283
2,205764,216568
//Storyboard Layer 0 (Background)
Sprite,Background,Centre,"sb\a\0049.png",0,0 S,0,11990,,0.5 F,0,11990,12190,0,1 M,0,11990,23420,53.37868,257.1287,153.3787,257.1287 F,0,23220,23420,1,0
Sprite,Background,Centre,"sb\a\0063.png",0,0 S,0,11990,,0.5 F,0,11990,12190,0,1 M,0,11990,23420,66.12868,260.6287,166.1287,260.6287 F,0,23220,23420,1,0
Sprite,Background,Centre,"sb\a\0065.png",0,0 S,0,11990,,0.5 F,0,11990,12190,0,1 M,0,11990,23420,85.12868,260.6287,185.1287,260.6287 F,0,23220,23420,1,0
Sprite,Background,Centre,"sb\a\006c.png",0,0 S,0,11990,,0.5 F,0,11990,12190,0,1 M,0,11990,23420,98.37868,258.1287,198.3787,258.1287 F,0,23220,23420,1,0
Sprite,Background,Centre,"sb\a\0075.png",0,0 S,0,11990,,0.5 F,0,11990,12190,0,1 M,0,11990,23420,112.1287,260.6287,212.1287,260.6287 F,0,23220,23420,1,0
Sprite,Background,Centre,"sb\a\0069.png",0,0 S,0,11990,,0.5 F,0,11990,12190,0,1 M,0,11990,23420,125.8787,258.1287,225.8787,258.1287 F,0,23220,23420,1,0
Sprite,Background,Centre,"sb\a\006e.png",0,0 S,0,11990,,0.5 F,0,11990,12190,0,1 M,0,11990,23420,139.6287,260.6287,239.6287,260.6287 F,0,23220,23420,1,0
Sprite,Background,Centre,"sb\a\0049.png",0,0 S,0,34850,,0.5 F,0,34850,35050,0,1 M,0,34850,46280,53.37868,257.1287,153.3787,257.1287 F,0,46080,46280,1,0
Sprite,Background,Centre,"sb\a\0063.png",0,0 S,0,34850,,0.5 F,0,34850,35050,0,1 M,0,34850,46280,66.12868,260.6287,166.1287,260.6287 F,0,46080,46280,1,0
Sprite,Background,Centre,"sb\a\0065.png",0,0 S,0,34850,,0.5 F,0,34850,35050,0,1 M,0,34850,46280,85.12868,260.6287,185.1287,260.6287 F,0,46080,46280,1,0
Sprite,Background,Centre,"sb\a\006c.png",0,0 S,0,34850,,0.5 F,0,34850,35050,0,1 M,0,34850,46280,98.37868,258.1287,198.3787,258.1287 F,0,46080,46280,1,0
Sprite,Background,Centre,"sb\a\0075.png",0,0 S,0,34850,,0.5 F,0,34850,35050,0,1 M,0,34850,46280,112.1287,260.6287,212.1287,260.6287 F,0,46080,46280,1,0
Sprite,Background,Centre,"sb\a\0069.png",0,0 S,0,34850,,0.5 F,0,34850,35050,0,1 M,0,34850,46280,125.8787,258.1287,225.8787,258.1287 F,0,46080,46280,1,0
Sprite,Background,Centre,"sb\a\006e.png",0,0 S,0,34850,,0.5 F,0,34850,35050,0,1 M,0,34850,46280,139.6287,260.6287,239.6287,260.6287 F,0,46080,46280,1,0
Sprite,Background,Centre,"sb\a\0049.png",0,0 S,0,57710,,0.5 F,0,57710,57910,0,1 M,0,57710,69140,53.37868,257.1287,153.3787,257.1287 F,0,68940,69140,1,0
Sprite,Background,Centre,"sb\a\0063.png",0,0 S,0,57710,,0.5 F,0,57710,57910,0,1 M,0,57710,69140,66.12868,260.6287,166.1287,260.6287 F,0,68940,69140,1,0
Sprite,Background,Centre,"sb\a\0065.png",0,0 S,0,57710,,0.5 F,0,57710,57910,0,1 M,0,57710,69140,85.12868,260.6287,185.1287,260.6287 F,0,68940,69140,1,0
Sprite,Background,Centre,"sb\a\006c.png",0,0 S,0,57710,,0.5 F,0,57710,57910,0,1 M,0,57710,69140,98.37868,258.1287,198.3787,258.1287 F,0,68940,69140,1,0
Sprite,Background,Centre,"sb\a\0075.png",0,0 S,0,57710,,0.5 F,0,57710,57910,0,1 M,0,57710,69140,112.1287,260.6287,212.1287,260.6287 F,0,68940,69140,1,0
Sprite,Background,Centre,"sb\a\0069.png",0,0 S,0,57710,,0.5 F,0,57710,57910,0,1 M,0,57710,69140,125.8787,258.1287,225.8787,258.1287 F,0,68940,69140,1,0
Sprite,Background,Centre,"sb\a\006e.png",0,0 S,0,57710,,0.5 F,0,57710,57910,0,1 M,0,57710,69140,139.6287,260.6287,239.6287,260.6287 F,0,68940,69140,1,0
Sprite,Background,Centre,"sb\a\0049.png",0,0 S,0,74850,,0.5 F,0,74850,75050,0,1 M,0,74850,86280,53.37868,257.1287,153.3787,257.1287 F,0,86080,86280,1,0
Sprite,Background,Centre,"sb\a\0063.png",0,0 S,0,74850,,0.5 F,0,74850,75050,0,1 M,0,74850,86280,66.12868,260.6287,166.1287,260.6287 F,0,86080,86280,1,0
Sprite,Background,Centre,"sb\a\0065.png",0,0 S,0,74850,,0.5 F,0,74850,75050,0,1 M,0,74850,86280,85.12868,260.6287,185.1287,260.6287 F,0,86080,86280,1,0
Sprite,Background,Centre,"sb\a\006c.png",0,0 S,0,74850,,0.5 F,0,74850,75050,0,1 M,0,74850,86280,98.37868,258.1287,198.3787,258.1287 F,0,86080,86280,1,0
Sprite,Background,Centre,"sb\a\0075.png",0,0 S,0,74850,,0.5 F,0,74850,75050,0,1 M,0,74850,86280,112.1287,260.6287,212.1287,260.6287 F,0,86080,86280,1,0
Sprite,Background,Centre,"sb\a\0069.png",0,0 S,0,74850,,0.5 F,0,74850,75050,0,1 M,0,74850,86280,125.8787,258.1287,225.8787,258.1287 F,0,86080,86280,1,0
Sprite,Background,Centre,"sb\a\006e.png",0,0 S,0,74850,,0.5 F,0,74850,75050,0,1 M,0,74850,86280,139.6287,260.6287,239.6287,260.6287 F,0,86080,86280,1,0
Sprite,Background,Centre,"sb\a\0049.png",0,0 S,0,97710,,0.5 F,0,97710,97910,0,1 M,0,97710,109140,53.37868,257.1287,153.3787,257.1287 F,0,108940,109140,1,0
Sprite,Background,Centre,"sb\a\0063.png",0,0 S,0,97710,,0.5 F,0,97710,97910,0,1 M,0,97710,109140,66.12868,260.6287,166.1287,260.6287 F,0,108940,109140,1,0
Sprite,Background,Centre,"sb\a\0065.png",0,0 S,0,97710,,0.5 F,0,97710,97910,0,1 M,0,97710,109140,85.12868,260.6287,185.1287,260.6287 F,0,108940,109140,1,0
Sprite,Background,Centre,"sb\a\006c.png",0,0 S,0,97710,,0.5 F,0,97710,97910,0,1 M,0,97710,109140,98.37868,258.1287,198.3787,258.1287 F,0,108940,109140,1,0
Sprite,Background,Centre,"sb\a\0075.png",0,0 S,0,97710,,0.5 F,0,97710,97910,0,1 M,0,97710,109140,112.1287,260.6287,212.1287,260.6287 F,0,108940,109140,1,0
Sprite,Background,Centre,"sb\a\0069.png",0,0 S,0,97710,,0.5 F,0,97710,97910,0,1 M,0,97710,109140,125.8787,258.1287,225.8787,258.1287 F,0,108940,109140,1,0
Sprite,Background,Centre,"sb\a\006e.png",0,0 S,0,97710,,0.5 F,0,97710,97910,0,1 M,0,97710,109140,139.6287,260.6287,239.6287,260.6287 F,0,108940,109140,1,0
Sprite,Background,Centre,"sb\a\0049.png",0,0 S,0,120560,,0.5 F,0,120560,120760,0,1 M,0,120560,131990,53.37868,257.1287,153.3787,257.1287 F,0,131790,131990,1,0
Sprite,Background,Centre,"sb\a\0063.png",0,0 S,0,120560,,0.5 F,0,120560,120760,0,1 M,0,120560,131990,66.12868,260.6287,166.1287,260.6287 F,0,131790,131990,1,0
Sprite,Background,Centre,"sb\a\0065.png",0,0 S,0,120560,,0.5 F,0,120560,120760,0,1 M,0,120560,131990,85.12868,260.6287,185.1287,260.6287 F,0,131790,131990,1,0
Sprite,Background,Centre,"sb\a\006c.png",0,0 S,0,120560,,0.5 F,0,120560,120760,0,1 M,0,120560,131990,98.37868,258.1287,198.3787,258.1287 F,0,131790,131990,1,0
Sprite,Background,Centre,"sb\a\0075.png",0,0 S,0,120560,,0.5 F,0,120560,120760,0,1 M,0,120560,131990,112.1287,260.6287,212.1287,260.6287 F,0,131790,131990,1,0
Sprite,Background,Centre,"sb\a\0069.png",0,0 S,0,120560,,0.5 F,0,120560,120760,0,1 M,0,120560,131990,125.8787,258.1287,225.8787,258.1287 F,0,131790,131990,1,0
Sprite,Background,Centre,"sb\a\006e.png",0,0 S,0,120560,,0.5 F,0,120560,120760,0,1 M,0,120560,131990,139.6287,260.6287,239.6287,260.6287 F,0,131790,131990,1,0
Sprite,Background,Centre,"sb\a\0049.png",0,0 S,0,143420,,0.5 F,0,143420,143620,0,1 M,0,143420,149140,53.37868,257.1287,153.3787,257.1287 F,0,148940,149140,1,0
Sprite,Background,Centre,"sb\a\0063.png",0,0 S,0,143420,,0.5 F,0,143420,143620,0,1 M,0,143420,149140,66.12868,260.6287,166.1287,260.6287 F,0,148940,149140,1,0
Sprite,Background,Centre,"sb\a\0065.png",0,0 S,0,143420,,0.5 F,0,143420,143620,0,1 M,0,143420,149140,85.12868,260.6287,185.1287,260.6287 F,0,148940,149140,1,0
Sprite,Background,Centre,"sb\a\006c.png",0,0 S,0,143420,,0.5 F,0,143420,143620,0,1 M,0,143420,149140,98.37868,258.1287,198.3787,258.1287 F,0,148940,149140,1,0
Sprite,Background,Centre,"sb\a\0075.png",0,0 S,0,143420,,0.5 F,0,143420,143620,0,1 M,0,143420,149140,112.1287,260.6287,212.1287,260.6287 F,0,148940,149140,1,0
Sprite,Background,Centre,"sb\a\0069.png",0,0 S,0,143420,,0.5 F,0,143420,143620,0,1 M,0,143420,149140,125.8787,258.1287,225.8787,258.1287 F,0,148940,149140,1,0
Sprite,Background,Centre,"sb\a\006e.png",0,0 S,0,143420,,0.5 F,0,143420,143620,0,1 M,0,143420,149140,139.6287,260.6287,239.6287,260.6287 F,0,148940,149140,1,0
Sprite,Background,Centre,"sb\a\0049.png",0,0 S,0,160560,,0.5 F,0,160560,160760,0,1 M,0,160560,171990,53.37868,257.1287,153.3787,257.1287 F,0,171790,171990,1,0
Sprite,Background,Centre,"sb\a\0063.png",0,0 S,0,160560,,0.5 F,0,160560,160760,0,1 M,0,160560,171990,66.12868,260.6287,166.1287,260.6287 F,0,171790,171990,1,0
Sprite,Background,Centre,"sb\a\0065.png",0,0 S,0,160560,,0.5 F,0,160560,160760,0,1 M,0,160560,171990,85.12868,260.6287,185.1287,260.6287 F,0,171790,171990,1,0
Sprite,Background,Centre,"sb\a\006c.png",0,0 S,0,160560,,0.5 F,0,160560,160760,0,1 M,0,160560,171990,98.37868,258.1287,198.3787,258.1287 F,0,171790,171990,1,0
Sprite,Background,Centre,"sb\a\0075.png",0,0 S,0,160560,,0.5 F,0,160560,160760,0,1 M,0,160560,171990,112.1287,260.6287,212.1287,260.6287 F,0,171790,171990,1,0
Sprite,Background,Centre,"sb\a\0069.png",0,0 S,0,160560,,0.5 F,0,160560,160760,0,1 M,0,160560,171990,125.8787,258.1287,225.8787,258.1287 F,0,171790,171990,1,0
Sprite,Background,Centre,"sb\a\006e.png",0,0 S,0,160560,,0.5 F,0,160560,160760,0,1 M,0,160560,171990,139.6287,260.6287,239.6287,260.6287 F,0,171790,171990,1,0
Sprite,Background,Centre,"sb\a\0049.png",0,0 S,0,194850,,0.5 F,0,194850,195050,0,1 M,0,194850,206280,53.37868,257.1287,153.3787,257.1287 F,0,206080,206280,1,0
Sprite,Background,Centre,"sb\a\0063.png",0,0 S,0,194850,,0.5 F,0,194850,195050,0,1 M,0,194850,206280,66.12868,260.6287,166.1287,260.6287 F,0,206080,206280,1,0
Sprite,Background,Centre,"sb\a\0065.png",0,0 S,0,194850,,0.5 F,0,194850,195050,0,1 M,0,194850,206280,85.12868,260.6287,185.1287,260.6287 F,0,206080,206280,1,0
Sprite,Background,Centre,"sb\a\006c.png",0,0 S,0,194850,,0.5 F,0,194850,195050,0,1 M,0,194850,206280,98.37868,258.1287,198.3787,258.1287 F,0,206080,206280,1,0
Sprite,Background,Centre,"sb\a\0075.png",0,0 S,0,194850,,0.5 F,0,194850,195050,0,1 M,0,194850,206280,112.1287,260.6287,212.1287,260.6287 F,0,206080,206280,1,0
Sprite,Background,Centre,"sb\a\0069.png",0,0 S,0,194850,,0.5 F,0,194850,195050,0,1 M,0,194850,206280,125.8787,258.1287,225.8787,258.1287 F,0,206080,206280,1,0
Sprite,Background,Centre,"sb\a\006e.png",0,0 S,0,194850,,0.5 F,0,194850,195050,0,1 M,0,194850,206280,139.6287,260.6287,239.6287,260.6287 F,0,206080,206280,1,0
Sprite,Background,Centre,"sb\a\0049.png",0,0 S,0,220560,,0.5 F,0,220560,220760,0,1 M,0,220560,223420,53.37868,257.1287,153.3787,257.1287 F,0,223220,223420,1,0
Sprite,Background,Centre,"sb\a\0063.png",0,0 S,0,220560,,0.5 F,0,220560,220760,0,1 M,0,220560,223420,66.12868,260.6287,166.1287,260.6287 F,0,223220,223420,1,0
Sprite,Background,Centre,"sb\a\0065.png",0,0 S,0,220560,,0.5 F,0,220560,220760,0,1 M,0,220560,223420,85.12868,260.6287,185.1287,260.6287 F,0,223220,223420,1,0
Sprite,Background,Centre,"sb\a\006c.png",0,0 S,0,220560,,0.5 F,0,220560,220760,0,1 M,0,220560,223420,98.37868,258.1287,198.3787,258.1287 F,0,223220,223420,1,0
Sprite,Background,Centre,"sb\a\0075.png",0,0 S,0,220560,,0.5 F,0,220560,220760,0,1 M,0,220560,223420,112.1287,260.6287,212.1287,260.6287 F,0,223220,223420,1,0
Sprite,Background,Centre,"sb\a\0069.png",0,0 S,0,220560,,0.5 F,0,220560,220760,0,1 M,0,220560,223420,125.8787,258.1287,225.8787,258.1287 F,0,223220,223420,1,0
Sprite,Background,Centre,"sb\a\006e.png",0,0 S,0,220560,,0.5 F,0,220560,220760,0,1 M,0,220560,223420,139.6287,260.6287,239.6287,260.6287 F,0,223220,223420,1,0
Sprite,Background,Centre,"sb\a\0049.png",0,0 S,0,226280,,0.5 F,0,226280,226480,0,1 M,0,226280,229140,53.37868,257.1287,153.3787,257.1287 F,0,228940,229140,1,0
Sprite,Background,Centre,"sb\a\0063.png",0,0 S,0,226280,,0.5 F,0,226280,226480,0,1 M,0,226280,229140,66.12868,260.6287,166.1287,260.6287 F,0,228940,229140,1,0
Sprite,Background,Centre,"sb\a\0065.png",0,0 S,0,226280,,0.5 F,0,226280,226480,0,1 M,0,226280,229140,85.12868,260.6287,185.1287,260.6287 F,0,228940,229140,1,0
Sprite,Background,Centre,"sb\a\006c.png",0,0 S,0,226280,,0.5 F,0,226280,226480,0,1 M,0,226280,229140,98.37868,258.1287,198.3787,258.1287 F,0,228940,229140,1,0
Sprite,Background,Centre,"sb\a\0075.png",0,0 S,0,226280,,0.5 F,0,226280,226480,0,1 M,0,226280,229140,112.1287,260.6287,212.1287,260.6287 F,0,228940,229140,1,0
Sprite,Background,Centre,"sb\a\0069.png",0,0 S,0,226280,,0.5 F,0,226280,226480,0,1 M,0,226280,229140,125.8787,258.1287,225.8787,258.1287 F,0,228940,229140,1,0
Sprite,Background,Centre,"sb\a\006e.png",0,0 S,0,226280,,0.5 F,0,226280,226480,0,1 M,0,226280,229140,139.6287,260.6287,239.6287,260.6287 F,0,228940,229140,1,0
Sprite,Background,Centre,"sb\a\0049.png",0,0 S,0,231990,,0.5 F,0,231990,232190,0,1 M,0,231990,234850,53.37868,257.1287,153.3787,257.1287 F,0,234650,234850,1,0
Sprite,Background,Centre,"sb\a\0063.png",0,0 S,0,231990,,0.5 F,0,231990,232190,0,1 M,0,231990,234850,66.12868,260.6287,166.1287,260.6287 F,0,234650,234850,1,0
Sprite,Background,Centre,"sb\a\0065.png",0,0 S,0,231990,,0.5 F,0,231990,232190,0,1 M,0,231990,234850,85.12868,260.6287,185.1287,260.6287 F,0,234650,234850,1,0
Sprite,Background,Centre,"sb\a\006c.png",0,0 S,0,231990,,0.5 F,0,231990,232190,0,1 M,0,231990,234850,98.37868,258.1287,198.3787,258.1287 F,0,234650,234850,1,0
Sprite,Background,Centre,"sb\a\0075.png",0,0 S,0,231990,,0.5 F,0,231990,232190,0,1 M,0,231990,234850,112.1287,260.6287,212.1287,260.6287 F,0,234650,234850,1,0
Sprite,Background,Centre,"sb\a\0069.png",0,0 S,0,231990,,0.5 F,0,231990,232190,0,1 M,0,231990,234850,125.8787,258.1287,225.8787,258.1287 F,0,234650,234850,1,0
Sprite,Background,Centre,"sb\a\006e.png",0,0 S,0,231990,,0.5 F,0,231990,232190,0,1 M,0,231990,234850,139.6287,260.6287,239.6287,260.6287 F,0,234650,234850,1,0
Sprite,Background,Centre,"sb\a\0049.png",0,0 S,0,237710,,0.5 F,0,237710,237910,0,1 M,0,237710,240560,53.37868,257.1287,153.3787,257.1287 F,0,240360,240560,1,0
Sprite,Background,Centre,"sb\a\0063.png",0,0 S,0,237710,,0.5 F,0,237710,237910,0,1 M,0,237710,240560,66.12868,260.6287,166.1287,260.6287 F,0,240360,240560,1,0
Sprite,Background,Centre,"sb\a\0065.png",0,0 S,0,237710,,0.5 F,0,237710,237910,0,1 M,0,237710,240560,85.12868,260.6287,185.1287,260.6287 F,0,240360,240560,1,0
Sprite,Background,Centre,"sb\a\006c.png",0,0 S,0,237710,,0.5 F,0,237710,237910,0,1 M,0,237710,240560,98.37868,258.1287,198.3787,258.1287 F,0,240360,240560,1,0
Sprite,Background,Centre,"sb\a\0075.png",0,0 S,0,237710,,0.5 F,0,237710,237910,0,1 M,0,237710,240560,112.1287,260.6287,212.1287,260.6287 F,0,240360,240560,1,0
Sprite,Background,Centre,"sb\a\0069.png",0,0 S,0,237710,,0.5 F,0,237710,237910,0,1 M,0,237710,240560,125.8787,258.1287,225.8787,258.1287 F,0,240360,240560,1,0
Sprite,Background,Centre,"sb\a\006e.png",0,0 S,0,237710,,0.5 F,0,237710,237910,0,1 M,0,237710,240560,139.6287,260.6287,239.6287,260.6287 F,0,240360,240560,1,0
Sprite,Background,Centre,"sb\a\0049.png",0,0 S,0,246280,,0.5 F,0,246280,246480,0,1 M,0,246280,249140,53.37868,257.1287,153.3787,257.1287 F,0,248940,249140,1,0
Sprite,Background,Centre,"sb\a\0063.png",0,0 S,0,246280,,0.5 F,0,246280,246480,0,1 M,0,246280,249140,66.12868,260.6287,166.1287,260.6287 F,0,248940,249140,1,0
Sprite,Background,Centre,"sb\a\0065.png",0,0 S,0,246280,,0.5 F,0,246280,246480,0,1 M,0,246280,249140,85.12868,260.6287,185.1287,260.6287 F,0,248940,249140,1,0
Sprite,Background,Centre,"sb\a\006c.png",0,0 S,0,246280,,0.5 F,0,246280,246480,0,1 M,0,246280,249140,98.37868,258.1287,198.3787,258.1287 F,0,248940,249140,1,0
Sprite,Background,Centre,"sb\a\0075.png",0,0 S,0,246280,,0.5 F,0,246280,246480,0,1 M,0,246280,249140,112.1287,260.6287,212.1287,260.6287 F,0,248940,249140,1,0
Sprite,Background,Centre,"sb\a\0069.png",0,0 S,0,246280,,0.5 F,0,246280,246480,0,1 M,0,246280,249140,125.8787,258.1287,225.8787,258.1287 F,0,248940,249140,1,0
Sprite,Background,Centre,"sb\a\006e.png",0,0 S,0,246280,,0.5 F,0,246280,246480,0,1 M,0,246280,249140,139.6287,260.6287,239.6287,260.6287 F,0,248940,249140,1,0
Sprite,Background,Centre,"sb\a\0049.png",0,0 S,0,251990,,0.5 F,0,251990,252190,0,1 M,0,251990,254850,53.37868,257.1287,153.3787,257.1287 F,0,254650,254850,1,0
Sprite,Background,Centre,"sb\a\0063.png",0,0 S,0,251990,,0.5 F,0,251990,252190,0,1 M,0,251990,254850,66.12868,260.6287,166.1287,260.6287 F,0,254650,254850,1,0
Sprite,Background,Centre,"sb\a\0065.png",0,0 S,0,251990,,0.5 F,0,251990,252190,0,1 M,0,251990,254850,85.12868,260.6287,185.1287,260.6287 F,0,254650,254850,1,0
Sprite,Background,Centre,"sb\a\006c.png",0,0 S,0,251990,,0.5 F,0,251990,252190,0,1 M,0,251990,254850,98.37868,258.1287,198.3787,258.1287 F,0,254650,254850,1,0
Sprite,Background,Centre,"sb\a\0075.png",0,0 S,0,251990,,0.5 F,0,251990,252190,0,1 M,0,251990,254850,112.1287,260.6287,212.1287,260.6287 F,0,254650,254850,1,0
Sprite,Background,Centre,"sb\a\0069.png",0,0 S,0,251990,,0.5 F,0,251990,252190,0,1 M,0,251990,254850,125.8787,258.1287,225.8787,258.1287 F,0,254650,254850,1,0
Sprite,Background,Centre,"sb\a\006e.png",0,0 S,0,251990,,0.5 F,0,251990,252190,0,1 M,0,251990,254850,139.6287,260.6287,239.6287,260.6287 F,0,254650,254850,1,0
Sprite,Background,Centre,"sb\a\0068.png",0,0 S,0,560,,0.5 F,0,560,760,0,1 M,0,560,11990,436.6287,258.1287,336.6287,258.1287 F,0,11790,11990,1,0
Sprite,Background,Centre,"sb\a\0079.png",0,0 S,0,560,,0.5 F,0,560,760,0,1 M,0,560,11990,457.1287,263.8787,357.1287,263.8787 F,0,11790,11990,1,0
Sprite,Background,Centre,"sb\a\0070.png",0,0 S,0,560,,0.5 F,0,560,760,0,1 M,0,560,11990,477.6287,263.8787,377.6287,263.8787 F,0,11790,11990,1,0
Sprite,Background,Centre,"sb\a\0065.png",0,0 S,0,560,,0.5 F,0,560,760,0,1 M,0,560,11990,497.1287,260.6287,397.1287,260.6287 F,0,11790,11990,1,0
Sprite,Background,Centre,"sb\a\0072.png",0,0 S,0,560,,0.5 F,0,560,760,0,1 M,0,560,11990,513.6287,260.6287,413.6287,260.6287 F,0,11790,11990,1,0
Sprite,Background,Centre,"sb\a\0063.png",0,0 S,0,560,,0.5 F,0,560,760,0,1 M,0,560,11990,530.1287,260.6287,430.1287,260.6287 F,0,11790,11990,1,0
Sprite,Background,Centre,"sb\a\0079.png",0,0 S,0,560,,0.5 F,0,560,760,0,1 M,0,560,11990,550.1287,263.8787,450.1287,263.8787 F,0,11790,11990,1,0
Sprite,Background,Centre,"sb\a\0074.png",0,0 S,0,560,,0.5 F,0,560,760,0,1 M,0,560,11990,567.3787,258.1287,467.3787,258.1287 F,0,11790,11990,1,0
Sprite,Background,Centre,"sb\a\0065.png",0,0 S,0,560,,0.5 F,0,560,760,0,1 M,0,560,11990,583.6287,260.6287,483.6287,260.6287 F,0,11790,11990,1,0
Sprite,Background,Centre,"sb\a\0068.png",0,0 S,0,23420,,0.5 F,0,23420,23620,0,1 M,0,23420,34850,436.6287,258.1287,336.6287,258.1287 F,0,34650,34850,1,0
Sprite,Background,Centre,"sb\a\0079.png",0,0 S,0,23420,,0.5 F,0,23420,23620,0,1 M,0,23420,34850,457.1287,263.8787,357.1287,263.8787 F,0,34650,34850,1,0
Sprite,Background,Centre,"sb\a\0070.png",0,0 S,0,23420,,0.5 F,0,23420,23620,0,1 M,0,23420,34850,477.6287,263.8787,377.6287,263.8787 F,0,34650,34850,1,0
Sprite,Background,Centre,"sb\a\0065.png",0,0 S,0,23420,,0.5 F,0,23420,23620,0,1 M,0,23420,34850,497.1287,260.6287,397.1287,260.6287 F,0,34650,34850,1,0
Sprite,Background,Centre,"sb\a\0072.png",0,0 S,0,23420,,0.5 F,0,23420,23620,0,1 M,0,23420,34850,513.6287,260.6287,413.6287,260.6287 F,0,34650,34850,1,0
Sprite,Background,Centre,"sb\a\0063.png",0,0 S,0,23420,,0.5 F,0,23420,23620,0,1 M,0,23420,34850,530.1287,260.6287,430.1287,260.6287 F,0,34650,34850,1,0
Sprite,Background,Centre,"sb\a\0079.png",0,0 S,0,23420,,0.5 F,0,23420,23620,0,1 M,0,23420,34850,550.1287,263.8787,450.1287,263.8787 F,0,34650,34850,1,0
Sprite,Background,Centre,"sb\a\0074.png",0,0 S,0,23420,,0.5 F,0,23420,23620,0,1 M,0,23420,34850,567.3787,258.1287,467.3787,258.1287 F,0,34650,34850,1,0
Sprite,Background,Centre,"sb\a\0065.png",0,0 S,0,23420,,0.5 F,0,23420,23620,0,1 M,0,23420,34850,583.6287,260.6287,483.6287,260.6287 F,0,34650,34850,1,0
Sprite,Background,Centre,"sb\a\0068.png",0,0 S,0,46280,,0.5 F,0,46280,46480,0,1 M,0,46280,57710,436.6287,258.1287,336.6287,258.1287 F,0,57510,57710,1,0
Sprite,Background,Centre,"sb\a\0079.png",0,0 S,0,46280,,0.5 F,0,46280,46480,0,1 M,0,46280,57710,457.1287,263.8787,357.1287,263.8787 F,0,57510,57710,1,0
Sprite,Background,Centre,"sb\a\0070.png",0,0 S,0,46280,,0.5 F,0,46280,46480,0,1 M,0,46280,57710,477.6287,263.8787,377.6287,263.8787 F,0,57510,57710,1,0
Sprite,Background,Centre,"sb\a\0065.png",0,0 S,0,46280,,0.5 F,0,46280,46480,0,1 M,0,46280,57710,497.1287,260.6287,397.1287,260.6287 F,0,57510,57710,1,0
Sprite,Background,Centre,"sb\a\0072.png",0,0 S,0,46280,,0.5 F,0,46280,46480,0,1 M,0,46280,57710,513.6287,260.6287,413.6287,260.6287 F,0,57510,57710,1,0
Sprite,Background,Centre,"sb\a\0063.png",0,0 S,0,46280,,0.5 F,0,46280,46480,0,1 M,0,46280,57710,530.1287,260.6287,430.1287,260.6287 F,0,57510,57710,1,0
Sprite,Background,Centre,"sb\a\0079.png",0,0 S,0,46280,,0.5 F,0,46280,46480,0,1 M,0,46280,57710,550.1287,263.8787,450.1287,263.8787 F,0,57510,57710,1,0
Sprite,Background,Centre,"sb\a\0074.png",0,0 S,0,46280,,0.5 F,0,46280,46480,0,1 M,0,46280,57710,567.3787,258.1287,467.3787,258.1287 F,0,57510,57710,1,0
Sprite,Background,Centre,"sb\a\0065.png",0,0 S,0,46280,,0.5 F,0,46280,46480,0,1 M,0,46280,57710,583.6287,260.6287,483.6287,260.6287 F,0,57510,57710,1,0
Sprite,Background,Centre,"sb\a\0068.png",0,0 S,0,69140,,0.5 F,0,69140,69340,0,1 M,0,69140,74850,436.6287,258.1287,336.6287,258.1287 F,0,74650,74850,1,0
Sprite,Background,Centre,"sb\a\0079.png",0,0 S,0,69140,,0.5 F,0,69140,69340,0,1 M,0,69140,74850,457.1287,263.8787,357.1287,263.8787 F,0,74650,74850,1,0
Sprite,Background,Centre,"sb\a\0070.png",0,0 S,0,69140,,0.5 F,0,69140,69340,0,1 M,0,69140,74850,477.6287,263.8787,377.6287,263.8787 F,0,74650,74850,1,0
Sprite,Background,Centre,"sb\a\0065.png",0,0 S,0,69140,,0.5 F,0,69140,69340,0,1 M,0,69140,74850,497.1287,260.6287,397.1287,260.6287 F,0,74650,74850,1,0
Sprite,Background,Centre,"sb\a\0072.png",0,0 S,0,69140,,0.5 F,0,69140,69340,0,1 M,0,69140,74850,513.6287,260.6287,413.6287,260.6287 F,0,74650,74850,1,0
Sprite,Background,Centre,"sb\a\0063.png",0,0 S,0,69140,,0.5 F,0,69140,69340,0,1 M,0,69140,74850,530.1287,260.6287,430.1287,260.6287 F,0,74650,74850,1,0
Sprite,Background,Centre,"sb\a\0079.png",0,0 S,0,69140,,0.5 F,0,69140,69340,0,1 M,0,69140,74850,550.1287,263.8787,450.1287,263.8787 F,0,74650,74850,1,0
Sprite,Background,Centre,"sb\a\0074.png",0,0 S,0,69140,,0.5 F,0,69140,69340,0,1 M,0,69140,74850,567.3787,258.1287,467.3787,258.1287 F,0,74650,74850,1,0
Sprite,Background,Centre,"sb\a\0065.png",0,0 S,0,69140,,0.5 F,0,69140,69340,0,1 M,0,69140,74850,583.6287,260.6287,483.6287,260.6287 F,0,74650,74850,1,0
Sprite,Background,Centre,"sb\a\0068.png",0,0 S,0,86280,,0.5 F,0,86280,86480,0,1 M,0,86280,97710,436.6287,258.1287,336.6287,258.1287 F,0,97510,97710,1,0
Sprite,Background,Centre,"sb\a\0079.png",0,0 S,0,86280,,0.5 F,0,86280,86480,0,1 M,0,86280,97710,457.1287,263.8787,357.1287,263.8787 F,0,97510,97710,1,0
Sprite,Background,Centre,"sb\a\0070.png",0,0 S,0,86280,,0.5 F,0,86280,86480,0,1 M,0,86280,97710,477.6287,263.8787,377.6287,263.8787 F,0,97510,97710,1,0
Sprite,Background,Centre,"sb\a\0065.png",0,0 S,0,86280,,0.5 F,0,86280,86480,0,1 M,0,86280,97710,497.1287,260.6287,397.1287,260.6287 F,0,97510,97710,1,0
Sprite,Background,Centre,"sb\a\0072.png",0,0 S,0,86280,,0.5 F,0,86280,86480,0,1 M,0,86280,97710,513.6287,260.6287,413.6287,260.6287 F,0,97510,97710,1,0
Sprite,Background,Centre,"sb\a\0063.png",0,0 S,0,86280,,0.5 F,0,86280,86480,0,1 M,0,86280,97710,530.1287,260.6287,430.1287,260.6287 F,0,97510,97710,1,0
Sprite,Background,Centre,"sb\a\0079.png",0,0 S,0,86280,,0.5 F,0,86280,86480,0,1 M,0,86280,97710,550.1287,263.8787,450.1287,263.8787 F,0,97510,97710,1,0
Sprite,Background,Centre,"sb\a\0074.png",0,0 S,0,86280,,0.5 F,0,86280,86480,0,1 M,0,86280,97710,567.3787,258.1287,467.3787,258.1287 F,0,97510,97710,1,0
Sprite,Background,Centre,"sb\a\0065.png",0,0 S,0,86280,,0.5 F,0,86280,86480,0,1 M,0,86280,97710,583.6287,260.6287,483.6287,260.6287 F,0,97510,97710,1,0
Sprite,Background,Centre,"sb\a\0068.png",0,0 S,0,109140,,0.5 F,0,109140,109340,0,1 M,0,109140,120560,436.6287,258.1287,336.6287,258.1287 F,0,120360,120560,1,0
Sprite,Background,Centre,"sb\a\0079.png",0,0 S,0,109140,,0.5 F,0,109140,109340,0,1 M,0,109140,120560,457.1287,263.8787,357.1287,263.8787 F,0,120360,120560,1,0
Sprite,Background,Centre,"sb\a\0070.png",0,0 S,0,109140,,0.5 F,0,109140,109340,0,1 M,0,109140,120560,477.6287,263.8787,377.6287,263.8787 F,0,120360,120560,1,0
Sprite,Background,Centre,"sb\a\0065.png",0,0 S,0,109140,,0.5 F,0,109140,109340,0,1 M,0,109140,120560,497.1287,260.6287,397.1287,260.6287 F,0,120360,120560,1,0
Sprite,Background,Centre,"sb\a\0072.png",0,0 S,0,109140,,0.5 F,0,109140,109340,0,1 M,0,109140,120560,513.6287,260.6287,413.6287,260.6287 F,0,120360,120560,1,0
Sprite,Background,Centre,"sb\a\0063.png",0,0 S,0,109140,,0.5 F,0,109140,109340,0,1 M,0,109140,120560,530.1287,260.6287,430.1287,260.6287 F,0,120360,120560,1,0
Sprite,Background,Centre,"sb\a\0079.png",0,0 S,0,109140,,0.5 F,0,109140,109340,0,1 M,0,109140,120560,550.1287,263.8787,450.1287,263.8787 F,0,120360,120560,1,0
Sprite,Background,Centre,"sb\a\0074.png",0,0 S,0,109140,,0.5 F,0,109140,109340,0,1 M,0,109140,120560,567.3787,258.1287,467.3787,258.1287 F,0,120360,120560,1,0
Sprite,Background,Centre,"sb\a\0065.png",0,0 S,0,109140,,0.5 F,0,109140,109340,0,1 M,0,109140,120560,583.6287,260.6287,483.6287,260.6287 F,0,120360,120560,1,0
Sprite,Background,Centre,"sb\a\0068.png",0,0 S,0,131990,,0.5 F,0,131990,132190,0,1 M,0,131990,143420,436.6287,258.1287,336.6287,258.1287 F,0,143220,143420,1,0
Sprite,Background,Centre,"sb\a\0079.png",0,0 S,0,131990,,0.5 F,0,131990,132190,0,1 M,0,131990,143420,457.1287,263.8787,357.1287,263.8787 F,0,143220,143420,1,0
Sprite,Background,Centre,"sb\a\0070.png",0,0 S,0,131990,,0.5 F,0,131990,132190,0,1 M,0,131990,143420,477.6287,263.8787,377.6287,263.8787 F,0,143220,143420,1,0
Sprite,Background,Centre,"sb\a\0065.png",0,0 S,0,131990,,0.5 F,0,131990,132190,0,1 M,0,131990,143420,497.1287,260.6287,397.1287,260.6287 F,0,143220,143420,1,0
Sprite,Background,Centre,"sb\a\0072.png",0,0 S,0,131990,,0.5 F,0,131990,132190,0,1 M,0,131990,143420,513.6287,260.6287,413.6287,260.6287 F,0,143220,143420,1,0
Sprite,Background,Centre,"sb\a\0063.png",0,0 S,0,131990,,0.5 F,0,131990,132190,0,1 M,0,131990,143420,530.1287,260.6287,430.1287,260.6287 F,0,143220,143420,1,0
Sprite,Background,Centre,"sb\a\0079.png",0,0 S,0,131990,,0.5 F,0,131990,132190,0,1 M,0,131990,143420,550.1287,263.8787,450.1287,263.8787 F,0,143220,143420,1,0
Sprite,Background,Centre,"sb\a\0074.png",0,0 S,0,131990,,0.5 F,0,131990,132190,0,1 M,0,131990,143420,567.3787,258.1287,467.3787,258.1287 F,0,143220,143420,1,0
Sprite,Background,Centre,"sb\a\0065.png",0,0 S,0,131990,,0.5 F,0,131990,132190,0,1 M,0,131990,143420,583.6287,260.6287,483.6287,260.6287 F,0,143220,143420,1,0
Sprite,Background,Centre,"sb\a\0068.png",0,0 S,0,183420,,0.5 F,0,183420,183620,0,1 M,0,183420,194850,436.6287,258.1287,336.6287,258.1287 F,0,194650,194850,1,0
Sprite,Background,Centre,"sb\a\0079.png",0,0 S,0,183420,,0.5 F,0,183420,183620,0,1 M,0,183420,194850,457.1287,263.8787,357.1287,263.8787 F,0,194650,194850,1,0
Sprite,Background,Centre,"sb\a\0070.png",0,0 S,0,183420,,0.5 F,0,183420,183620,0,1 M,0,183420,194850,477.6287,263.8787,377.6287,263.8787 F,0,194650,194850,1,0
Sprite,Background,Centre,"sb\a\0065.png",0,0 S,0,183420,,0.5 F,0,183420,183620,0,1 M,0,183420,194850,497.1287,260.6287,397.1287,260.6287 F,0,194650,194850,1,0
Sprite,Background,Centre,"sb\a\0072.png",0,0 S,0,183420,,0.5 F,0,183420,183620,0,1 M,0,183420,194850,513.6287,260.6287,413.6287,260.6287 F,0,194650,194850,1,0
Sprite,Background,Centre,"sb\a\0063.png",0,0 S,0,183420,,0.5 F,0,183420,183620,0,1 M,0,183420,194850,530.1287,260.6287,430.1287,260.6287 F,0,194650,194850,1,0
Sprite,Background,Centre,"sb\a\0079.png",0,0 S,0,183420,,0.5 F,0,183420,183620,0,1 M,0,183420,194850,550.1287,263.8787,450.1287,263.8787 F,0,194650,194850,1,0
Sprite,Background,Centre,"sb\a\0074.png",0,0 S,0,183420,,0.5 F,0,183420,183620,0,1 M,0,183420,194850,567.3787,258.1287,467.3787,258.1287 F,0,194650,194850,1,0
Sprite,Background,Centre,"sb\a\0065.png",0,0 S,0,183420,,0.5 F,0,183420,183620,0,1 M,0,183420,194850,583.6287,260.6287,483.6287,260.6287 F,0,194650,194850,1,0
Sprite,Background,Centre,"sb\a\0068.png",0,0 S,0,217710,,0.5 F,0,217710,217910,0,1 M,0,217710,220560,436.6287,258.1287,336.6287,258.1287 F,0,220360,220560,1,0
Sprite,Background,Centre,"sb\a\0079.png",0,0 S,0,217710,,0.5 F,0,217710,217910,0,1 M,0,217710,220560,457.1287,263.8787,357.1287,263.8787 F,0,220360,220560,1,0
Sprite,Background,Centre,"sb\a\0070.png",0,0 S,0,217710,,0.5 F,0,217710,217910,0,1 M,0,217710,220560,477.6287,263.8787,377.6287,263.8787 F,0,220360,220560,1,0
Sprite,Background,Centre,"sb\a\0065.png",0,0 S,0,217710,,0.5 F,0,217710,217910,0,1 M,0,217710,220560,497.1287,260.6287,397.1287,260.6287 F,0,220360,220560,1,0
Sprite,Background,Centre,"sb\a\0072.png",0,0 S,0,217710,,0.5 F,0,217710,217910,0,1 M,0,217710,220560,513.6287,260.6287,413.6287,260.6287 F,0,220360,220560,1,0
Sprite,Background,Centre,"sb\a\0063.png",0,0 S,0,217710,,0.5 F,0,217710,217910,0,1 M,0,217710,220560,530.1287,260.6287,430.1287,260.6287 F,0,220360,220560,1,0
Sprite,Background,Centre,"sb\a\0079.png",0,0 S,0,217710,,0.5 F,0,217710,217910,0,1 M,0,217710,220560,550.1287,263.8787,450.1287,263.8787 F,0,220360,220560,1,0
Sprite,Background,Centre,"sb\a\0074.png",0,0 S,0,217710,,0.5 F,0,217710,217910,0,1 M,0,217710,220560,567.3787,258.1287,467.3787,258.1287 F,0,220360,220560,1,0
Sprite,Background,Centre,"sb\a\0065.png",0,0 S,0,217710,,0.5 F,0,217710,217910,0,1 M,0,217710,220560,583.6287,260.6287,483.6287,260.6287 F,0,220360,220560,1,0
Sprite,Background,Centre,"sb\a\0068.png",0,0 S,0,223420,,0.5 F,0,223420,223620,0,1 M,0,223420,226280,436.6287,258.1287,336.6287,258.1287 F,0,226080,226280,1,0
Sprite,Background,Centre,"sb\a\0079.png",0,0 S,0,223420,,0.5 F,0,223420,223620,0,1 M,0,223420,226280,457.1287,263.8787,357.1287,263.8787 F,0,226080,226280,1,0
Sprite,Background,Centre,"sb\a\0070.png",0,0 S,0,223420,,0.5 F,0,223420,223620,0,1 M,0,223420,226280,477.6287,263.8787,377.6287,263.8787 F,0,226080,226280,1,0
Sprite,Background,Centre,"sb\a\0065.png",0,0 S,0,223420,,0.5 F,0,223420,223620,0,1 M,0,223420,226280,497.1287,260.6287,397.1287,260.6287 F,0,226080,226280,1,0
Sprite,Background,Centre,"sb\a\0072.png",0,0 S,0,223420,,0.5 F,0,223420,223620,0,1 M,0,223420,226280,513.6287,260.6287,413.6287,260.6287 F,0,226080,226280,1,0
Sprite,Background,Centre,"sb\a\0063.png",0,0 S,0,223420,,0.5 F,0,223420,223620,0,1 M,0,223420,226280,530.1287,260.6287,430.1287,260.6287 F,0,226080,226280,1,0
Sprite,Background,Centre,"sb\a\0079.png",0,0 S,0,223420,,0.5 F,0,223420,223620,0,1 M,0,223420,226280,550.1287,263.8787,450.1287,263.8787 F,0,226080,226280,1,0
Sprite,Background,Centre,"sb\a\0074.png",0,0 S,0,223420,,0.5 F,0,223420,223620,0,1 M,0,223420,226280,567.3787,258.1287,467.3787,258.1287 F,0,226080,226280,1,0
Sprite,Background,Centre,"sb\a\0065.png",0,0 S,0,223420,,0.5 F,0,223420,223620,0,1 M,0,223420,226280,583.6287,260.6287,483.6287,260.6287 F,0,226080,226280,1,0
Sprite,Background,Centre,"sb\a\0068.png",0,0 S,0,229140,,0.5 F,0,229140,229340,0,1 M,0,229140,231990,436.6287,258.1287,336.6287,258.1287 F,0,231790,231990,1,0
Sprite,Background,Centre,"sb\a\0079.png",0,0 S,0,229140,,0.5 F,0,229140,229340,0,1 M,0,229140,231990,457.1287,263.8787,357.1287,263.8787 F,0,231790,231990,1,0
Sprite,Background,Centre,"sb\a\0070.png",0,0 S,0,229140,,0.5 F,0,229140,229340,0,1 M,0,229140,231990,477.6287,263.8787,377.6287,263.8787 F,0,231790,231990,1,0
Sprite,Background,Centre,"sb\a\0065.png",0,0 S,0,229140,,0.5 F,0,229140,229340,0,1 M,0,229140,231990,497.1287,260.6287,397.1287,260.6287 F,0,231790,231990,1,0
Sprite,Background,Centre,"sb\a\0072.png",0,0 S,0,229140,,0.5 F,0,229140,229340,0,1 M,0,229140,231990,513.6287,260.6287,413.6287,260.6287 F,0,231790,231990,1,0
Sprite,Background,Centre,"sb\a\0063.png",0,0 S,0,229140,,0.5 F,0,229140,229340,0,1 M,0,229140,231990,530.1287,260.6287,430.1287,260.6287 F,0,231790,231990,1,0
Sprite,Background,Centre,"sb\a\0079.png",0,0 S,0,229140,,0.5 F,0,229140,229340,0,1 M,0,229140,231990,550.1287,263.8787,450.1287,263.8787 F,0,231790,231990,1,0
Sprite,Background,Centre,"sb\a\0074.png",0,0 S,0,229140,,0.5 F,0,229140,229340,0,1 M,0,229140,231990,567.3787,258.1287,467.3787,258.1287 F,0,231790,231990,1,0
Sprite,Background,Centre,"sb\a\0065.png",0,0 S,0,229140,,0.5 F,0,229140,229340,0,1 M,0,229140,231990,583.6287,260.6287,483.6287,260.6287 F,0,231790,231990,1,0
Sprite,Background,Centre,"sb\a\0068.png",0,0 S,0,234850,,0.5 F,0,234850,235050,0,1 M,0,234850,237710,436.6287,258.1287,336.6287,258.1287 F,0,237510,237710,1,0
Sprite,Background,Centre,"sb\a\0079.png",0,0 S,0,234850,,0.5 F,0,234850,235050,0,1 M,0,234850,237710,457.1287,263.8787,357.1287,263.8787 F,0,237510,237710,1,0
Sprite,Background,Centre,"sb\a\0070.png",0,0 S,0,234850,,0.5 F,0,234850,235050,0,1 M,0,234850,237710,477.6287,263.8787,377.6287,263.8787 F,0,237510,237710,1,0
Sprite,Background,Centre,"sb\a\0065.png",0,0 S,0,234850,,0.5 F,0,234850,235050,0,1 M,0,234850,237710,497.1287,260.6287,397.1287,260.6287 F,0,237510,237710,1,0
Sprite,Background,Centre,"sb\a\0072.png",0,0 S,0,234850,,0.5 F,0,234850,235050,0,1 M,0,234850,237710,513.6287,260.6287,413.6287,260.6287 F,0,237510,237710,1,0
Sprite,Background,Centre,"sb\a\0063.png",0,0 S,0,234850,,0.5 F,0,234850,235050,0,1 M,0,234850,237710,530.1287,260.6287,430.1287,260.6287 F,0,237510,237710,1,0
Sprite,Background,Centre,"sb\a\0079.png",0,0 S,0,234850,,0.5 F,0,234850,235050,0,1 M,0,234850,237710,550.1287,263.8787,450.1287,263.8787 F,0,237510,237710,1,0
Sprite,Background,Centre,"sb\a\0074.png",0,0 S,0,234850,,0.5 F,0,234850,235050,0,1 M,0,234850,237710,567.3787,258.1287,467.3787,258.1287 F,0,237510,237710,1,0
Sprite,Background,Centre,"sb\a\0065.png",0,0 S,0,234850,,0.5 F,0,234850,235050,0,1 M,0,234850,237710,583.6287,260.6287,483.6287,260.6287 F,0,237510,237710,1,0
Sprite,Background,Centre,"sb\a\0068.png",0,0 S,0,240560,,0.5 F,0,240560,240760,0,1 M,0,240560,246280,436.6287,258.1287,336.6287,258.1287 F,0,246080,246280,1,0
Sprite,Background,Centre,"sb\a\0079.png",0,0 S,0,240560,,0.5 F,0,240560,240760,0,1 M,0,240560,246280,457.1287,263.8787,357.1287,263.8787 F,0,246080,246280,1,0
Sprite,Background,Centre,"sb\a\0070.png",0,0 S,0,240560,,0.5 F,0,240560,240760,0,1 M,0,240560,246280,477.6287,263.8787,377.6287,263.8787 F,0,246080,246280,1,0
Sprite,Background,Centre,"sb\a\0065.png",0,0 S,0,240560,,0.5 F,0,240560,240760,0,1 M,0,240560,246280,497.1287,260.6287,397.1287,260.6287 F,0,246080,246280,1,0
Sprite,Background,Centre,"sb\a\0072.png",0,0 S,0,240560,,0.5 F,0,240560,240760,0,1 M,0,240560,246280,513.6287,260.6287,413.6287,260.6287 F,0,246080,246280,1,0
Sprite,Background,Centre,"sb\a\0063.png",0,0 S,0,240560,,0.5 F,0,240560,240760,0,1 M,0,240560,246280,530.1287,260.6287,430.1287,260.6287 F,0,246080,246280,1,0
Sprite,Background,Centre,"sb\a\0079.png",0,0 S,0,240560,,0.5 F,0,240560,240760,0,1 M,0,240560,246280,550.1287,263.8787,450.1287,263.8787 F,0,246080,246280,1,0
Sprite,Background,Centre,"sb\a\0074.png",0,0 S,0,240560,,0.5 F,0,240560,240760,0,1 M,0,240560,246280,567.3787,258.1287,467.3787,258.1287 F,0,246080,246280,1,0
Sprite,Background,Centre,"sb\a\0065.png",0,0 S,0,240560,,0.5 F,0,240560,240760,0,1 M,0,240560,246280,583.6287,260.6287,483.6287,260.6287 F,0,246080,246280,1,0
Sprite,Background,Centre,"sb\a\0068.png",0,0 S,0,249140,,0.5 F,0,249140,249340,0,1 M,0,249140,251990,436.6287,258.1287,336.6287,258.1287 F,0,251790,251990,1,0
Sprite,Background,Centre,"sb\a\0079.png",0,0 S,0,249140,,0.5 F,0,249140,249340,0,1 M,0,249140,251990,457.1287,263.8787,357.1287,263.8787 F,0,251790,251990,1,0
Sprite,Background,Centre,"sb\a\0070.png",0,0 S,0,249140,,0.5 F,0,249140,249340,0,1 M,0,249140,251990,477.6287,263.8787,377.6287,263.8787 F,0,251790,251990,1,0
Sprite,Background,Centre,"sb\a\0065.png",0,0 S,0,249140,,0.5 F,0,249140,249340,0,1 M,0,249140,251990,497.1287,260.6287,397.1287,260.6287 F,0,251790,251990,1,0
Sprite,Background,Centre,"sb\a\0072.png",0,0 S,0,249140,,0.5 F,0,249140,249340,0,1 M,0,249140,251990,513.6287,260.6287,413.6287,260.6287 F,0,251790,251990,1,0
Sprite,Background,Centre,"sb\a\0063.png",0,0 S,0,249140,,0.5 F,0,249140,249340,0,1 M,0,249140,251990,530.1287,260.6287,430.1287,260.6287 F,0,251790,251990,1,0
Sprite,Background,Centre,"sb\a\0079.png",0,0 S,0,249140,,0.5 F,0,249140,249340,0,1 M,0,249140,251990,550.1287,263.8787,450.1287,263.8787 F,0,251790,251990,1,0
Sprite,Background,Centre,"sb\a\0074.png",0,0 S,0,249140,,0.5 F,0,249140,249340,0,1 M,0,249140,251990,567.3787,258.1287,467.3787,258.1287 F,0,251790,251990,1,0
Sprite,Background,Centre,"sb\a\0065.png",0,0 S,0,249140,,0.5 F,0,249140,249340,0,1 M,0,249140,251990,583.6287,260.6287,483.6287,260.6287 F,0,251790,251990,1,0
Sprite,Background,Centre,"sb\a\0068.png",0,0 S,0,254850,,0.5 F,0,254850,255050,0,1 M,0,254850,257700,436.6287,258.1287,336.6287,258.1287 F,0,257500,257700,1,0
Sprite,Background,Centre,"sb\a\0079.png",0,0 S,0,254850,,0.5 F,0,254850,255050,0,1 M,0,254850,257700,457.1287,263.8787,357.1287,263.8787 F,0,257500,257700,1,0
Sprite,Background,Centre,"sb\a\0070.png",0,0 S,0,254850,,0.5 F,0,254850,255050,0,1 M,0,254850,257700,477.6287,263.8787,377.6287,263.8787 F,0,257500,257700,1,0
Sprite,Background,Centre,"sb\a\0065.png",0,0 S,0,254850,,0.5 F,0,254850,255050,0,1 M,0,254850,257700,497.1287,260.6287,397.1287,260.6287 F,0,257500,257700,1,0
Sprite,Background,Centre,"sb\a\0072.png",0,0 S,0,254850,,0.5 F,0,254850,255050,0,1 M,0,254850,257700,513.6287,260.6287,413.6287,260.6287 F,0,257500,257700,1,0
Sprite,Background,Centre,"sb\a\0063.png",0,0 S,0,254850,,0.5 F,0,254850,255050,0,1 M,0,254850,257700,530.1287,260.6287,430.1287,260.6287 F,0,257500,257700,1,0
Sprite,Background,Centre,"sb\a\0079.png",0,0 S,0,254850,,0.5 F,0,254850,255050,0,1 M,0,254850,257700,550.1287,263.8787,450.1287,263.8787 F,0,257500,257700,1,0
Sprite,Background,Centre,"sb\a\0074.png",0,0 S,0,254850,,0.5 F,0,254850,255050,0,1 M,0,254850,257700,567.3787,258.1287,467.3787,258.1287 F,0,257500,257700,1,0
Sprite,Background,Centre,"sb\a\0065.png",0,0 S,0,254850,,0.5 F,0,254850,255050,0,1 M,0,254850,257700,583.6287,260.6287,483.6287,260.6287 F,0,257500,257700,1,0
Sprite,Background,Centre,"sb\hypercyte.png",0,0 S,0,254850,,0.2 F,0,254850,254950,0,1 M,0,254850,257707,500,200,400,200 P,0,254850,257707,H F,0,257607,257707,1,0
Sprite,Background,Centre,"sb\hypercyte.png",0,0 S,0,183422,,0.2 F,0,183422,183522,0,1 M,0,183422,194850,500,200,400,200 P,0,183422,194950,H F,0,194850,194950,1,0
Sprite,Background,Centre,"sb\iceluin.png",0,0 S,0,194850,,0.2 F,0,194850,194950,0,1 M,0,194850,206279,100,200,200,200 P,0,194850,206379,H F,0,206279,206379,1,0
//Storyboard Layer 1 (Fail)
//Storyboard Layer 2 (Pass)
//Storyboard Layer 3 (Foreground)
//Storyboard Layer 4 (Overlay)
//Storyboard Sound Samples

[TimingPoints]
565,357.142857142857,4,2,4,44,1,0
6547,-100,4,2,4,5,0,0
6636,-100,4,2,4,44,0,0
11636,-100,4,2,4,44,0,0
11904,-100,4,2,4,5,0,0
11993,-100,4,2,4,54,0,0
13332,-100,4,2,4,5,0,0
13422,-100,4,2,4,54,0,0
14761,-100,4,2,4,5,0,0
14850,-100,4,2,4,54,0,0
19047,-100,4,2,4,5,0,0
19136,-100,4,2,4,54,0,0
20475,-100,4,2,4,5,0,0
20564,-100,4,2,4,54,0,0
23064,-100,4,2,4,54,0,0
23332,-100,4,2,4,5,0,0
23422,-100,4,2,4,54,0,0
31904,-100,4,2,4,5,0,0
31993,-100,4,2,4,54,0,0
34493,-100,4,2,4,54,0,0
34761,-100,4,2,4,5,0,0
34850,-100,4,2,4,64,0,0
44939,-100,4,2,4,5,0,0
45029,-100,4,2,4,64,0,0
45118,-100,4,2,4,5,0,0
45207,-100,4,2,4,64,0,0
45297,-100,4,2,4,5,0,0
45386,-100,4,2,4,64,0,0
45564,-100,4,2,4,64,0,0
45743,-100,4,2,4,64,0,0
46279,-100,4,2,4,74,0,0
47975,-100,4,2,4,5,0,0
48064,-100,4,2,4,74,0,0
50832,-100,4,2,4,5,0,0
50922,-100,4,2,4,74,0,0
57618,-100,4,2,4,5,0,0
57707,-100,4,2,4,74,0,0
59404,-100,4,2,4,5,0,0
59493,-100,4,2,4,74,0,0
62261,-100,4,2,4,5,0,0
62350,-100,4,2,4,74,0,0
67975,-100,4,2,4,5,0,0
68064,-100,4,2,4,74,0,0
69136,-100,4,2,4,44,0,0
71993,-100,4,2,4,44,0,0
74850,-100,4,2,4,54,0,0
86279,-100,4,2,4,54,0,0
87618,-100,4,2,4,5,0,0
87707,-100,4,2,4,54,0,0
89047,-100,4,2,4,5,0,0
89136,-100,4,2,4,54,0,0
93332,-100,4,2,4,5,0,0
93422,-100,4,2,4,54,0,0
97350,-100,4,2,4,54,0,0
97618,-100,4,2,4,5,0,0
97707,-100,4,2,4,54,0,0
106189,-100,4,2,4,5,0,0
106279,-100,4,2,4,54,0,0
108689,-100,4,2,4,5,0,0
108779,-100,4,2,4,54,0,0
109047,-100,4,2,4,5,0,0
109136,-100,4,2,4,64,0,0
112261,-100,4,2,4,5,0,0
112350,-100,4,2,4,64,0,0
119225,-100,4,2,4,5,0,0
119314,-100,4,2,4,64,0,0
119404,-100,4,2,4,5,0,0
119493,-100,4,2,4,64,0,0
119582,-100,4,2,4,5,0,0
119672,-100,4,2,4,64,0,0
119850,-100,4,2,4,64,0,0
120029,-100,4,2,4,64,0,0
120564,-100,4,2,4,74,0,0
122261,-100,4,2,4,5,0,0
122350,-100,4,2,4,74,0,0
125118,-100,4,2,4,5,0,0
125207,-100,4,2,4,74,0,0
132261,-100,4,2,4,5,0,0
132350,-100,4,2,4,74,0,0
137618,-100,4,2,4,5,0,0
137707,-100,4,2,4,74,0,0
140475,-100,4,2,4,5,0,0
140564,-100,4,2,4,74,0,0
143422,-100,4,2,4,44,0,0
144136,-100,4,2,4,44,0,0
144850,-100,4,2,4,44,0,0
146279,-100,4,2,4,44,0,0
149136,-100,4,2,4,34,0,0
160207,-100,4,2,4,34,0,0
160475,-100,4,2,4,5,0,0
160564,-100,4,2,4,44,0,0
166279,-100,4,2,4,54,0,0
169136,-100,4,2,4,64,0,0
171993,-100,4,2,4,34,0,0
182350,-100,4,2,4,34,0,0
182618,-100,4,2,4,5,0,0
182707,-100,4,2,4,34,0,0
182975,-100,4,2,4,5,0,0
183064,-100,4,2,4,34,0,0
183332,-100,4,2,4,5,0,0
183422,-100,4,2,4,44,0,0
183689,-100,4,2,4,5,0,0
183779,-100,4,2,4,44,0,0
189404,-100,4,2,4,5,0,0
189493,-100,4,2,4,44,0,0
194850,-100,4,2,4,64,0,0
203689,-100,4,2,4,5,0,0
203779,-100,4,2,4,64,0,0
204939,-100,4,2,4,5,0,0
205029,-100,4,2,4,64,0,0
205118,-100,4,2,4,5,0,0
205207,-100,4,2,4,64,0,0
205297,-100,4,2,4,5,0,0
205386,-100,4,2,4,64,0,0
205743,-100,4,2,4,64,0,0
206279,-100,4,2,4,44,0,0
216993,-100,4,2,4,44,0,0
217618,-100,4,2,4,5,0,0
217707,-100,4,2,4,84,0,0
217975,-100,4,2,4,5,0,0
218064,-100,4,2,4,84,0,0
219404,-100,4,2,4,5,0,0
219493,-100,4,2,4,84,0,0
220832,-100,4,2,4,5,0,0
220922,-100,4,2,4,84,0,0
222261,-100,4,2,4,5,0,0
222350,-100,4,2,4,84,0,0
225654,-100,4,2,4,5,0,0
225743,-100,4,2,4,84,0,0
229404,-100,4,2,4,5,0,0
229493,-100,4,2,4,84,0,0
230832,-100,4,2,4,5,0,0
230922,-100,4,2,4,84,0,0
232261,-100,4,2,4,5,0,0
232350,-100,4,2,4,84,0,0
233689,-100,4,2,4,5,0,0
233779,-100,4,2,4,84,0,0
237618,-100,4,2,4,5,0,0
237707,-100,4,2,4,84,0,0
240564,-100,4,2,4,44,0,0
243422,-100,4,2,4,64,0,0
246279,-100,4,2,4,54,0,0
251547,-100,4,2,4,5,0,0
251636,-100,4,2,4,54,0,0
257350,-100,4,2,4,5,0,0

[Colours]
Combo1 : 182,199,243
Combo2 : 250,199,217
Combo3 : 245,213,180

[HitObjects]
119,96,565,6,0,L|242:90,1,104,10|8,0:0|0:0,0:0:0:0:
269,90,1100,1,2,0:3:0:0:
269,90,1279,2,0,P|309:144|297:193,1,104,10|10,0:0|0:0,0:0:0:0:
229,232,1993,2,0,P|204:299|232:343,1,104,10|10,0:0|0:0,0:0:0:0:
254,350,2529,1,2,0:0:0:0:
254,350,2707,2,0,L|358:332,1,104,8|8,0:0|0:0,0:0:0:0:
439,287,3422,6,0,P|480:326|473:380,2,104,10|8|10,0:0|0:0|0:0,0:0:0:0:
370,222,4493,1,10,0:0:0:0:
395,132,4850,2,0,L|506:112,2,104,10|10|10,0:0|0:0|0:0,0:0:0:0:
308,96,5922,1,8,0:0:0:0:
219,125,6279,6,0,L|106:101,1,104,14|8,0:0|0:0,0:0:0:0:
71,110,6814,2,0,P|38:166|62:216,1,104,8|8,0:1|0:0,0:0:0:0:
79,234,7350,1,8,0:1:0:0:
170,254,7707,2,0,L|290:237,1,104,10|10,0:1|0:1,0:0:0:0:
309,210,8243,2,0,L|411:224,1,104,10|8,0:1|0:1,0:0:0:0:
458,232,8779,1,10,0:1:0:0:
506,311,9136,5,10,0:0:0:0:
425,358,9493,1,10,0:0:0:0:
338,321,9850,1,10,0:0:0:0:
260,373,10207,1,10,0:0:0:0:
173,336,10564,2,0,L|52:352,2,104,10|2|2,0:0|0:0|0:0,0:0:0:0:
286,186,11993,6,0,P|301:137|284:88,1,104,12|8,0:0|0:1,0:0:0:0:
252,53,12529,1,8,0:1:0:0:
252,53,12707,2,0,L|147:53,1,104,2|10,0:0|0:1,0:0:0:0:
69,2,13422,2,0,P|84:50|67:99,1,104,8|8,0:0|0:1,0:0:0:0:
39,136,13957,1,8,0:1:0:0:
39,136,14136,2,0,P|22:184|37:233,1,104,2|10,0:0|0:1,0:0:0:0:
110,291,14850,6,0,L|212:274,1,104,8|10,0:0|0:1,0:0:0:0:
250,303,15386,1,10,0:1:0:0:
250,303,15564,2,0,L|352:286,1,104,2|10,0:0|0:1,0:0:0:0:
436,328,16279,1,10,0:0:0:0:
475,245,16636,1,10,0:1:0:0:
475,245,16814,2,0,B|458:142,1,104,10|8,0:1|0:0,0:0:0:0:
421,113,17350,2,0,P|391:117|359:112,1,52,8|2,0:1|0:0,0:0:0:0:
334,83,17707,6,0,P|285:67|236:82,1,104,12|8,0:0|0:1,0:0:0:0:
153,125,18422,2,0,L|101:116,2,52,2|0|10,0:0|0:0|0:1,0:0:0:0:
215,194,19136,2,0,P|230:242|215:291,1,104,8|8,0:0|0:1,0:0:0:0:
130,333,19850,2,0,L|138:384,2,52,2|8|8,0:0|0:0|0:1,0:0:0:0:
53,279,20564,6,0,P|37:230|52:181,1,104,10|10,0:0|0:1,0:0:0:0:
83,147,21100,1,10,0:1:0:0:
83,147,21279,2,0,P|97:97|81:49,1,104,2|10,0:0|0:1,0:0:0:0:
161,1,21993,2,0,P|187:-2|212:2,1,52,10|8,0:0|0:0,0:0:0:0:
248,40,22350,1,10,0:1:0:0:
248,40,22529,2,0,L|350:23,1,104,10|8,0:1|0:0,0:0:0:0:
396,14,23064,1,8,0:1:0:0:
466,76,23422,6,0,P|482:136|462:177,1,104,14|10,0:0|0:1,0:0:0:0:
428,200,23957,1,8,0:1:0:0:
428,200,24136,2,0,L|320:190,1,104,2|10,0:0|0:1,0:0:0:0:
230,188,24850,1,14,0:0:0:0:
230,188,25029,2,0,P|202:236|221:281,1,104,2|8,0:0|0:1,0:0:0:0:
258,300,25564,1,2,0:0:0:0:
258,300,25743,2,0,L|363:273,1,104,10|2,0:0|0:0,0:0:0:0:
404,263,26279,6,0,P|442:298|426:354,2,104,14|10|2,0:0|0:1|0:0,0:0:0:0:
358,180,27350,1,10,0:1:0:0:
270,213,27707,5,14,0:0:0:0:
186,171,28064,1,10,0:1:0:0:
107,222,28422,2,0,P|44:203|22:166,1,104,2|8,0:0|0:1,0:0:0:0:
22,79,29136,2,0,B|54:85|82:70|73:60|98:45|123:45,1,104,14|10,0:0|0:1,0:0:0:0:
160,62,29672,1,8,0:1:0:0:
160,62,29850,2,0,P|215:69|262:52,1,104,2|10,0:0|0:1,0:0:0:0:
353,47,30564,5,14,0:0:0:0:
353,47,30743,2,0,L|333:168,1,104,2|10,0:0|0:1,0:0:0:0:
311,189,31279,2,0,L|331:310,1,104,2|10,0:0|0:1,0:0:0:0:
257,353,31993,6,0,P|207:346|186:289,1,104,14|10,0:0|0:1,0:0:0:0:
188,255,32529,2,0,P|178:204|140:154,1,104,10|8,0:1|0:0,0:0:0:0:
102,162,33064,1,10,0:1:0:0:
123,70,33422,6,0,L|184:53,1,52,14|2,0:1|0:0,0:0:0:0:
218,66,33779,2,0,L|279:49,1,52,10|10,0:0|0:1,0:0:0:0:
312,37,34136,1,2,0:0:0:0:
399,69,34493,1,8,0:0:0:0:
342,143,34850,6,0,P|323:190|334:244,1,104,14|10,0:0|0:1,0:0:0:0:
360,278,35386,2,0,L|257:294,1,104,10|2,0:1|0:0,0:0:0:0:
179,346,36100,2,0,L|76:329,1,104,10|10,0:0|0:0,0:0:0:0:
38,302,36636,1,8,0:1:0:0:
38,302,36814,2,0,B|52:252|52:252|37:201,1,104,10|10,0:1|0:0,0:0:0:0:
14,161,37350,1,10,0:1:0:0:
91,108,37707,6,0,P|140:93|189:106,1,104,12|8,0:0|0:1,0:0:0:0:
224,137,38243,2,0,B|274:151|274:151|324:136,1,104,10|2,0:1|0:0,0:0:0:0:
362,122,38779,1,8,0:1:0:0:
362,122,38957,1,10,0:0:0:0:
441,170,39314,1,8,0:0:0:0:
441,170,39493,2,0,P|455:120|437:70,1,104,10|10,0:1|0:0,0:0:0:0:
365,13,40207,1,8,0:1:0:0:
278,45,40564,6,0,B|227:59|227:59|177:45,1,104,14|10,0:0|0:1,0:0:0:0:
138,71,41100,2,0,L|121:173,1,104,10|2,0:1|0:0,0:0:0:0:
61,244,41814,2,0,P|111:235|158:256,1,104,10|10,0:0|0:0,0:0:0:0:
192,288,42350,1,8,0:1:0:0:
192,288,42529,2,0,L|294:271,1,104,10|10,0:1|0:0,0:0:0:0:
334,296,43064,1,14,0:1:0:0:
405,235,43422,6,0,B|419:185|419:185|404:134,1,104,12|10,0:0|0:1,0:0:0:0:
453,55,44136,2,0,B|403:41|403:41|352:55,1,104,10|10,0:1|0:1,0:0:0:0:
275,108,44850,6,0,L|223:99,1,52,10|10,0:1|0:0,0:0:0:0:
188,130,45207,2,0,L|136:121,1,52,10|10,0:0|0:1,0:0:0:0:
101,152,45564,1,10,0:1:0:0:
278,210,46279,6,0,L|386:199,1,104,12|8,0:0|0:1,0:0:0:0:
474,207,46993,2,0,P|489:250|487:268,1,52,2|10,0:0|0:0,0:0:0:0:
454,287,47350,2,0,P|434:328|420:339,1,52,10|2,0:1|0:0,0:0:0:0:
383,337,47707,1,14,0:0:0:0:
289,329,48064,1,10,0:1:0:0:
289,329,48243,2,0,L|165:349,1,104,8|10,0:1|0:0,0:0:0:0:
139,348,48779,1,10,0:1:0:0:
86,270,49136,6,0,B|93:215|93:215|87:199|87:199|91:153,1,104,12|8,0:0|0:1,0:0:0:0:
56,80,49850,2,0,P|88:59|116:57,1,52,2|10,0:0|0:0,0:0:0:0:
135,24,50207,2,0,P|172:31|193:50,1,52,10|2,0:1|0:0,0:0:0:0:
212,76,50564,1,14,0:0:0:0:
301,117,50922,1,8,0:1:0:0:
301,117,51100,2,0,P|285:174|279:233,1,104,8|8,0:1|0:0,0:0:0:0:
301,259,51636,1,14,0:1:0:0:
370,322,51993,6,0,L|479:306,2,104,14|10|2,0:0|0:1|0:0,0:0:0:0:
278,342,53064,2,0,L|222:339,1,52,10|0,0:1|0:0,0:0:0:0:
181,353,53422,2,0,L|55:370,1,104,14|10,0:0|0:1,0:0:0:0:
31,374,53957,1,10,0:1:0:0:
24,280,54314,1,10,0:0:0:0:
24,280,54493,2,0,L|16:209,1,52,10|0,0:1|0:0,0:0:0:0:
39,186,54850,6,0,B|83:185|83:185|105:190|105:190|146:188,2,104,14|10|2,0:0|0:1|0:0,0:0:0:0:
24,278,55922,1,10,0:1:0:0:
106,322,56279,2,0,L|209:316,1,104,10|14,0:0|0:1,0:0:0:0:
244,284,56814,1,8,0:0:0:0:
244,284,56993,2,0,L|347:278,1,104,8|14,0:1|0:1,0:0:0:0:
428,325,57707,6,0,P|413:275|424:225,1,104,14|8,0:0|0:1,0:0:0:0:
455,137,58422,2,0,P|429:131|403:134,1,52,2|10,0:0|0:0,0:0:0:0:
362,156,58779,2,0,P|336:158|310:153,1,52,10|2,0:1|0:0,0:0:0:0:
276,121,59136,2,0,P|226:106|176:117,1,104,14|10,0:0|0:1,0:0:0:0:
138,144,59672,1,8,0:1:0:0:
169,232,60029,1,10,0:0:0:0:
169,232,60207,2,0,L|160:283,1,52,10|2,0:1|0:0,0:0:0:0:
195,314,60564,6,0,P|244:328|294:317,1,104,12|8,0:0|0:1,0:0:0:0:
375,270,61279,2,0,L|383:218,1,52,2|10,0:0|0:0,0:0:0:0:
416,185,61636,2,0,L|407:133,1,52,10|2,0:1|0:0,0:0:0:0:
378,96,61993,2,0,B|328:82|328:82|277:97,1,104,14|10,0:0|0:1,0:0:0:0:
237,121,62529,1,8,0:1:0:0:
156,73,62886,1,8,0:0:0:0:
156,73,63064,1,10,0:1:0:0:
76,122,63422,6,0,B|62:172|62:172|77:223,1,104,14|10,0:0|0:1,0:0:0:0:
111,252,63957,1,10,0:1:0:0:
111,252,64136,2,0,L|214:251,1,104,2|10,0:0|0:1,0:0:0:0:
290,306,64850,2,0,L|342:306,1,52,14|0,0:0|0:0,0:0:0:0:
378,277,65207,1,10,0:1:0:0:
378,277,65386,2,0,P|365:225|378:176,1,104,10|10,0:1|0:0,0:0:0:0:
401,136,65922,1,10,0:1:0:0:
348,58,66279,6,0,B|298:44|298:44|247:59,1,104,14|10,0:0|0:1,0:0:0:0:
211,88,66814,1,10,0:1:0:0:
211,88,66993,2,0,P|159:100|110:87,1,104,2|10,0:0|0:1,0:0:0:0:
72,114,67529,1,8,0:0:0:0:
72,114,67707,2,0,B|58:164|58:164|73:215,1,104,10|10,0:0|0:1,0:0:0:0:
144,274,68422,2,0,B|193:259|193:259|243:273,1,104,2|10,0:0|0:1,0:0:0:0:
336,261,69136,6,0,P|364:213|350:163,2,104,12|8|8,0:0|0:0|0:0,0:0:0:0:
258,313,70207,1,8,0:0:0:0:
170,279,70564,2,0,L|64:301,2,104,8|8|8,0:0|0:0|0:0,0:0:0:0:
211,194,71636,1,8,0:0:0:0:
279,129,71993,6,0,B|328:142|328:142|387:120,1,104,8|8,0:1|0:1,0:0:0:0:
424,122,72529,2,0,P|452:170|426:226,1,104,8|8,0:1|0:1,0:0:0:0:
400,239,73064,1,0,0:1:0:0:
400,239,73243,2,0,P|383:289|420:349,1,104,4|8,0:3|0:1,0:0:0:0:
445,352,73779,1,8,0:1:0:0:
511,285,74136,1,8,0:1:0:0:
452,107,74850,6,0,P|402:93|351:107,1,104,14|8,0:0|0:1,0:0:0:0:
311,127,75386,1,8,0:1:0:0:
311,127,75564,2,0,P|261:140|211:126,1,104,10|10,0:0|0:1,0:0:0:0:
130,80,76279,2,0,B|148:126|148:126|130:177,1,104,10|10,0:0|0:1,0:0:0:0:
93,206,76814,2,0,P|71:252|78:303,1,104,10|8,0:1|0:0,0:0:0:0:
111,336,77350,1,8,0:1:0:0:
201,310,77707,6,0,L|305:311,1,104,14|10,0:0|0:1,0:0:0:0:
339,279,78243,1,8,0:1:0:0:
339,279,78422,2,0,B|320:232|320:232|338:181,1,104,10|10,0:0|0:1,0:0:0:0:
386,101,79136,2,0,B|335:83|335:83|288:101,2,104,10|14|10,0:0|0:1|0:0,0:0:0:0:
463,152,80207,1,12,0:1:0:0:
417,234,80564,6,0,L|433:336,1,104,14|10,0:0|0:1,0:0:0:0:
401,371,81100,1,8,0:1:0:0:
401,370,81279,2,0,P|354:349|303:356,1,104,0|8,0:0|0:1,0:0:0:0:
229,298,81993,2,0,L|126:315,1,104,10|8,0:0|0:1,0:0:0:0:
82,298,82529,2,0,P|60:251|67:200,1,104,8|8,0:1|0:0,0:0:0:0:
93,161,83064,1,8,0:1:0:0:
58,73,83422,5,14,0:0:0:0:
131,13,83779,1,10,0:0:0:0:
210,63,84136,1,10,0:0:0:0:
187,154,84493,1,10,0:0:0:0:
267,204,84850,6,0,L|318:195,1,52,10|10,0:1|0:0,0:0:0:0:
358,170,85207,2,0,L|409:178,1,52,10|10,0:1|0:0,0:0:0:0:
449,153,85564,1,10,0:0:0:0:
314,22,86279,6,0,P|265:5|216:20,1,104,12|8,0:0|0:1,0:0:0:0:
190,59,86814,1,8,0:1:0:0:
190,59,86993,2,0,L|190:164,1,104,2|10,0:0|0:1,0:0:0:0:
195,256,87707,2,0,P|243:241|292:258,1,104,8|8,0:0|0:1,0:0:0:0:
342,263,88243,1,8,0:1:0:0:
342,263,88422,2,0,P|359:215|344:166,1,104,2|10,0:0|0:1,0:0:0:0:
298,84,89136,6,0,L|196:101,1,104,8|10,0:0|0:1,0:0:0:0:
166,71,89672,1,10,0:1:0:0:
166,71,89850,2,0,L|64:88,1,104,2|10,0:0|0:1,0:0:0:0:
16,169,90564,1,10,0:0:0:0:
72,243,90922,1,10,0:1:0:0:
72,243,91100,2,0,P|145:244|183:216,1,104,10|8,0:1|0:0,0:0:0:0:
201,194,91636,2,0,P|231:190|263:195,1,52,8|2,0:1|0:0,0:0:0:0:
294,212,91993,6,0,B|346:228|346:228|407:204,1,104,12|8,0:0|0:1,0:0:0:0:
434,293,92707,2,0,L|486:302,2,52,2|0|10,0:0|0:0|0:1,0:0:0:0:
357,346,93422,2,0,L|236:351,1,104,8|8,0:0|0:1,0:0:0:0:
165,318,94136,2,0,L|109:322,2,52,2|8|8,0:0|0:0|0:1,0:0:0:0:
239,262,94850,6,0,P|253:212|237:164,1,104,10|10,0:0|0:1,0:0:0:0:
206,137,95386,1,10,0:1:0:0:
206,137,95564,2,0,P|192:87|208:39,1,104,2|10,0:0|0:1,0:0:0:0:
300,28,96279,2,0,L|409:21,1,104,10|10,0:0|0:1,0:0:0:0:
448,36,96814,2,0,P|473:96|453:151,1,104,10|8,0:1|0:0,0:0:0:0:
433,167,97350,1,8,0:1:0:0:
343,140,97707,6,0,P|294:123|245:137,1,104,14|10,0:0|0:1,0:0:0:0:
209,167,98243,1,8,0:1:0:0:
209,167,98422,2,0,L|226:275,1,104,2|10,0:0|0:1,0:0:0:0:
165,341,99136,1,14,0:0:0:0:
165,341,99314,2,0,P|115:355|67:338,1,104,2|8,0:0|0:1,0:0:0:0:
31,308,99850,1,2,0:0:0:0:
31,308,100029,2,0,L|47:205,1,104,10|2,0:0|0:0,0:0:0:0:
78,169,100564,2,0,L|61:66,2,104,14|10|2,0:0|0:1|0:0,0:0:0:0:
164,205,101636,1,10,0:1:0:0:
233,142,101993,5,14,0:0:0:0:
315,185,102350,1,10,0:1:0:0:
402,151,102707,2,0,P|452:141|496:166,1,104,2|8,0:0|0:1,0:0:0:0:
432,238,103422,2,0,B|407:253|397:278|418:285|409:308|386:326,1,104,14|10,0:0|0:1,0:0:0:0:
351,357,103957,1,8,0:1:0:0:
351,357,104136,2,0,P|296:364|249:347,1,104,2|10,0:0|0:1,0:0:0:0:
171,298,104850,5,14,0:0:0:0:
171,298,105029,2,0,L|187:195,1,104,2|10,0:0|0:1,0:0:0:0:
155,161,105564,2,0,L|171:58,1,104,2|10,0:0|0:1,0:0:0:0:
256,19,106279,6,0,P|311:12|358:29,1,104,14|10,0:0|0:1,0:0:0:0:
384,64,106814,2,0,P|377:119|394:166,1,104,10|8,0:1|0:0,0:0:0:0:
427,194,107350,1,10,0:1:0:0:
364,263,107707,6,0,L|312:254,1,52,14|2,0:1|0:0,0:0:0:0:
279,287,108064,2,0,L|227:278,1,52,10|10,0:0|0:1,0:0:0:0:
190,307,108422,1,2,0:0:0:0:
115,250,108779,1,12,0:0:0:0:
159,167,109136,6,0,P|178:120|167:66,1,104,14|10,0:0|0:1,0:0:0:0:
193,29,109672,2,0,L|296:13,1,104,10|2,0:1|0:0,0:0:0:0:
358,82,110386,2,0,L|461:99,1,104,10|10,0:0|0:0,0:0:0:0:
500,123,110922,1,8,0:1:0:0:
500,123,111100,2,0,P|511:173|500:223,1,104,10|10,0:1|0:0,0:0:0:0:
467,256,111636,1,10,0:1:0:0:
378,224,111993,6,0,P|329:209|280:222,1,104,12|8,0:0|0:1,0:0:0:0:
249,262,112529,2,0,B|199:276|199:276|149:261,1,104,10|2,0:1|0:0,0:0:0:0:
125,226,113064,1,8,0:1:0:0:
125,226,113243,1,10,0:0:0:0:
36,244,113600,1,8,0:0:0:0:
36,244,113779,2,0,P|21:293|38:341,1,104,10|10,0:1|0:0,0:0:0:0:
125,375,114493,1,8,0:1:0:0:
212,343,114850,6,0,B|325:345,1,104,14|10,0:0|0:1,0:0:0:0:
362,340,115386,2,0,B|385:293|385:293|361:242,1,104,10|2,0:1|0:0,0:0:0:0:
404,162,116100,2,0,L|297:149,1,104,10|0,0:0|0:0,0:0:0:0:
275,116,116636,1,8,0:1:0:0:
275,116,116814,2,0,L|166:130,1,104,10|10,0:1|0:0,0:0:0:0:
125,138,117350,1,14,0:1:0:0:
33,121,117707,6,0,B|19:71|19:71|34:20,1,104,12|10,0:0|0:1,0:0:0:0:
126,5,118422,2,0,B|239:17,1,104,10|10,0:1|0:1,0:0:0:0:
283,92,119136,6,0,L|335:101,1,52,10|10,0:1|0:0,0:0:0:0:
380,93,119493,2,0,L|432:102,1,52,10|10,0:0|0:1,0:0:0:0:
477,111,119850,1,10,0:1:0:0:
412,286,120564,6,0,L|309:269,1,104,12|8,0:0|0:1,0:0:0:0:
238,331,121279,2,0,L|186:322,1,52,2|10,0:0|0:0,0:0:0:0:
158,284,121636,2,0,L|106:275,1,52,10|2,0:1|0:0,0:0:0:0:
70,245,121993,1,14,0:0:0:0:
123,167,122350,1,10,0:1:0:0:
123,167,122529,2,0,P|139:118|126:68,1,104,8|10,0:1|0:0,0:0:0:0:
155,31,123064,1,10,0:1:0:0:
236,77,123422,6,0,B|288:92|288:92|335:76,1,104,12|8,0:0|0:1,0:0:0:0:
414,126,124136,2,0,L|405:177,1,52,2|10,0:0|0:0,0:0:0:0:
374,212,124493,2,0,L|382:263,1,52,10|2,0:1|0:0,0:0:0:0:
356,302,124850,1,14,0:0:0:0:
266,274,125207,1,8,0:1:0:0:
266,274,125386,2,0,L|163:290,1,104,8|8,0:1|0:0,0:0:0:0:
126,319,125922,1,10,0:1:0:0:
43,271,126279,6,0,P|25:224|34:173,2,104,14|10|2,0:0|0:1|0:0,0:0:0:0:
118,216,127350,2,0,L|169:207,1,52,10|0,0:1|0:0,0:0:0:0:
213,190,127707,6,0,P|219:138|200:90,1,104,14|10,0:0|0:1,0:0:0:0:
180,48,128243,1,10,0:1:0:0:
266,6,128600,1,10,0:0:0:0:
266,6,128779,1,10,0:1:0:0:
341,61,129136,6,0,B|445:61,2,104,14|10|2,0:0|0:1|0:0,0:0:0:0:
278,131,130207,1,10,0:1:0:0:
340,201,130564,2,0,L|454:200,1,104,10|10,0:0|0:1,0:0:0:0:
480,228,131100,1,8,0:0:0:0:
480,228,131279,2,0,P|491:278|478:328,1,104,8|10,0:1|0:1,0:0:0:0:
392,366,131993,5,12,0:0:0:0:
306,327,132350,2,0,P|282:286|302:227,1,104,10|2,0:1|0:0,0:0:0:0:
324,197,132886,1,10,0:0:0:0:
324,197,133064,1,10,0:1:0:0:
304,105,133422,2,0,P|267:92|217:139,1,104,14|10,0:0|0:1,0:0:0:0:
191,166,133957,2,0,L|72:149,1,104,10|10,0:1|0:0,0:0:0:0:
45,132,134493,2,0,P|41:93|58:63,1,52,10|2,0:1|0:0,0:0:0:0:
76,46,134850,5,12,0:0:0:0:
167,66,135207,1,8,0:1:0:0:
251,26,135564,2,0,L|356:40,1,104,2|10,0:0|0:1,0:0:0:0:
399,52,136100,1,2,0:0:0:0:
399,52,136279,2,0,P|424:106|400:146,1,104,14|10,0:0|0:1,0:0:0:0:
362,161,136814,1,8,0:1:0:0:
362,161,136993,2,0,L|239:162,1,104,2|10,0:0|0:1,0:0:0:0:
188,98,137707,5,14,0:0:0:0:
105,143,138064,2,0,B|91:193|91:193|106:244,1,104,10|2,0:1|0:0,0:0:0:0:
176,299,138779,1,10,0:1:0:0:
253,247,139136,2,0,L|356:246,1,104,14|10,0:0|0:1,0:0:0:0:
407,245,139672,1,10,0:1:0:0:
464,172,140029,1,10,0:0:0:0:
464,172,140207,1,10,0:1:0:0:
420,89,140564,6,0,B|370:75|370:75|319:90,1,104,14|10,0:0|0:1,0:0:0:0:
276,108,141100,1,10,0:1:0:0:
276,108,141279,2,0,L|160:93,1,104,2|10,0:0|0:1,0:0:0:0:
92,142,141993,2,0,P|71:182|71:204,1,52,10|2,0:0|0:0,0:0:0:0:
41,225,142350,2,0,P|54:268|69:283,1,52,10|10,0:1|0:1,0:0:0:0:
97,297,142707,2,0,L|213:278,1,104,2|10,0:0|0:1,0:0:0:0:
271,220,143422,6,0,P|291:266|285:318,2,104,12|8|8,0:0|0:0|0:0,0:0:0:0:
206,152,144493,1,8,0:0:0:0:
271,85,144850,2,0,P|320:98|370:84,2,104,8|8|8,0:0|0:0|0:0,0:0:0:0:
197,27,145922,1,10,0:0:0:0:
132,94,146279,6,0,B|83:107|83:107|32:90,1,104,12|8,0:1|0:1,0:0:0:0:
1,125,146814,2,0,P|-12:174|1:224,1,104,8|8,0:1|0:1,0:0:0:0:
33,258,147350,2,0,L|84:249,1,52,8|4,0:1|0:3,0:0:0:0:
256,192,147707,12,12,149136,0:0:0:0:
111,92,160564,6,0,P|160:79|210:91,1,104,8|10,0:0|0:0,0:0:0:0:
288,143,161279,2,0,B|339:158|339:158|387:143,1,104,8|10,0:0|0:0,0:0:0:0:
467,95,161993,2,0,P|453:144|465:194,1,104,10|8,0:0|0:0,0:0:0:0:
435,283,162707,2,0,B|384:268|384:268|335:282,1,104,8|8,0:0|0:0,0:0:0:0:
260,339,163422,5,10,0:0:0:0:
183,286,163779,1,8,0:0:0:0:
209,196,164136,1,8,0:0:0:0:
132,143,164493,2,0,L|80:151,1,52,10|2,0:0|0:0,0:0:0:0:
35,162,164850,2,0,L|51:264,1,104,10|8,0:0|0:0,0:0:0:0:
17,352,165564,2,0,P|63:330|114:335,1,104,10|10,0:0|0:0,0:0:0:0:
199,295,166279,6,0,L|250:303,1,52,12|0,0:0|0:0,0:0:0:0:
286,272,166636,2,0,L|337:280,1,52,10|0,0:1|0:0,0:0:0:0:
374,250,166993,2,0,P|387:200|375:150,1,104,8|10,0:0|0:1,0:0:0:0:
350,110,167529,1,0,0:0:0:0:
350,110,167707,2,0,L|246:110,1,104,10|8,0:0|0:1,0:0:0:0:
179,43,168422,2,0,L|75:43,1,104,10|8,0:1|0:1,0:0:0:0:
2,102,169136,6,0,L|2:154,1,52,14|8,0:1|0:0,0:0:0:0:
24,194,169493,1,8,0:0:0:0:
24,194,169672,2,0,P|73:207|123:195,1,104,8|8,0:1|0:0,0:0:0:0:
164,173,170207,1,10,0:1:0:0:
247,215,170564,2,0,P|258:265|245:314,1,104,10|8,0:1|0:1,0:0:0:0:
224,356,171100,1,0,0:0:0:0:
224,356,171279,2,0,L|328:356,1,104,10|8,0:0|0:0,0:0:0:0:
404,302,171993,5,14,0:0:0:0:
255,114,183422,6,0,P|312:79|357:93,2,104,10|2|2,0:0|0:0|0:0,0:0:0:0:
231,204,184493,1,0,0:0:0:0:
162,268,184850,2,0,P|83:266|64:251,1,104,2|2,0:0|0:0,0:0:0:0:
52,207,185386,1,0,0:0:0:0:
130,90,185922,2,0,L|248:108,1,104,0|2,0:0|0:0,0:0:0:0:
325,120,186636,1,0,0:0:0:0:
418,124,186993,2,0,P|434:88|388:35,2,104,2|2|2,0:0|0:0|0:0,0:0:0:0:
356,194,188064,1,0,0:0:0:0:
404,274,188422,2,0,P|443:290|501:266,1,104,2|0,0:0|0:0,0:0:0:0:
508,175,189136,6,0,L|485:60,2,104,2|2|2,0:0|0:0|0:0,0:0:0:0:
498,268,190207,1,0,0:0:0:0:
409,298,190564,2,0,L|293:281,1,104,2|2,0:0|0:0,0:0:0:0:
260,273,191100,1,0,0:0:0:0:
130,328,191636,1,0,0:0:0:0:
48,281,191993,1,8,0:1:0:0:
384,116,193422,6,0,B|433:123|433:123|446:132|446:132|494:139,2,104,2|2|2,0:3|0:3|0:3,0:0:0:0:
337,108,194314,1,8,0:0:0:0:
337,108,194493,1,8,0:1:0:0:
267,170,194850,6,0,P|253:218|271:271,1,104,14|10,0:0|0:1,0:0:0:0:
292,309,195386,2,0,L|187:309,1,104,10|2,0:1|0:0,0:0:0:0:
136,231,196100,2,0,L|31:230,1,104,10|10,0:0|0:0,0:0:0:0:
0,195,196636,1,8,0:1:0:0:
0,195,196814,2,0,B|14:145|14:145|-1:94,1,104,10|10,0:1|0:0,0:0:0:0:
24,55,197350,1,10,0:1:0:0:
111,89,197707,6,0,P|160:104|209:91,1,104,12|8,0:0|0:1,0:0:0:0:
248,116,198243,2,0,B|262:166|262:166|247:216,1,104,10|2,0:1|0:0,0:0:0:0:
230,259,198779,1,8,0:1:0:0:
230,259,198957,1,10,0:0:0:0:
300,320,199314,1,8,0:0:0:0:
300,320,199493,2,0,P|350:334|400:316,1,104,10|10,0:1|0:0,0:0:0:0:
469,257,200207,1,8,0:1:0:0:
406,187,200564,6,0,B|392:136|392:136|406:86,1,104,14|10,0:0|0:1,0:0:0:0:
366,60,201100,2,0,L|262:60,1,104,10|2,0:1|0:0,0:0:0:0:
197,129,201814,2,0,L|196:232,1,104,10|10,0:0|0:0,0:0:0:0:
163,266,202350,1,8,0:1:0:0:
163,266,202529,2,0,P|113:280|63:262,1,104,10|10,0:1|0:0,0:0:0:0:
25,239,203064,1,14,0:1:0:0:
78,162,203422,6,0,B|92:112|92:112|77:61,1,104,12|10,0:0|0:1,0:0:0:0:
158,15,204136,2,0,B|208:29|208:29|259:15,1,104,10|10,0:1|0:1,0:0:0:0:
328,76,204850,6,0,L|380:67,1,52,10|10,0:1|0:0,0:0:0:0:
416,95,205207,2,0,L|468:86,1,52,10|10,0:0|0:1,0:0:0:0:
506,111,205564,1,10,0:1:0:0:
346,96,217707,6,0,L|242:113,1,104,12|8,0:0|0:1,0:0:0:0:
149,121,218422,2,0,P|132:161|133:181,1,52,2|10,0:0|0:0,0:0:0:0:
110,210,218779,2,0,P|126:250|141:263,1,52,10|2,0:1|0:0,0:0:0:0:
169,284,219136,2,0,L|287:262,1,104,14|10,0:0|0:1,0:0:0:0:
316,250,219672,1,8,0:1:0:0:
398,294,220029,2,0,L|391:351,2,52,10|10|2,0:0|0:1|0:0,0:0:0:0:
431,261,220564,6,0,L|415:158,1,104,12|8,0:0|0:1,0:0:0:0:
350,90,221279,2,0,L|298:98,1,52,2|10,0:0|0:0,0:0:0:0:
259,123,221636,2,0,L|207:114,1,52,10|2,0:1|0:0,0:0:0:0:
168,88,221993,2,0,B|118:73|118:73|68:89,1,104,14|8,0:0|0:1,0:0:0:0:
34,122,222529,1,8,0:1:0:0:
83,201,222886,1,8,0:0:0:0:
83,201,223064,1,14,0:1:0:0:
134,279,223422,6,0,L|247:252,2,104,14|10|2,0:0|0:1|0:0,0:0:0:0:
52,325,224493,2,0,P|48:352|64:375,1,52,10|0,0:1|0:0,0:0:0:0:
106,382,224850,2,0,L|218:354,1,104,14|10,0:0|0:1,0:0:0:0:
251,342,225386,1,10,0:1:0:0:
342,312,225743,1,10,0:0:0:0:
342,312,225922,1,10,0:1:0:0:
275,245,226279,6,0,P|261:195|275:145,2,104,14|10|2,0:0|0:1|0:0,0:0:0:0:
354,195,227350,2,0,L|406:195,1,52,10|8,0:1|0:0,0:0:0:0:
445,169,227707,2,0,L|445:103,1,52,10|2,0:0|0:0,0:0:0:0:
412,83,228064,2,0,L|308:83,1,104,10|8,0:1|0:1,0:0:0:0:
230,29,228779,2,0,L|178:29,1,52,10|2,0:1|0:0,0:0:0:0:
131,32,229136,6,0,B|106:78|106:78|136:126,1,104,12|8,0:0|0:1,0:0:0:0:
226,123,229850,2,0,P|237:163|229:189,1,52,2|10,0:0|0:0,0:0:0:0:
253,215,230207,2,0,P|232:251|208:263,1,52,10|2,0:1|0:0,0:0:0:0:
178,262,230564,2,0,P|155:326|191:361,1,104,14|10,0:0|0:1,0:0:0:0:
216,366,231100,1,8,0:1:0:0:
311,352,231457,1,10,0:0:0:0:
311,352,231636,2,0,L|378:336,1,52,10|2,0:1|0:0,0:0:0:0:
404,320,231993,6,0,P|419:271|405:222,1,104,12|8,0:0|0:1,0:0:0:0:
326,172,232707,2,0,P|300:167|274:170,1,52,2|10,0:0|0:0,0:0:0:0:
237,199,233064,2,0,P|211:203|185:200,1,52,10|2,0:1|0:0,0:0:0:0:
141,183,233422,2,0,B|92:201|92:201|43:184,1,104,14|10,0:0|0:1,0:0:0:0:
6,154,233957,1,8,0:1:0:0:
39,66,234314,1,8,0:0:0:0:
39,66,234493,1,10,0:1:0:0:
132,71,234850,6,0,L|256:53,1,104,14|10,0:0|0:1,0:0:0:0:
284,48,235386,1,10,0:1:0:0:
284,48,235564,1,2,0:0:0:0:
361,101,235922,2,0,L|463:86,2,104,10|14|10,0:1|0:0|0:1,0:0:0:0:
324,130,236814,2,0,P|317:202|354:236,1,104,10|10,0:1|0:0,0:0:0:0:
369,254,237350,1,10,0:1:0:0:
319,333,237707,6,0,B|270:346|270:346|216:330,1,104,14|10,0:0|0:1,0:0:0:0:
183,300,238243,1,10,0:1:0:0:
183,300,238422,2,0,L|80:316,1,104,2|10,0:0|0:1,0:0:0:0:
44,286,238957,1,8,0:0:0:0:
44,286,239136,2,0,P|30:236|43:186,1,104,10|10,0:0|0:1,0:0:0:0:
117,129,239850,2,0,B|166:142|166:142|217:128,1,104,2|10,0:0|0:1,0:0:0:0:
307,101,240564,6,0,P|357:138|358:182,2,104,12|8|8,0:0|0:0|0:0,0:0:0:0:
218,131,241636,1,8,0:0:0:0:
151,196,241993,2,0,L|41:194,2,104,8|8|8,0:0|0:0|0:0,0:0:0:0:
226,251,243064,1,8,0:0:0:0:
310,292,243422,6,0,L|433:273,1,104,12|8,0:1|0:1,0:0:0:0:
458,264,243957,1,8,0:1:0:0:
458,264,244136,2,0,P|466:211|423:165,1,104,8|0,0:1|0:1,0:0:0:0:
391,165,244672,1,4,0:3:0:0:
391,165,244850,1,4,0:3:0:0:
327,233,245207,1,8,0:1:0:0:
236,209,245564,1,8,0:1:0:0:
147,43,246279,6,0,P|97:30|43:43,1,104,14|8,0:0|0:1,0:0:0:0:
16,76,246814,1,8,0:1:0:0:
16,76,246993,2,0,L|16:180,1,104,10|10,0:0|0:1,0:0:0:0:
59,262,247707,2,0,P|109:275|163:262,1,104,10|10,0:0|0:1,0:0:0:0:
200,241,248243,2,0,L|302:257,1,104,10|8,0:1|0:0,0:0:0:0:
339,228,248779,1,8,0:1:0:0:
392,151,249136,6,0,B|443:164|443:164|501:135,2,104,14|10|10,0:0|0:1|0:0,0:0:0:0:
304,117,250207,1,10,0:1:0:0:
214,143,250564,2,0,P|197:186|204:206,1,52,10|0,0:0|0:0,0:0:0:0:
182,234,250922,2,0,P|200:276|219:285,1,52,14|8,0:1|0:1,0:0:0:0:
247,294,251279,1,10,0:0:0:0:
329,249,251636,1,12,0:1:0:0:
377,329,251993,6,0,P|427:340|478:330,1,104,14|10,0:0|0:1,0:0:0:0:
509,295,252529,1,8,0:1:0:0:
509,295,252707,2,0,L|509:191,1,104,0|8,0:0|0:1,0:0:0:0:
444,123,253422,2,0,B|394:109|394:109|344:124,1,104,10|8,0:0|0:1,0:0:0:0:
304,148,253957,2,0,B|254:163|254:163|204:149,1,104,8|8,0:1|0:0,0:0:0:0:
161,132,254493,1,8,0:1:0:0:
84,185,254850,5,14,0:0:0:0:
84,278,255207,1,10,0:0:0:0:
177,278,255564,1,10,0:0:0:0:
177,371,255922,1,10,0:0:0:0:
270,369,256279,2,0,L|388:365,1,104,10|10,0:1|0:0,0:0:0:0:
466,352,256993,6,0,P|482:290|450:242,1,104,14|0,0:0|0:0,0:0:0:0:
